osu file format v3

[General]
AudioFilename: Green Day - Holiday.mp3
AudioLeadIn: 0
AudioHash: 14f0219a57ab9918d95060321a4876e6
PreviewTime: -1
SampleSet: Normal

[Metadata]
Title:Holiday
Artist:Green Day
Creator:Puffles
Version:Normal

[Difficulty]
HPDrainRate:3
CircleSize:5
OverallDifficulty:3
SliderMultiplier: 1.4
SliderTickRate: 3

[Events]
0,0,"abstract.jpg"
2,60800,66499
2,108298,120138
2,137918,150032
3,0,0,0,0

[TimingPoints]
13229,409.556313993174

[HitObjects]
32,32,20191,5,4,
32,96,20464,2,0,B|32:96|64:160,1,46.6666666666667
96,32,21010,1,4,
96,96,21283,2,0,B|96:96|128:160,1,46.6666666666667
160,64,21829,1,4,
160,64,22239,1,4,
480,32,23467,5,4,
480,96,23740,2,0,B|480:96|448:160,1,46.6666666666667
416,32,24287,1,4,
416,96,24560,2,0,B|416:96|384:160,1,46.6666666666667
352,192,25106,1,0,
352,256,25515,1,0,
416,256,25925,1,0,
416,192,26334,1,0,
416,128,26744,1,4,
352,128,27017,6,0,B|352:128|320:64,1,46.6666666666667
216,88,27836,2,0,B|216:88|184:152,1,46.6666666666667
160,192,28382,1,0,
224,192,28792,1,0,
288,192,29201,1,0,
352,192,29611,1,4,
416,192,30020,2,4,B|416:192|416:80,1,93.3333333333333
256,192,30839,12,4,32478
32,352,33297,5,4,
32,288,33570,2,0,B|32:288|64:224,1,46.6666666666667
96,352,34116,1,4,
96,288,34389,2,0,B|96:288|128:224,1,46.6666666666667
160,320,34935,1,4,
160,320,35345,1,4,
480,352,36573,5,4,
480,288,36846,2,0,B|480:288|448:224,1,46.6666666666667
392,304,37392,1,0,
352,256,37802,1,0,
352,192,38212,1,0,
352,128,38621,1,0,
416,128,39031,1,0,
416,192,39440,1,0,
416,256,39850,1,4,
352,256,40123,6,0,B|352:256|320:320,1,46.6666666666667
216,296,40942,2,0,B|216:296|184:232,1,46.6666666666667
168,200,41351,2,0,B|168:200|136:136,1,46.6666666666667
208,160,41898,1,0,
272,160,42307,1,0,
336,160,42717,1,4,
400,160,43126,2,4,B|400:160|400:272,1,93.3333333333333
256,192,43945,12,6,45584
32,32,46403,5,4,
32,96,46812,1,0,
32,160,47222,1,4,
32,224,47631,2,0,B|32:224|144:224,1,93.3333333333333
192,224,48314,2,4,B|192:224|192:64,1,140
128,96,49269,1,0,
128,160,49679,1,4,
128,224,50089,2,0,B|128:224|240:224,1,93.3333333333333
288,224,50771,1,4,
480,32,52955,5,4,
416,32,53365,1,0,
352,32,53775,2,0,B|352:32|352:144,1,93.3333333333333
352,192,54457,2,0,B|352:192|192:192,2,140
416,192,55822,1,0,
416,128,56641,2,0,B|416:128|304:128,1,93.3333333333333
256,128,57324,1,4,
184,232,59508,6,6,B|184:232|344:232,1,140
304,152,60327,2,4,B|304:152|192:152,1,93.3333333333333
480,32,67699,5,4,
480,96,67972,2,0,B|480:96|448:160,1,46.6666666666667
416,32,68518,1,4,
416,96,68791,2,0,B|416:96|384:160,1,46.6666666666667
352,64,69337,1,4,
352,64,69747,1,4,
32,32,70839,6,0,B|32:32|64:96,1,46.6666666666667
72,104,71249,2,0,B|72:104|104:48,1,46.6666666666667
160,64,71795,1,0,
160,128,72205,1,0,
160,192,72614,1,0,
160,256,73023,1,0,
96,256,73433,1,0,
96,192,73842,1,0,
96,128,74252,1,4,
160,128,74525,6,0,B|160:128|192:64,1,46.6666666666667
296,88,75344,2,0,B|296:88|328:152,1,46.6666666666667
352,192,75890,1,0,
288,192,76300,1,0,
224,192,76709,1,0,
160,192,77119,1,4,
96,192,77528,2,4,B|96:192|96:80,1,93.3333333333333
256,192,78347,12,4,79986
480,352,80805,5,4,
480,288,81078,2,0,B|480:288|448:224,1,46.6666666666667
416,288,81624,1,4,
416,352,82034,1,4,
352,352,82307,2,0,B|352:352|320:288,1,46.6666666666667
312,256,82853,1,4,
32,352,84082,5,4,
32,288,84355,2,0,B|32:288|64:224,1,46.6666666666667
96,352,84902,1,4,
96,288,85175,2,0,B|96:288|128:224,1,46.6666666666667
160,192,85721,1,0,
160,128,86130,1,0,
96,128,86540,1,0,
96,192,86949,1,0,
96,256,87359,1,4,
160,256,87631,6,0,B|160:256|192:320,1,46.6666666666667
296,296,88450,2,0,B|296:296|328:232,1,46.6666666666667
352,192,88996,1,0,
288,192,89406,1,0,
224,192,89815,1,0,
160,192,90089,2,0,B|160:192|72:192,1,46.6666666666667
48,192,90634,2,4,B|48:192|48:304,1,93.3333333333333
256,192,91454,12,2,93092
480,32,93911,5,4,
480,96,94320,1,0,
480,160,94730,1,4,
480,224,95139,2,0,B|480:224|368:224,1,93.3333333333333
320,224,95822,2,4,B|320:224|320:64,1,140
384,96,96777,1,0,
384,160,97187,1,4,
384,224,97597,2,0,B|384:224|272:224,1,93.3333333333333
224,224,98279,1,4,
32,32,100463,5,4,
96,32,100873,1,0,
160,32,101283,2,0,B|160:32|160:144,1,93.3333333333333
160,192,101965,2,0,B|160:192|320:192,2,140
96,192,103330,1,0,
96,128,104149,2,0,B|96:128|208:128,1,93.3333333333333
256,128,104832,1,4,
328,232,107017,6,6,B|328:232|168:232,1,140
208,152,107835,2,4,B|208:152|320:152,1,93.3333333333333
320,352,121351,5,0,
256,352,121761,2,0,B|256:352|176:352,3,70
128,352,122887,2,0,B|128:352|128:208,2,140
192,288,124013,6,0,B|192:288|272:288,3,70
320,288,125037,1,0,
320,288,125447,1,0,
320,224,126164,6,0,B|320:224|176:224,4,140
384,224,128314,6,0,B|384:224|384:128,3,70
328,160,129406,2,0,B|328:160|184:160,2,140
392,160,130635,2,0,B|392:160|392:88,1,46.6666666666667
392,48,131044,2,0,B|392:48|320:48,1,46.6666666666667
256,48,132819,5,4,
256,48,134457,1,4,
256,0,137734,5,4,
32,32,151249,5,4,
96,32,151659,1,0,
160,32,152068,1,4,
224,32,152341,2,0,B|224:32|224:96,1,46.6666666666667
288,80,152751,2,0,B|288:80|288:16,1,46.6666666666667
352,32,153297,1,0,
416,32,153706,1,4,
416,192,154525,5,0,
352,192,154798,2,0,B|352:192|352:128,1,46.6666666666667
288,144,155345,1,0,
224,144,155618,2,0,B|224:144|224:208,1,46.6666666666667
160,192,156164,1,4,
96,192,156573,1,4,
32,352,157802,5,4,
96,352,158075,2,0,B|96:352|96:288,1,46.6666666666667
160,304,158621,1,4,
224,304,159031,1,0,
288,304,159440,1,4,
352,304,159850,1,0,
416,304,160259,1,4,
416,192,160942,6,0,B|416:192|416:256,1,46.6666666666667
352,240,161351,2,0,B|352:240|352:176,1,46.6666666666667
288,192,161897,1,4,
224,192,162307,1,4,
160,192,162717,1,4,
96,192,163126,1,4,
480,32,164355,5,4,
416,32,164765,1,0,
352,32,165174,1,4,
288,32,165447,2,0,B|288:32|288:96,1,46.6666666666667
224,80,165993,1,4,
160,80,166403,1,0,
96,80,166812,1,4,
96,192,167495,6,0,B|96:192|96:128,1,46.6666666666667
160,144,167904,2,0,B|160:144|160:208,1,46.6666666666667
224,192,168450,1,4,
288,192,168860,1,4,
352,192,169270,1,4,
416,192,169679,1,4,
480,352,170771,6,0,B|480:352|480:288,1,46.6666666666667
416,304,171181,2,0,B|416:304|416:368,1,46.6666666666667
352,352,171727,1,4,
288,352,172136,1,0,
224,352,172546,1,4,
160,352,172956,1,0,
96,352,173365,1,4,
96,192,174048,6,0,B|96:192|96:256,1,46.6666666666667
160,240,174457,2,0,B|160:240|160:176,1,46.6666666666667
224,192,175003,1,4,
288,192,175413,1,4,
352,192,175823,1,4,
416,192,176232,1,4,
480,32,177461,5,0,
480,192,178280,1,0,
480,352,179099,1,0,
256,352,179918,1,0,
32,352,180737,1,0,
32,192,181556,1,0,
32,32,182375,1,0,
256,32,183194,1,0,
416,32,184013,5,4,
352,32,184422,1,0,
288,32,184832,1,4,
224,32,185241,2,0,B|224:32|224:144,1,93.3333333333333
224,192,185924,2,4,B|224:192|384:192,1,140
352,128,186879,1,0,
288,128,187289,1,4,
224,128,187699,2,0,B|224:128|224:240,1,93.3333333333333
224,288,188381,1,4,
416,352,190565,5,4,
416,288,190975,1,0,
416,224,191385,2,0,B|416:224|304:224,1,93.3333333333333
256,224,192067,2,0,B|256:224|256:64,2,140
256,288,193432,1,0,
320,288,194251,2,0,B|320:288|320:176,1,93.3333333333333
320,128,194934,1,4,
96,352,197119,5,4,
160,352,197528,1,0,
224,352,197938,1,4,
288,352,198347,2,0,B|288:352|288:240,1,93.3333333333333
288,192,199030,2,4,B|288:192|128:192,1,140
160,256,199985,1,0,
224,256,200395,1,4,
288,256,200805,2,0,B|288:256|288:144,1,93.3333333333333
288,96,201487,1,4,
96,32,203671,5,4,
96,96,204081,1,0,
96,160,204491,2,0,B|96:160|208:160,1,93.3333333333333
256,160,205173,2,0,B|256:160|256:320,2,140
256,96,206538,1,0,
192,96,207357,2,0,B|192:96|192:208,1,93.3333333333333
192,256,208040,1,4,
256,192,208587,12,0,210635
256,352,211863,1,4,
256,288,212273,1,4,
256,224,212682,1,0,
256,224,212955,1,4,
256,160,213502,1,6,
256,96,213911,1,6,
256,96,214184,1,0,
256,32,214594,1,4,
256,192,215140,12,2,225379
256,72,226198,1,4,
256,152,226607,1,4,
256,232,227017,1,4,
256,312,227426,1,4,
