osu file format v5

[General]
AudioFilename: Green Day - Boulevard Of Broken Dreams.mp3
AudioLeadIn: 0
PreviewTime: 48198
Countdown: 2
SampleSet: Normal
StackLeniency: 0.7
Mode: 0
LetterboxInBreaks: 1

[Editor]
Bookmarks: 11031,28617,51601,85000,104262,126316,157498,172397,186588,195096,198157
DistanceSpacing: 1
BeatDivisor: 2
GridSize: 16

[Metadata]
Title:Boulevard Of Broken Dreams
Artist:Green Day
Creator:kingcobra52
Version:Hard
Source:
Tags:

[Difficulty]
HPDrainRate:6
CircleSize:5
OverallDifficulty:6
SliderMultiplier:1
SliderTickRate:1

[Events]
//Background and Video events
0,0,"cfiles26406.jpg"
//Break Periods
2,73518,85041
2,148240,157167
2,185584,195845
//Storyboard Layer 0 (Background)
//Storyboard Layer 1 (Fail)
//Storyboard Layer 2 (Pass)
//Storyboard Layer 3 (Foreground)
//Storyboard Sound Samples
//Background Colour Transformations
3,100,163,162,255
3,100,163,162,255
3,100,163,162,255
3,100,163,162,255

[TimingPoints]
11524,359.714337125749,4,1,0,100,1,0
17275,359.281437125748,4,1,0,100,1,0
50330,358.748237125748,4,1,0,100,1,0
86273,358.747637125748,4,1,0,100,1,0
103492,359.281437125748,4,1,0,100,1,0
125055,358.747637125748,4,1,0,100,1,0
149500,359.496704613541,4,1,0,100,1,0
160988,358.213737125748,4,1,0,100,1,0
172435,359.713037125748,4,1,0,100,1,0
197260,359.166327289048,4,1,0,100,1,0
224197,359.499327289048,4,1,0,100,1,0

[HitObjects]
48,56,11523,2,0,B|264:56,1,200
344,56,12603,1,0
440,56,12962,2,0,B|440:168,1,100
440,256,13682,1,0
360,304,14042,1,0
312,304,14221,2,0,B|256:304,1,50
160,304,14761,1,0
104,224,15121,1,0
48,144,15480,1,0
48,144,15660,1,0
48,144,15840,1,0
104,64,16200,1,2
200,40,16560,1,2
296,40,16919,1,2
344,40,17099,1,2
232,264,17993,6,0,B|292:289|328:216,1,100
370,174,18712,2,0,B|390:128|466:126,1,100
469,204,19430,2,0,B|499:239|482:286|428:288,1,100
383,322,20149,1,0
318,274,20508,1,0
253,320,20867,1,0
160,326,21227,2,0,B|112:278,1,50
120,219,21766,2,0,B|160:179,1,50
215,130,22304,1,0
280,83,22664,1,0
319,83,22843,1,0
128,232,23742,6,0,B|146:271|189:271|213:212,1,100
232,136,24460,1,4
232,136,24819,1,4
272,48,25179,6,0,B|290:9|333:9|352:56,1,100
384,136,25897,1,4
385,137,26257,1,4
424,224,26616,6,2,B|442:263|485:263|504:216,1,100
176,184,29131,6,0,L|248:258,1,100
312,320,29849,1,0
392,272,30209,2,0,B|464:200,1,100
464,104,30927,2,0,B|384:32,1,100
288,32,31646,5,0
192,32,32005,1,0
112,80,32364,1,0
48,152,32724,2,0,B|-8:152,2,50
112,224,33442,1,0
192,168,33801,1,0
272,224,34161,1,0
272,272,34340,2,0,B|184:336,1,100
136,192,35239,6,0,B|192:96,1,100
280,104,35957,2,0,B|340:200,1,100
384,104,36676,1,0
424,192,37035,1,0
424,192,37215,1,0
424,192,37394,1,0
448,288,37754,1,0
368,344,38113,1,0
288,288,38472,2,0,B|216:304,1,50
144,304,39011,2,0,B|80:272,1,50
32,208,39550,1,0
104,144,39909,1,0
144,120,40089,1,4
48,344,40987,6,0,B|55:277|128:291,1,100
216,288,41706,1,4
216,288,42065,1,4
312,288,42424,6,0,B|373:292|368:368,1,100
464,352,43143,1,0
432,256,43502,1,0
376,176,43861,5,0
296,120,44221,2,2,B|240:120,1,50
160,240,44939,1,2
88,176,45298,1,2
168,120,45658,2,2,B|224:120,1,50
264,120,46017,1,0
264,216,46376,1,0
264,312,46736,6,0,B|282:368|352:368,1,100
432,336,47454,1,4
432,336,47813,1,4
464,240,48173,6,0,B|460:181|384:168,1,100
304,168,48891,1,0
224,112,49251,5,0
160,184,49610,1,0
96,256,49969,1,0
128,224,50149,1,0
192,288,50509,1,0
224,320,50688,1,4
320,320,51047,1,4
416,320,51406,1,4
416,224,51764,5,4
408,128,52123,1,0
336,64,52482,1,0
240,56,52841,2,4,B|134:28|56:136,2,200
208,152,54634,1,0
152,232,54993,1,0
208,304,55352,1,0
304,320,55711,1,0
256,312,55890,1,0
304,320,56069,1,0
384,264,56428,1,2
416,168,56787,1,2
376,80,57146,1,2
296,24,57504,5,0
224,88,57863,1,0
152,24,58222,1,0
88,96,58581,2,4,B|176:280,2,200
184,96,60374,1,0
232,176,60733,1,0
280,256,61092,1,0
232,176,61451,1,0
256,216,61630,1,0
280,256,61809,1,0
328,336,62168,1,2
232,336,62527,1,2
136,336,62886,1,2
96,248,63244,5,0
160,176,63603,1,0
224,248,63962,1,0
160,176,64321,2,4,B|211:77|336:88,2,200
240,224,66114,1,0
320,280,66473,1,0
400,224,66832,1,0
320,280,67191,1,0
320,232,67370,1,0
320,184,67549,1,0
320,88,67908,1,2
224,88,68267,1,2
320,88,68626,1,2
392,152,68984,5,0
368,248,69343,1,0
288,304,69702,1,0
240,216,70061,2,0,B|143:260,1,100
120,160,70778,2,0,B|224:112,1,100
256,192,71496,12,4,73289
48,56,86273,5,0
160,56,86631,1,0
256,56,86990,2,0,L|256:176,1,100
256,256,87707,2,0,B|256:360,1,100
256,357,88425,1,0
416,240,89142,6,0,L|488:152,1,100
408,96,89860,2,0,B|317:22,1,100
232,32,90577,2,0,L|147:92,1,100
64,136,91295,1,0
128,216,91654,1,0
192,288,92012,1,0
392,296,92730,6,0,B|472:224,1,100
440,328,93447,2,0,B|520:248,1,100
512,259,94165,1,0
400,96,94882,2,0,B|288:96,1,100
200,96,95600,1,0
96,96,95959,1,0
152,176,96317,1,0
208,256,96676,2,0,B|250:287|304:256,1,100
392,208,97394,2,0,B|435:173,1,50
192,112,98470,6,0,B|265:21,1,100
352,32,99187,1,4
352,32,99546,1,4
448,40,99905,6,0,B|376:128,1,100
384,216,100622,1,4
384,216,100981,1,4
280,216,101340,6,0,B|208:296,1,100
216,64,103492,6,4,B|0:64,1,200
16,264,104929,2,4,B|224:264,1,200
416,272,106366,2,0,B|498:201,1,100
432,128,107084,1,0
344,80,107444,1,0
248,40,107803,2,0,B|136:64,1,100
56,96,108521,1,0
112,176,108881,1,0
56,256,109240,1,0
256,256,109959,6,0,B|312:160,1,100
408,168,110677,2,0,B|456:264,1,100
452,258,111396,1,0
368,312,111755,1,0
328,336,111935,1,0
288,312,112114,1,0
240,232,112474,1,0
144,232,112833,1,0
80,160,113192,2,0,B|44:98,1,50
144,80,113731,1,0
144,80,113911,1,0
224,120,114270,1,0
312,80,114629,2,0,B|372:55,1,50
448,168,115348,5,0
448,264,115707,2,0,L|488:300|448:336,1,100
360,336,116426,5,4
360,336,116785,1,4
264,336,117145,2,0,L|227:305|280:264,1,100
360,240,117863,1,4
264,248,118222,5,4
264,152,118582,1,0
264,56,118941,2,0,B|264:0,1,50
120,16,119660,1,2
120,112,120019,1,2
120,208,120378,2,2,B|120:264,1,50
264,256,121097,1,0
360,256,121456,6,0,B|404:304|344:344,1,100
256,336,122175,1,4
256,336,122534,1,4
160,336,122893,6,0,B|208:292|144:248,1,100
56,256,123612,1,4
112,176,123971,5,4
48,104,124330,1,0
112,40,124690,2,0,B|184:24,1,50
248,32,125234,1,4
248,80,125413,1,4
248,176,125772,2,4,B|248:232,4,50
248,272,126848,5,4
336,232,127207,1,0
400,296,127566,2,4,B|488:240,1,100
480,144,128283,2,4,B|401:73,1,100
336,144,129001,2,4,B|246:71,1,100
176,136,129718,1,0
104,72,130077,1,0
176,8,130436,1,0
224,8,130615,1,0
176,8,130794,1,0
272,8,131153,1,2
320,88,131512,1,2
272,168,131871,1,2
272,264,132229,5,0
368,264,132588,1,0
320,344,132947,1,0
272,264,133306,2,4,B|192:200,1,100
96,200,134023,2,4,B|32:280,1,100
96,200,134741,2,4,B|24:112,1,100
104,64,135458,1,0
200,64,135817,1,0
296,64,136176,1,0
248,64,136355,1,0
296,64,136534,1,0
248,144,136893,1,2
200,224,137252,1,2
296,224,137611,1,2
352,144,137969,5,0
416,216,138328,1,0
352,288,138687,2,4,B|272:368,1,100
216,288,139404,1,0
152,216,139763,2,4,L|240:136,1,100
304,88,140481,1,4
376,24,140839,1,0
448,88,141198,2,0,B|448:192,1,100
408,272,141916,1,0
456,272,142095,1,0
408,272,142274,1,0
312,272,142633,2,2,B|212:224,1,100
128,232,143351,1,2
32,232,143709,5,0
80,152,144068,1,0
144,88,144427,1,0
232,48,144786,1,0
280,128,145144,1,0
336,48,145503,1,0
384,128,145862,1,0
440,48,146221,1,0
256,192,146579,12,4,148014
80,232,158487,5,0
144,168,158846,1,0
208,104,159206,1,0
256,104,159386,1,0
352,104,159745,1,0
304,104,159925,1,4
208,104,160284,1,4
304,104,160644,1,4
304,192,160988,5,4
224,240,161346,1,0
304,296,161704,1,0
304,296,161883,1,0
304,296,162062,1,0
224,344,162420,1,0
144,288,162779,1,0
112,200,163137,1,0
112,200,163316,1,0
112,200,163495,1,0
152,112,163853,1,4
232,56,164211,1,0
328,64,164570,1,2
328,64,164749,1,2
328,64,164928,1,2
328,160,165286,1,2
232,160,165644,1,0
328,160,166002,1,2
232,160,166361,1,0
136,160,166719,5,0
80,240,167077,1,0
136,312,167435,1,0
136,312,167614,1,0
136,312,167794,1,0
216,264,168152,1,0
312,264,168510,1,0
392,208,168868,1,0
392,208,169047,1,0
392,208,169226,1,0
312,152,169585,1,0
392,104,169943,1,0
312,48,170301,1,2
312,48,170480,1,2
312,48,170659,1,2
240,104,171017,1,2
168,168,171376,1,0
232,240,171734,1,2
168,304,172092,1,0
96,240,172450,5,4
96,144,172794,1,4
192,144,173154,1,0
192,144,173334,1,0
192,144,173514,1,0
288,144,173873,1,4
288,240,174233,1,4
192,240,174593,1,0
192,240,174773,1,0
192,240,174952,1,0
200,336,175312,6,0,B|296:296,1,100
296,200,176032,2,0,B|200:144,1,100
112,144,176751,2,2,B|16:192,1,100
24,280,177470,2,2,B|112:336,1,100
200,336,178190,5,4
280,280,178550,1,4
360,232,178909,1,0
360,280,179089,1,0
360,328,179269,1,0
360,232,179629,1,4
360,136,179988,1,4
360,40,180348,1,0
360,88,180528,1,0
360,136,180708,1,0
264,136,181068,5,0
192,72,181427,1,4
120,136,181787,1,4
192,200,182147,1,4
264,264,182506,1,4
192,328,182866,1,4
120,264,183226,1,4
192,200,183586,1,4
256,192,183945,12,4,185024
256,192,185384,5,4
264,272,197075,5,4
264,272,197260,1,4
344,224,197619,1,4
424,168,197978,1,4
344,112,198337,5,4
264,64,198696,1,4
176,24,199055,1,0
88,64,199414,2,4,B|0:136,1,100
16,224,200133,2,4,B|112:280,1,100
200,272,200851,2,4,B|304:224,1,100
376,192,201569,1,0
464,152,201929,1,0
376,112,202288,1,0
376,64,202467,1,0
376,112,202647,1,0
296,64,203006,1,2
200,64,203365,1,2
296,64,203724,1,2
248,64,203904,1,2
200,64,204084,5,2
208,160,204443,1,0
304,160,204802,1,0
304,256,205161,2,4,B|400:200,1,100
432,288,205879,2,4,B|352:368,1,100
432,288,206598,2,4,B|512:208,1,100
448,136,207316,1,0
376,72,207675,1,0
280,56,208034,1,0
232,56,208214,1,0
280,56,208394,1,0
232,136,208753,1,2
168,200,209112,1,2
232,264,209471,1,2
280,264,209651,1,2
232,264,209830,5,2
232,360,210189,1,0
136,360,210549,2,4,B|64:288,1,100
144,232,211267,2,4,L|232:152,1,100
144,104,211985,2,4,B|80:24,1,100
144,104,212704,1,4
240,112,213063,2,0,B|304:200,1,100
352,256,213781,1,0
328,224,213961,1,0
352,256,214140,1,0
256,224,214499,2,2,B|149:224,2,100
232,264,215397,1,2
280,264,215577,6,2,B|280:328|344:352,1,100
424,344,216295,2,2,B|472:328|488:247,1,100
432,184,217014,2,2,B|391:148,1,50
344,136,217373,2,2,B|280:128,1,50
248,136,217732,2,2,B|192:160,1,50
160,184,218091,2,2,B|120:232,1,50
112,264,218450,5,4
208,264,218809,1,4
240,296,218989,1,4
272,264,219169,1,4
336,192,219528,1,4
368,160,219707,1,4
400,192,219887,1,4
400,96,220246,1,4
432,64,220426,1,4
400,32,220605,1,4
312,64,220964,1,4
280,96,221144,1,4
248,64,221324,5,4
216,96,221503,1,4
184,64,221683,1,4
144,88,221862,1,4
128,128,222042,1,4
136,176,222222,1,4
152,216,222401,1,4
184,248,222581,1,4
232,256,222760,1,4
280,248,222940,1,4
320,224,223119,1,4
344,184,223299,1,4
336,136,223479,1,4
304,96,223658,1,4
256,192,223838,12,4,224197
