osu file format v5

[General]
AudioFilename: Green Day - Boulevard Of Broken Dreams.mp3
AudioLeadIn: 0
PreviewTime: 48198
Countdown: 2
SampleSet: Normal
StackLeniency: 0.7
Mode: 0
LetterboxInBreaks: 1
EditorBookmarks: 11031,28617,51601,85523,103316,126316,159116

[Metadata]
Title:Boulevard Of Broken Dreams
Artist:Green Day
Creator:kingcobra52
Version:Easy
Source:
Tags:

[Difficulty]
HPDrainRate:4
CircleSize:3
OverallDifficulty:4
SliderMultiplier:0.7
SliderTickRate:0.5

[Events]
//Background and Video events
0,0,"cfiles26406.jpg"
//Break Periods
2,73518,84921
2,148240,158245
//Storyboard Layer 0 (Background)
//Storyboard Layer 1 (Failing)
//Storyboard Layer 2 (Passing)
//Storyboard Layer 3 (Foreground)
//Storyboard Sound Samples
//Background Colour Transformations
3,100,163,162,255
3,100,163,162,255

[TimingPoints]
11524,359.714337125749,4,1,0,100
17275,359.281437125748,4,1,0,100
50330,358.748237125748,4,1,0,100
86273,358.747637125748,4,1,0,100
103492,359.281437125748,4,1,0,100
125055,358.747637125748,4,1,0,100
149500,359.496704613541,4,1,0,100
160988,358.213737125748,4,1,0,100
172435,359.713037125748,4,1,0,100
197260,359.166327289048,4,1,0,100
224197,359.499327289048,4,1,0,100

[HitObjects]
48,192,11523,2,0,B|480:192,1,420
408,304,14401,1,0
280,288,15121,1,0
160,240,15840,1,0
80,136,16560,1,0
160,40,17275,6,4,B|296:40|392:40|424:167|359:219|240:200,1,420
120,224,20149,1,0
208,312,20867,1,0
336,328,21586,1,0
440,256,22304,1,0
432,128,23023,1,0
328,48,23742,6,0,B|311:137|247:12|216:104,1,140
112,168,25179,6,0,B|139:257|203:132|220:221,1,140
328,264,26616,6,2,B|311:353|247:228|216:328,1,140
96,96,28772,6,0,L|192:200|288:96|400:200,1,420
392,312,31646,1,0
272,320,32364,1,0
144,288,33083,1,0
80,176,33801,1,0
160,72,34520,6,0,L|204:130|246:74|285:131|329:74|370:134|408:72,1,420
416,208,37394,1,0
336,304,38113,1,0
256,208,38831,1,0
184,312,39550,1,0
104,208,40269,1,0
208,136,40987,6,0,B|297:119|172:55|264:24,1,140
384,32,42424,6,0,B|473:49|348:113|440:144,1,140
464,264,43861,5,2
336,264,44580,2,2,B|184:264,1,140
72,264,46017,1,2
72,136,46736,6,0,B|89:225|153:100|176:200,1,140
304,184,48173,6,0,B|331:96|395:221|412:132,1,140
424,264,49610,5,0
296,264,50330,2,4,B|216:264,3,70
152,264,51764,5,4
64,168,52482,1,0
112,128,52841,2,4,B|164:47|232:128,1,140
320,208,54276,1,0
440,64,55352,1,0
312,64,56069,1,0
248,64,56428,2,2,L|176:64,2,70
176,64,57504,5,0
56,112,58222,1,0
56,176,58581,2,4,B|48:240|128:288,1,140
248,296,60016,1,0
432,288,61092,1,0
432,160,61809,1,0
432,96,62168,2,2,L|432:16,2,70
368,96,63244,5,0
256,144,63962,1,0
200,176,64321,2,4,L|152:226|200:288,1,140
320,280,65756,1,0
328,88,66832,1,0
408,184,67549,1,0
472,184,67908,2,2,L|472:112,2,70
472,184,68984,5,0
472,312,69702,1,0
344,312,70419,1,0
216,312,71137,1,0
256,192,71854,12,4,73289
256,24,86273,6,0,L|256:304,1,280
256,304,88425,1,0
184,184,89142,2,0,L|184:32,1,140
320,40,90577,2,0,L|320:184,1,140
320,312,92012,1,0
184,312,92730,6,0,L|143:252|184:192,2,140
320,320,94882,2,0,B|400:320|432:240,1,140
432,112,96317,2,0,B|403:39|312:32,1,140
312,176,97752,1,0
176,176,98470,6,0,B|87:193|212:257|112:288,1,140
256,296,99905,6,0,B|283:224|347:349|368:280,1,140
368,144,101340,6,2,B|280:118|405:54|316:37,1,140
96,192,103491,6,0,B|248:192,3,140
296,72,106366,2,0,B|432:152,1,140
416,241,107803,2,0,B|288:312,1,140
160,312,109240,1,0
80,200,109958,6,0,L|170:91|264:208,1,280
392,200,112114,1,0
392,64,112833,1,0
256,64,113551,1,0
152,152,114270,1,0
48,240,114988,1,0
152,320,115707,6,0,L|216:349|288:320,1,140
400,256,117144,6,0,L|429:192|400:120,1,140
288,64,118581,5,2
184,152,119300,1,2
288,240,120018,2,2,L|440:240,1,140
288,240,121455,6,0,B|231:304|160:232,1,140
168,104,122893,6,0,B|233:39|290:103,1,140
424,112,124330,5,0
424,248,125055,2,4,B|336:248,3,70
280,248,126489,5,4
160,312,127207,1,0
112,272,127566,2,4,L|56:208|88:152,1,140
144,48,129001,1,0
328,48,130077,1,0
328,176,130794,1,0
328,240,131153,2,2,B|416:240,1,70
398,240,131871,1,2
456,240,132229,5,0
456,112,132947,1,0
400,80,133306,2,4,B|324:43|264:80,1,140
168,160,134741,1,0
360,160,135817,1,0
360,32,136534,1,0
296,32,136893,2,2,B|216:32,1,70
226,31,137611,1,2
160,32,137969,5,0
72,120,138687,2,0,B|144:256,1,140
232,320,140122,2,0,B|352:216,1,140
336,104,141557,2,0,B|192:104,1,140
136,104,142633,2,2,B|136:184,1,70
136,232,143351,1,2
136,296,143709,5,0
264,296,144427,2,0,B|384:288|464:224|472:128,1,280
256,192,146579,12,4,148014
192,192,159565,6,4,B|272:192,3,70
328,192,160988,5,4
440,272,161704,2,0,B|368:320,1,70
176,312,163137,2,0,B|112:264,1,70
120,64,164570,2,2,B|200:32,1,70
256,32,165286,1,2
392,32,166002,1,2
392,168,166719,5,0
392,304,167435,2,0,B|312:304,1,70
120,304,168868,2,0,B|40:304,1,70
48,96,170301,2,2,B|120:96,1,70
184,96,171017,1,2
328,96,171734,1,2
336,232,172434,5,4
400,232,172794,1,4
192,232,173873,1,4
120,232,174233,1,4
256,72,175312,6,0,B|376:176,1,140
264,256,176751,2,2,B|152:160,1,140
72,64,178190,5,4
72,136,178550,1,4
72,336,179629,1,4
72,264,179988,1,4
256,192,181068,12,4,185384
