osu file format v7

[General]
AudioFilename: Green Day - American Idiot.mp3
AudioLeadIn: 1996
PreviewTime: 31192
Countdown: 0
SampleSet: Normal
StackLeniency: 0.7
Mode: 0
LetterboxInBreaks: 1

[Editor]
Bookmarks: 53274,63436,128274,138436
DistanceSpacing: 1.20000004768372
BeatDivisor: 2
GridSize: 8

[Metadata]
Title:American Idiot
Artist:Green Day
Creator:Sushi971
Version:Insane
Source:
Tags:

[Difficulty]
HPDrainRate:8
CircleSize:4
OverallDifficulty:7
SliderMultiplier:1.6
SliderTickRate:1

[Events]
//Background and Video events
0,0,"american idiot.jpg"
//Break Periods
2,51714,61420
2,126875,136420
//Storyboard Layer 0 (Background)
//Storyboard Layer 1 (Fail)
//Storyboard Layer 2 (Pass)
//Storyboard Layer 3 (Foreground)
//Storyboard Sound Samples
//Background Colour Transformations
3,100,255,255,255

[TimingPoints]
225,322.58064516129,4,1,0,100,1,0
10560,-100,4,1,0,49,0,0
12778,-100,4,1,0,100,0,0
15721,-100,4,1,0,49,0,0
17939,-100,4,1,0,100,0,0
20883,-100,4,1,0,49,0,0
23100,-100,4,1,0,100,0,0
26044,-100,4,1,0,49,0,0
28262,-100,4,1,0,100,0,0
31195,-100,4,1,0,100,0,1
48947,-100,4,2,0,100,0,0
51447,-100,4,1,0,100,0,0
62002,-100,4,1,0,48,0,0
64381,-100,4,1,0,100,0,0
67324,-100,4,1,0,49,0,0
69542,-100,4,1,0,100,0,0
72486,-100,4,1,0,49,0,0
74703,-100,4,1,0,100,0,0
77647,-100,4,1,0,100,0,1
95550,-100,4,2,0,100,0,0
97929,-100,4,1,0,100,0,0
107808,-100,4,2,0,100,0,0
108574,-100,4,1,0,100,0,0
137082,-200,4,2,0,100,0,0
141800,-100,4,1,0,100,0,0
142163,-100,4,1,0,100,0,1
160066,-100,4,2,0,100,0,1
160227,-100,4,2,0,100,0,0
162324,-100,4,1,0,100,0,0
170389,-100,4,1,0,49,0,0
171961,-100,4,1,0,100,0,0

[Colours]
Combo1 : 0,0,255
Combo2 : 255,0,0
Combo3 : 192,192,192

[HitObjects]
88,64,2804,1,0
184,40,2966,1,0
280,64,3127,1,8
376,40,3288,2,0,B|472:80|472:176,1,160
384,192,3772,1,8
471,226,3934,2,0,B|472:304|376:344,1,160
280,344,4417,2,0,L|232:344|168:320|120:320,2,160,8|0|4
32,216,5385,5,0
104,280,5546,1,0
200,280,5708,1,8
272,216,5869,2,0,B|376:216|376:120,1,160
280,120,6353,1,8
184,120,6514,2,0,B|184:24|288:24,1,160
376,32,6998,2,0,L|408:72|408:128|440:176,2,160,8|0|4
256,296,7965,5,0
160,296,8127,1,0
160,200,8288,1,8
256,200,8449,2,0,B|360:200|400:128,1,160
432,48,8933,1,8
344,16,9094,2,0,B|256:16|200:80,1,160
128,136,9578,2,0,L|72:136|24:160|-32:160,2,160,8|0|4
464,192,10707,5,0
432,280,10869,1,2
344,312,11030,1,2
256,280,11191,1,0
168,312,11353,1,0
80,280,11514,1,2
48,192,11675,2,0,L|48:24,1,160,2|0
144,32,12159,2,0,L|144:200,1,160,2|0
144,192,12643,1,0
144,192,12804,1,4
456,96,13127,5,0
392,168,13288,1,0
456,240,13449,1,8
392,312,13611,2,0,L|200:312,1,160
136,312,14094,1,8
136,216,14256,2,0,L|136:48,1,160
232,56,14740,2,0,L|232:144|304:176,2,160,8|0|4
256,344,15869,5,0
168,304,16030,1,2
168,304,16191,1,2
256,272,16353,1,0
256,272,16514,1,0
344,304,16675,1,2
344,304,16836,2,0,B|448:304|448:208,1,160
448,112,17320,2,0,B|256:112,1,160,2|0
288,112,17804,1,0
288,112,17965,1,4
56,296,18288,5,0
56,296,18449,1,0
152,296,18611,1,8
152,200,18772,2,0,B|216:200|256:232|256:296,1,160
344,296,19256,1,8
440,296,19417,2,0,B|440:233|400:201|336:201,1,160
336,104,19901,2,0,L|288:104|232:72|184:72,2,160,8|0|4
64,192,21030,5,0
64,96,21191,1,2
160,96,21353,1,2
160,192,21514,1,0
256,192,21675,2,0,B|352:192|392:288,3,160,0|2|0|2
384,271,22804,1,0
384,271,22965,1,0
384,271,23127,1,4
40,192,23449,6,0,L|40:296,2,80,0|0|8
40,96,23933,2,0,L|224:96,1,160
200,192,24417,1,8
296,192,24578,2,0,L|296:16,1,160
392,32,25062,2,0,L|432:32|488:80|536:80,2,160,8|0|4
72,192,26191,5,0
72,192,26353,1,2
216,312,26675,1,0
296,256,26836,1,0
216,200,26998,1,2
296,144,27159,2,0,B|376:80|296:0,2,160,0|2|0
216,96,27965,1,0
136,144,28127,1,0
216,200,28288,1,4
496,336,28611,5,0
400,336,28772,1,0
304,336,28933,1,8
232,272,29094,2,0,B|400:272,1,160
480,240,29578,1,8
392,208,29740,2,0,B|208:208,1,160
136,200,30223,2,0,L|168:200|216:120|256:120,2,160,8|0|0
352,32,31191,6,0,B|456:32|456:128,1,160,4|8
456,224,31675,1,0
440,320,31836,1,0
360,376,31998,1,2
384,184,32320,2,2,B|400:288|312:312,1,160,2|2
312,120,32965,1,2
312,120,33127,2,0,B|228:142|244:246,1,160,0|8
80,24,33772,6,0,B|256:24,1,160,4|8
336,48,34256,1,0
264,112,34417,1,0
352,144,34578,1,0
280,208,34740,1,8
368,240,34901,2,2,B|384:360|256:328,1,160
184,312,35385,1,8
96,352,35546,1,0
104,256,35707,1,0
16,296,35869,2,0,B|16:40,1,240,0|4
416,72,36675,5,8
336,120,36836,1,0
256,72,36998,1,0
176,120,37159,1,0
256,168,37320,1,8
336,216,37482,2,2,B|400:240|400:320|336:344,2,160
152,280,38449,1,0
256,8,38933,2,2,B|512:8,1,240,2|2
424,72,39578,6,0,B|256:72,1,160,0|8
264,72,40062,1,0
88,160,40385,1,0
184,160,40546,1,8
280,160,40707,1,0
376,160,40869,1,0
472,160,41030,1,0
472,160,41111,1,0
472,160,41191,1,8
128,328,41514,6,0,B|48:328|24:216,1,160,4|8
24,128,41998,1,0
88,56,42159,1,0
184,56,42320,1,0
376,64,42643,2,2,B|224:128,1,160
424,120,43288,1,2
424,120,43449,2,0,B|272:184,1,160,0|8
32,360,44094,6,0,B|128:360|152:264,2,160,4|8|0
32,168,45062,1,8
128,168,45223,2,2,B|224:168|272:264,1,160
320,320,45707,1,8
416,344,45869,1,0
488,288,46030,1,0
504,192,46191,2,0,B|520:128|504:56|440:32|344:72,1,240,0|4
56,200,46998,5,8
16,288,47159,1,0
112,280,47320,1,0
200,312,47482,2,2,B|256:352|312:328|312:256,2,160
104,144,48449,1,4
256,24,48772,1,4
424,288,49256,5,0
344,336,49417,1,0
256,288,49578,1,2
256,288,49740,1,2
168,336,49901,1,0
168,336,50062,1,0
88,288,50223,1,2
88,144,50385,5,2
88,120,50466,1,0
88,96,50547,1,0
168,48,50708,1,0
256,96,50869,1,2
256,96,51031,1,2
344,48,51192,1,0
344,48,51353,1,0
424,96,51514,1,4
256,24,62320,5,0
320,96,62482,1,2
256,168,62643,1,0
192,240,62804,1,2
128,168,62965,1,0
192,96,63127,1,2
128,24,63288,2,0,B|24:24|24:128,2,160,0|2|0
192,96,64094,2,0,B|360:96,1,160,0|4
32,240,64740,5,0
80,320,64901,1,0
176,344,65062,1,8
176,248,65223,2,0,B|344:248,1,160
336,152,65707,1,8
336,56,65869,2,0,B|168:56,1,160
176,152,66353,2,0,L|120:152|80:184|24:184,2,160,8|0|4
480,344,67482,5,0
384,344,67643,1,2
288,344,67804,1,2
192,344,67965,1,0
96,344,68127,2,0,B|16:344|16:272|72:232,2,160,2|2|2
168,280,68933,1,0
240,216,69094,1,0
312,152,69256,2,0,B|376:88|456:88,1,160,0|4
304,344,69901,5,0
208,344,70062,1,0
280,280,70223,1,8
184,280,70385,2,0,B|120:280|88:256|72:208|88:168,1,160
168,192,70869,1,8
152,96,71030,2,0,B|216:96|248:120|264:168|248:208,1,160
352,192,71514,2,0,L|432:192|496:136,2,160,8|0|4
32,32,72643,6,0,L|64:136,1,80,0|2
24,200,72965,1,0
56,288,73127,1,2
128,224,73288,1,0
200,280,73449,1,0
288,248,73611,2,0,B|328:248|352:296,2,80,2|0|0
216,192,74094,1,2
296,136,74256,1,0
216,80,74417,2,0,B|264:40|336:40|368:80,1,160,0|4
80,296,75062,5,0
160,344,75223,1,0
240,296,75385,1,8
320,344,75546,2,0,B|504:344,1,160
400,288,76030,1,8
320,232,76191,2,0,B|496:232,1,160
424,152,76675,2,0,L|352:112|264:145,2,160,8|0|0
160,192,77643,6,0,B|56:192|128:256|16:256,1,160,4|8
0,160,78127,1,0
40,72,78288,1,0
128,40,78449,2,2,B|224:16|264:120,2,160
256,184,79417,1,2
256,280,79578,2,0,B|312:280|344:240|352:192|344:160,1,160,0|8
88,344,80223,6,0,B|264:344,1,160,4|8
344,344,80707,1,0
440,344,80869,2,0,B|504:288|504:200,1,160,0|8
504,104,81353,2,2,B|504:16,2,80,2|0|2
424,152,81836,1,8
392,240,81998,1,0
304,280,82159,1,0
208,304,82320,2,0,B|104:344|24:288|48:200,1,240,0|4
88,120,82965,5,0
168,72,83127,1,8
264,88,83288,1,0
344,40,83449,2,0,B|392:24|424:56,1,80
360,128,83772,1,8
456,120,83933,2,2,B|456:224|344:224,1,160
168,224,84578,2,0,B|168:328|280:328,1,160,2|0
48,136,85385,2,2,B|144:64|288:64,1,240,2|2
368,64,86030,6,0,B|472:64|472:160,1,160,0|8
471,157,86514,1,0
280,160,86836,1,0
352,224,86998,1,8
280,288,87159,1,0
208,224,87320,1,0
112,224,87482,1,0
112,224,87562,1,0
112,224,87643,1,8
376,48,87966,6,0,B|440:232,1,160,4|8
464,288,88449,1,0
408,368,88611,1,0
328,320,88772,2,2,B|152:320,2,160
168,216,89740,1,2
264,216,89901,2,0,B|264:160|216:112|160:112,1,160,0|8
464,40,90546,6,0,B|464:216,1,160,4|8
368,200,91030,1,0
368,104,91191,2,0,B|192:104,1,160,0|8
280,168,91675,2,2,B|88:168,1,160
32,200,92159,1,8
0,288,92320,1,0
80,336,92482,1,0
176,336,92643,2,0,B|272:336|328:296|376:208,1,240,0|4
96,96,93449,6,0,B|128:48|184:64,2,80,8|0|0
64,184,93933,2,2,B|32:256|96:304|144:304,1,160
448,200,94578,2,0,B|480:128|416:80|368:80,1,160,2|0
256,192,95223,1,4
104,312,95707,5,0
64,224,95869,1,0
152,192,96030,1,2
152,192,96191,1,2
64,160,96353,1,0
64,160,96514,1,0
104,72,96675,1,2
312,72,96836,5,2
360,72,96917,1,0
408,72,96998,1,0
448,160,97160,1,0
360,192,97321,1,2
360,192,97482,1,2
448,224,97644,1,0
448,224,97805,1,0
408,312,97966,1,4
56,248,98288,6,0,B|-24:328,2,80,0|0|8
56,152,98772,2,0,B|56:56|160:56,1,160
256,56,99256,1,8
354,56,99417,2,0,B|456:56|456:152,1,160
456,248,99901,2,0,B|512:320|456:360|400:336,2,160,8|0|4
256,104,100869,6,0,B|152:104,2,80,0|0|8
256,200,101353,2,0,B|256:376,1,160
256,360,101836,1,8
160,360,101998,2,0,B|160:184,1,160
136,104,102482,2,0,B|304:104,2,160,8|0|4
440,104,103449,6,0,B|440:208,1,80
440,280,103772,1,8
344,280,103933,2,0,B|152:280,1,160
88,280,104417,1,8
88,184,104578,2,0,B|88:96|208:72,1,160
280,56,105062,2,0,B|368:32|432:88,2,160,8|0|4
256,344,106030,6,0,B|152:344,1,80
80,344,106353,1,8
80,248,106514,2,0,B|256:248,1,160
336,248,106998,1,8
432,248,107159,2,0,B|488:176|488:96,1,160
464,8,107643,1,8
256,32,107965,5,2
256,64,108046,1,2
256,96,108127,1,0
256,128,108207,1,2
256,160,108288,1,0
256,256,108449,1,0
256,352,108611,6,0,B|160:352|104:296,1,160,0|8
56,216,109094,1,0
48,120,109256,1,0
96,40,109417,1,0
96,40,109578,1,8
96,40,109740,1,2
288,40,110062,1,2
352,112,110223,2,0,B|424:192|384:272,2,160,8|0|8
88,272,111191,6,0,B|152:352|240:312,1,160,4|8
320,280,111675,1,0
400,224,111836,1,0
328,160,111998,1,0
408,104,112159,1,8
336,40,112320,2,2,B|272:40|224:88|224:144,3,160
200,224,113449,1,8
32,32,113772,6,0,B|128:32|152:120,1,160,0|8
96,200,114256,1,0
152,272,114417,1,0
240,248,114578,1,0
240,152,114740,1,8
304,80,114901,2,2,B|400:48|456:104,1,160
304,224,115546,2,2,B|400:256|456:200,1,160
453,202,116030,1,8
272,152,116353,5,0
272,152,116514,1,0
200,224,116675,1,10
128,152,116836,5,0
128,152,116998,1,0
200,224,117159,1,2
128,296,117320,5,8
128,296,117482,1,0
200,224,117643,1,2
272,296,117804,5,0
272,296,117965,1,8
200,224,118127,2,0,B|200:120,2,80,2|0|2
320,224,118611,5,8
320,224,118691,1,8
320,224,118772,1,8
320,224,118853,1,8
320,224,118933,2,0,B|504:224,1,160,4|8
480,128,119417,2,0,B|480:32,2,80
392,96,119901,1,8
312,48,120062,2,2,B|224:48|232:128|312:128,2,160
392,96,120869,1,0
392,192,121030,1,0
392,288,121191,1,8
32,192,121514,6,0,B|200:192,1,160,0|8
120,256,121998,1,0
216,256,122159,1,0
168,336,122320,1,0
264,336,122482,1,8
360,336,122643,2,2,B|456:336|456:232,1,160
152,48,123288,2,0,B|56:48|56:152,2,160,2|2|0
240,192,124094,6,0,B|296:280|384:256,1,160,0|8
464,216,124578,1,0
496,128,124740,2,0,B|520:88|488:48,2,80,0|0|8
408,168,125223,2,2,B|320:168|352:96|240:96,1,160
104,216,125869,2,2,B|192:216|160:288|272:288,1,160
256,16,126675,1,4
64,192,137320,5,2
112,192,137482,1,0
160,192,137643,1,0
96,264,137965,1,2
144,264,138127,2,0,B|256:264,2,80
144,312,138933,1,2
176,352,139094,1,0
224,352,139256,1,2
256,192,139740,12,4,141836
160,352,142159,6,0,B|56:352|56:256,1,160,4|8
56,160,142643,1,0
72,64,142804,1,0
152,8,142966,1,2
128,200,143288,2,2,B|112:96|200:72,1,160,2|2
200,264,143933,1,2
200,264,144095,2,0,B|284:242|268:138,1,160,0|8
464,64,144740,6,0,B|288:64,1,160,4|8
208,64,145224,1,0
112,64,145386,2,0,B|48:120|48:208,1,160,0|8
48,304,145870,2,2,B|48:392,2,80,2|0|2
128,256,146353,1,8
160,168,146515,1,0
248,128,146676,1,0
344,104,146837,2,0,B|448:64|528:120|504:208,1,240,0|4
96,312,147643,5,8
176,264,147804,1,0
256,312,147966,1,0
336,264,148127,1,0
256,216,148288,1,8
176,168,148450,2,2,B|112:144|112:64|176:40,2,160
360,104,149417,1,0
256,376,149901,2,2,B|0:376,1,240,2|2
88,312,150546,6,0,B|256:312,1,160,0|8
248,312,151030,1,0
424,224,151353,1,0
328,224,151514,1,8
232,224,151675,1,0
136,224,151837,1,0
40,224,151998,1,0
40,224,152079,1,0
40,224,152159,1,8
376,336,152482,6,0,B|440:152,1,160,4|8
464,96,152966,1,0
408,16,153128,1,0
328,64,153289,2,2,B|152:64,2,160
168,168,154257,1,2
264,168,154418,2,0,B|264:224|216:272|160:272,1,160,0|8
480,360,155062,6,0,B|384:360|360:264,2,160,4|8|0
480,168,156030,1,8
384,168,156191,2,2,B|288:168|240:264,1,160
192,320,156675,1,8
96,344,156837,1,0
24,288,156998,1,0
8,192,157159,2,0,B|-8:128|8:56|72:32|168:72,1,240,0|4
416,288,157965,6,0,B|384:336|328:320,2,80,8|0|0
448,200,158449,2,2,B|480:128|416:80|368:80,1,160
64,184,159094,2,0,B|32:256|96:304|144:304,1,160,2|0
256,192,159741,1,4
256,40,160223,5,0
256,40,160385,1,0
256,344,160707,1,2
256,344,160869,1,2
256,344,161030,1,2
128,192,161353,2,0,B|296:192,1,160
384,192,161836,1,2
256,40,162159,1,0
128,192,162482,1,4
408,336,162804,5,0
456,256,162965,1,0
384,192,163127,1,8
336,272,163288,2,0,B|272:296|216:280|192:224,1,160
176,136,163772,1,8
88,96,163933,2,0,B|128:48|200:32|232:72,1,160
256,160,164417,1,8
256,352,164740,1,0
256,160,165062,1,4
496,96,165385,5,0
408,56,165546,1,0
376,144,165707,1,8
288,104,165869,2,0,B|216:32|144:104,1,160
64,144,166353,1,8
148,189,166514,2,0,B|216:257|288:185,1,160
376,144,166998,2,0,L|416:144|440:208|496:208,2,160,8|0|4
104,328,167965,5,0
40,256,168127,1,0
104,184,168288,1,8
40,112,168449,2,0,B|40:24|152:24,1,160
200,104,168933,1,8
256,24,169094,2,0,B|365:23|365:111,1,160
368,200,169578,2,0,B|488:320,2,160,8|0|4
256,336,170546,5,0
256,336,170869,1,0
256,336,171191,1,0
256,336,171514,1,0
256,336,171836,1,0
256,240,171998,5,0
256,144,172159,1,0
256,144,172320,1,0
256,48,172482,1,4
