osu file format v6

[General]
AudioFilename: 21 Guns.mp3
AudioLeadIn: 0
PreviewTime: -1
Countdown: 2
SampleSet: Normal
StackLeniency: 0.7
Mode: 0
LetterboxInBreaks: 1

[Editor]
DistanceSpacing: 0.800000011920929
BeatDivisor: 4
GridSize: 32

[Metadata]
Title:21 Guns
Artist:Green Day
Creator:lengxinshu
Version:Hard
Source:
Tags:

[Difficulty]
HPDrainRate:6
CircleSize:6
OverallDifficulty:7
SliderMultiplier:1.4
SliderTickRate:2

[Events]
//Background and Video events
//Break Periods
2,59389,64368
2,137486,142479
2,188852,195020
//Storyboard Layer 0 (Background)
//Storyboard Layer 1 (Fail)
//Storyboard Layer 2 (Pass)
//Storyboard Layer 3 (Foreground)
//Storyboard Sound Samples
//Background Colour Transformations
3,100,111,183,255

[TimingPoints]
16671.7826216288,379.626700411262,4,2,0,100,1,0
40967,-100,4,1,0,100,0,0
65268,368.308436724565,4,1,0,100,1,0
94761,379.746835443038,4,1,0,100,1,0
143379,368.301516174575,4,1,0,100,1,0
172788,360.581437125749,4,1,0,100,1,0
195920,360.967392612201,4,1,0,100,1,1
224812,379.746835443038,4,2,0,100,1,0
261276,368.171516174575,4,1,0,100,1,0
284816,-100,4,1,0,100,0,1

[Colours]
Combo1 : 0,128,0
Combo2 : 0,128,255
Combo3 : 55,55,55
Combo4 : 202,4,4
Combo5 : 255,150,0

[HitObjects]
128,96,17431,1,0
224,96,17810,1,0
320,96,18190,2,0,B|160:96,2,140
224,96,19329,2,0,B|224:256,1,140
320,224,20088,2,0,B|224:224|224:128,1,140
320,96,20847,1,0
320,96,21037,1,0
320,160,21227,1,0
224,160,21606,2,0,B|384:160,1,140
256,160,22366,1,0
320,288,23505,5,0
224,288,23884,1,0
128,288,24264,2,0,B|288:288,1,140
224,192,25023,2,0,B|224:32,1,140
128,96,25782,1,0
128,96,26162,1,0
128,192,26542,1,0
128,288,26921,1,0
128,288,27111,1,0
128,224,27301,1,0
224,224,27680,2,0,B|64:224,1,140
192,224,28440,1,0
64,256,29579,5,0
64,160,29958,1,0
64,64,30338,2,0,B|64:224,1,140
160,160,31097,2,0,B|320:160,1,140
256,64,31856,1,0
256,160,32236,1,0
256,256,32616,1,0
256,256,32995,2,0,B|256:96,2,140
256,128,34134,5,0
256,128,34419,1,0
160,128,34704,2,0,B|192:64|320:64|352:160,1,210
224,128,35653,2,0,B|224:224,1,70
288,192,36032,2,0,B|288:96,1,70
224,128,36412,1,0
224,128,36791,1,0
128,128,37171,1,0
128,128,37551,2,0,B|160:64|160:64|192:96|192:96|192:128|160:160|160:160|32:224|128:0,1,420
288,64,39259,1,0
320,96,39449,1,0
384,160,39829,1,0
320,224,40208,1,0
384,288,40588,1,0
288,288,40967,5,4
128,96,41727,5,0
224,96,42106,1,0
320,96,42486,2,0,B|160:96,4,140
320,224,44384,2,0,B|224:224|224:128,1,140
320,96,45143,1,0
320,96,45333,1,0
320,160,45523,1,0
224,160,45902,2,0,B|384:160,1,140
256,160,46662,1,0
192,256,47041,5,4
416,288,47801,5,0
320,288,48180,1,0
224,288,48560,2,0,B|384:288,1,140
288,224,49319,2,0,B|288:64,1,140
160,64,50078,1,0
96,160,50458,1,0
192,224,50838,1,0
128,288,51217,1,0
128,288,51407,1,0
128,224,51597,1,0
224,224,51976,2,0,B|64:224,1,140
192,224,52736,1,0
288,160,53115,5,4
64,128,53875,5,0
160,128,54254,1,0
256,128,54634,2,0,B|96:128,1,140
192,192,55393,2,0,B|192:352,1,140
288,256,56152,1,0
192,320,56532,1,0
192,192,56912,1,0
288,256,57291,2,0,B|128:256,2,140
288,160,58430,2,0,B|192:160,2,70
160,160,59189,5,4
256,128,65268,6,4,B|416:128,2,140
448,256,66741,1,2
352,256,67109,1,0
256,256,67477,1,2
160,256,67846,1,0
64,256,68214,2,0,B|64:96,2,140
64,32,69687,5,0
160,32,70056,1,0
160,128,70424,1,0
256,128,70792,1,0
256,192,70976,1,0
256,256,71160,2,0,B|256:96,1,140
352,128,71897,1,0
352,224,72265,1,0
352,320,72634,5,0
352,320,73002,1,0
352,320,73370,1,0
256,320,73739,2,0,B|256:160,1,140
256,64,74475,2,0,B|256:224,1,140
96,192,75396,1,0
96,192,75580,1,0
160,192,75948,1,0
256,192,76317,1,0
352,192,76685,2,0,B|448:192,2,70
256,192,77422,5,0
160,128,77790,1,0
384,128,78527,1,2
288,128,78895,1,0
192,128,79263,1,2
288,128,79632,1,0
384,128,80000,2,0,B|384:288,2,140
448,352,81473,5,0
352,320,81842,1,0
352,224,82210,1,0
256,224,82578,1,0
256,160,82762,1,0
256,96,82946,2,0,B|256:256,1,140
160,224,83683,1,0
160,128,84051,1,0
160,32,84420,5,0
160,32,84788,1,0
160,32,85156,1,0
256,32,85525,2,0,B|256:192,1,140
256,288,86261,2,0,B|256:128,1,140
416,160,87182,1,0
416,160,87366,1,0
352,160,87734,1,0
256,160,88103,1,0
256,208,88839,12,6,91786
224,96,94761,5,4
384,288,95521,5,0
288,288,95900,1,0
192,288,96280,2,0,B|352:288,4,140
192,160,98178,2,0,B|288:160|288:256,1,140
192,288,98937,1,0
192,288,99127,1,0
192,224,99317,1,0
288,224,99696,2,0,B|128:224,1,140
256,224,100456,1,0
320,128,100835,5,4
96,96,101595,5,0
192,96,101974,1,0
288,96,102354,2,0,B|128:96,1,140
224,160,103113,2,0,B|224:320,1,140
352,320,103872,1,0
416,224,104252,1,0
320,160,104632,1,0
384,96,105011,1,0
384,96,105201,1,0
384,160,105391,1,0
288,160,105770,2,0,B|448:160,1,140
320,160,106530,1,0
224,224,106909,5,4
384,64,107672,6,0,B|416:224,1,140
416,320,108431,1,0
320,320,108810,1,0
224,320,109190,2,0,B|384:320,1,140
288,256,109949,2,0,B|288:96,1,140
192,192,110708,1,0
192,64,111090,2,0,B|288:32|288:96|320:160|288:224|224:224|192:256,1,280
320,192,112229,5,0
320,192,112419,1,0
224,192,112798,2,0,B|64:32,1,210
192,64,113748,1,0
192,64,114128,1,0
288,64,114507,2,0,B|384:64,1,70
352,128,115077,2,0,B|288:192,1,70
320,224,115457,2,0,B|384:160,1,70
256,224,116026,6,0,B|96:224,1,140
224,224,116786,1,0
224,64,117355,1,0
288,64,117545,1,0
288,64,117735,2,0,B|352:64|384:128|352:192,1,140
320,192,118305,1,0
256,224,118495,1,0
320,256,118685,1,0
256,288,118874,1,0
320,320,119064,5,4
192,128,119824,5,0
288,64,120203,1,0
384,128,120583,2,0,B|224:128,4,140
352,224,122481,2,0,B|256:224|256:128,1,140
352,96,123240,1,0
352,96,123430,1,0
352,160,123620,1,0
256,160,123999,2,0,B|416:160,1,140
288,160,124759,1,0
224,256,125138,5,4
448,288,125898,5,0
352,288,126277,1,0
256,288,126657,2,0,B|416:288,1,140
320,224,127416,2,0,B|320:64,1,140
192,64,128175,1,0
128,160,128555,1,0
224,224,128935,1,0
160,288,129314,1,0
160,288,129504,1,0
160,224,129694,1,0
256,224,130073,2,0,B|96:224,1,140
224,224,130833,1,0
320,160,131212,5,4
96,128,131972,5,0
192,128,132351,1,0
320,128,132735,2,0,B|256:64|192:64|192:128,1,140
192,192,133495,2,0,B|256:224|320:160,1,140
320,256,134249,1,0
224,320,134629,1,0
224,192,135009,1,0
320,256,135388,2,0,B|160:256,2,140
320,160,136527,2,0,B|224:160,2,70
192,160,137286,5,4
256,256,143379,6,4,B|96:256,2,140
64,128,144852,1,2
160,128,145220,1,0
256,128,145588,1,2
352,128,145957,1,0
448,128,146325,2,0,B|448:288,2,140
448,352,147798,5,0
352,352,148167,1,0
352,256,148535,1,0
256,256,148903,1,0
256,192,149087,1,0
256,128,149271,2,0,B|256:288,1,140
160,256,150008,1,0
160,160,150376,1,0
96,128,150560,1,0
128,96,150745,5,0
224,32,151113,1,0
128,64,151481,1,0
256,64,151850,2,0,B|256:224,1,140
256,320,152586,2,0,B|256:160,1,140
416,192,153507,1,0
416,192,153691,1,0
352,192,154059,1,0
256,192,154428,1,0
160,192,154796,2,0,B|64:192,2,70
256,192,155533,5,0
352,256,155901,1,0
128,256,156638,1,2
224,256,157006,1,0
320,256,157374,1,2
224,256,157743,1,0
128,256,158111,2,0,B|128:96,2,140
64,32,159584,5,0
160,64,159953,1,0
160,160,160321,1,0
256,160,160689,1,0
256,224,160873,1,0
256,288,161057,2,0,B|256:128,1,140
352,160,161794,1,0
352,256,162162,1,0
352,256,162346,1,0
352,320,162531,5,0
448,352,162899,1,0
352,352,163267,1,0
256,352,163636,2,0,B|256:192,1,140
256,96,164372,2,0,B|256:256,1,140
96,224,165293,1,0
96,224,165477,1,0
160,224,165845,1,0
256,224,166214,1,0
256,208,166950,12,6,169897
128,96,172788,5,4
128,96,173148,1,4
256,96,173509,2,0,B|320:96|352:160|320:192,1,140
224,192,174230,1,4
128,192,174590,1,4
32,192,174951,2,0,B|32:128|96:96|128:128,1,140
224,128,175672,1,4
320,128,176033,1,4
320,224,176393,1,0
96,224,177114,1,4
96,96,177475,2,4,B|96:256,1,140
96,96,178196,1,0
192,128,178557,5,4
192,128,178917,1,4
192,256,179278,2,0,B|192:320|128:352|96:320,1,140
96,224,179999,1,4
96,128,180359,1,4
96,32,180720,2,0,B|160:32|192:96|160:128,1,140
160,224,181441,1,4
160,320,181802,1,4
256,320,182162,1,0
256,224,182523,2,0,B|256:128,1,70
256,96,182883,1,4
160,96,183244,2,4,B|0:96,1,140
128,96,183965,1,0
256,96,184326,5,4
256,96,184687,1,4
256,192,185047,2,0,B|224:256,1,70
256,192,185408,2,0,B|288:256,1,70
256,288,185768,1,4
256,288,186129,1,4
256,192,186489,2,0,B|288:128,1,70
256,192,186850,2,0,B|224:128,1,70
224,64,187211,1,0
320,64,187571,2,0,B|352:64|384:96|416:128|416:160,3,140
96,64,195920,6,6,B|256:64,1,140
352,64,196641,1,2
352,160,197002,1,0
352,160,197183,1,0
288,160,197363,1,0
160,160,197724,2,2,B|224:224,1,70
256,224,198085,1,6
320,224,198266,1,0
384,224,198446,1,0
448,224,198627,1,0
448,288,198807,6,6,B|288:288,1,140
192,288,199528,1,2
192,192,199889,1,0
192,192,200070,1,0
256,192,200250,1,0
384,192,200611,2,2,B|320:128,1,70
288,128,200972,1,6
224,128,201153,1,0
160,128,201333,1,0
96,128,201514,1,0
32,128,201695,5,6
128,128,202056,2,2,B|288:128,1,140
384,128,202778,1,0
288,128,203139,1,6
192,128,203500,2,2,B|32:128,1,140
256,256,204583,1,0
256,160,204944,1,0
256,64,205305,1,0
160,64,205666,1,0
96,64,205846,1,0
96,128,206027,1,0
96,224,206388,1,0
96,320,206749,2,0,B|256:320,1,140
352,320,207470,6,6,B|192:320,1,140
96,320,208191,1,2
96,224,208552,1,0
96,224,208733,1,0
160,224,208913,1,0
288,224,209274,2,2,B|224:160,1,70
192,160,209635,1,6
128,160,209816,1,0
64,160,209996,1,0
0,160,210177,1,0
0,96,210357,6,6,B|160:96,1,140
256,96,211078,1,2
256,192,211439,1,0
256,192,211620,1,0
192,192,211800,1,0
64,192,212161,2,2,B|128:256,1,70
160,256,212522,1,6
224,256,212703,1,0
288,256,212883,1,0
352,256,213064,1,0
416,256,213245,5,6
320,256,213606,2,2,B|160:256,1,140
64,256,214328,1,0
160,256,214689,1,6
256,256,215050,2,2,B|416:256,1,140
192,128,216133,1,0
192,224,216494,1,0
192,320,216855,1,0
288,320,217216,1,0
352,320,217396,1,0
352,256,217577,1,0
352,160,217938,1,0
352,64,218299,2,0,B|192:64,1,140
96,64,219021,6,0,B|96:224,1,140
192,192,219743,2,0,B|192:32,1,140
288,64,220465,2,0,B|288:224,1,140
384,192,221187,2,0,B|384:32,1,140
288,64,221909,5,0
192,64,222270,1,0
96,64,222631,1,0
192,64,222992,1,0
288,64,223353,1,0
320,96,223534,1,0
288,128,223714,1,0
256,160,223894,1,0
288,192,224075,1,0
320,224,224255,1,0
288,256,224436,1,0
256,288,224616,1,0
288,320,224812,5,2
