osu file format v13

[General]
AudioFilename: American Idiot.mp3
AudioLeadIn: 0
PreviewTime: 2691
Countdown: 0
SampleSet: Normal
StackLeniency: 0.2
Mode: 0
LetterboxInBreaks: 0
WidescreenStoryboard: 0

[Editor]
DistanceSpacing: 1
BeatDivisor: 4
GridSize: 4
TimelineZoom: 1

[Metadata]
Title:American Idiot
TitleUnicode:American Idiot
Artist:Green Dad
ArtistUnicode:Green Dad
Creator:Static Noise Bird
Version:n
Source:
Tags:meme
BeatmapID:522960
BeatmapSetID:223955

[Difficulty]
HPDrainRate:8
CircleSize:5
OverallDifficulty:8
ApproachRate:8
SliderMultiplier:2
SliderTickRate:1

[Events]
//Background and Video events
0,0,"ss (2014-10-18 at 03.56.58).jpg",0,0
//Break Periods
//Storyboard Layer 0 (Background)
//Storyboard Layer 1 (Fail)
//Storyboard Layer 2 (Pass)
//Storyboard Layer 3 (Foreground)
//Storyboard Sound Samples
//Background Colour Transformations
3,100,163,162,255

[TimingPoints]
427.325301204819,323.450134770889,4,1,0,60,1,0
11101,-133.333333333333,4,3,0,75,0,0
27839,-50,4,3,0,75,0,0
30265,-133.333333333333,4,3,0,75,0,0

[HitObjects]
392,200,427,6,0,P|392:132|380:64,2,100,0|0|0,0:0|0:0|0:0,0:0:0:0:
344,288,912,2,0,B|292:320|192:228|136:292,1,200
80,352,1397,1,0,0:0:0:0:
240,348,1559,2,0,B|258:264|258:264|216:216|232:148,1,200
340,48,2044,1,0,0:0:0:0:
64,188,2368,1,0,0:0:0:0:
448,232,2691,1,4,0:0:0:0:
92,48,3014,5,4,0:0:0:0:
160,100,3176,1,0,0:0:0:0:
204,176,3338,1,0,0:0:0:0:
106,359,3500,2,0,P|46:283|64:188,1,200
160,100,3985,1,0,0:0:0:0:
312,100,4147,2,0,B|380:132|444:48|512:80,1,200
400,164,4632,2,0,P|332:172|292:164,1,100
16,56,4955,2,0,P|84:48|124:56,1,100
392,232,5279,2,0,B|420:264|420:264|424:332,1,100
264,256,5602,5,0,0:0:0:0:
136,176,5764,1,0,0:0:0:0:
360,88,5925,1,0,0:0:0:0:
184,56,6087,2,0,P|84:56|-20:84,1,200
136,176,6572,1,0,0:0:0:0:
316,192,6734,2,0,P|376:200|468:96,1,200
476,24,7219,1,0,0:0:0:0:
0,100,7543,1,0,0:0:0:0:
400,216,7866,1,0,0:0:0:0:
104,272,8190,5,0,0:0:0:0:
144,152,8351,1,0,0:0:0:0:
180,256,8513,1,0,0:0:0:0:
224,176,8675,2,0,P|268:120|312:104,1,100
508,116,8998,2,0,B|452:140|452:140|404:132,2,100,0|0|0,0:0|0:0|0:0,0:0:0:0:
340,72,9483,1,0,0:0:0:0:
96,200,9645,1,0,0:0:0:0:
304,168,9807,1,0,0:0:0:0:
56,68,9969,1,0,0:0:0:0:
288,272,10130,6,4,L|496:288,1,200
200,136,10777,5,0,0:0:0:0:
336,208,11101,2,0,B|392:220|432:180|432:180|488:200,2,150.000005722046,0|0|0,0:0|0:0|0:0,0:0:0:0:
260,192,11909,1,0,0:0:0:0:
112,140,12314,2,0,P|56:152|16:264,1,187.500007152558
52,328,12880,2,0,P|140:288|272:300,1,225.000008583069
408,272,13527,5,0,0:0:0:0:
440,224,13688,1,0,0:0:0:0:
448,168,13796,1,0,0:0:0:0:
412,80,13904,2,0,P|352:132|360:208,1,150.000005722046
408,272,14335,2,0,L|440:332,1,50.0000019073487
380,348,14551,2,0,B|312:292|312:292|285:300|248:292,1,150.000005722046
180,248,14982,2,0,B|132:224|64:268|8:232,2,168.750006437302,0|0|0,0:0|0:0|0:0,0:0:0:0:
312,240,16276,6,0,L|404:224,1,93.7500035762788
504,80,16680,2,0,P|392:88|276:116,1,225.000008583069
104,168,18702,1,0,0:0:0:0:
396,244,19430,6,0,P|340:272|248:268,1,150.000005722046
152,212,19915,2,0,P|192:172|304:168,1,150.000005722046
384,112,20400,1,0,0:0:0:0:
468,188,20562,2,0,B|492:232|492:232|472:304,1,112.500004291535
388,316,20966,2,0,L|304:324,1,75.0000028610231
224,284,21289,2,0,L|120:272,1,75.0000028610231
80,192,21613,2,0,P|24:136|-68:136,1,150.000005722046
272,88,22260,5,0,0:0:0:0:
268,248,24524,6,0,L|184:292,2,75.0000028610231,0|0|0,0:0|0:0|0:0,0:0:0:0:
380,208,25009,2,0,P|432:192|420:104,1,150.000005722046
256,64,25494,1,0,0:0:0:0:
84,109,25656,2,0,P|69:177|132:208,1,150.000005722046
256,228,26141,2,0,B|296:232|296:232|352:280|352:280|392:284,2,150.000005722046,0|0|0,0:0|0:0|0:0,0:0:0:0:
152,92,27839,2,0,B|152:284|152:284|160:152|188:96|268:100|316:108|348:152|364:200|352:308,1,637.500024318696
124,276,30265,6,0,L|60:228,2,75.0000028610231,0|0|0,0:0|0:0|0:0,0:0:0:0:
228,320,30750,2,0,P|296:328|396:288,1,150.000005722046
416,204,31235,1,0,0:0:0:0:
356,88,31397,2,0,P|308:140|292:196,1,112.500004291535
160,92,31801,1,0,0:0:0:0:
256,192,31963,12,0,32934,0:0:0:0:
