osu file format v5

[General]
AudioFilename: Banjo-Tooie - Mr Patch.mp3
AudioLeadIn: 1952
PreviewTime: -1
Countdown: 1
SampleSet: Normal
StackLeniency: 0.7
Mode: 0
LetterboxInBreaks: 1

[Metadata]
Title:WitchyWorld
Artist:Grant Kirkhope
Creator:gaph2000
Version:Insane (Mr. Patch)
Source:
Tags:

[Difficulty]
HPDrainRate:6
CircleSize:6
OverallDifficulty:6
SliderMultiplier:1.5
SliderTickRate:3

[Events]
//Background and Video events
0,0,"circus.png"
//Break Periods
2,13301,18071
//Storyboard Layer 0 (Background)
//Storyboard Layer 1 (Failing)
//Storyboard Layer 2 (Passing)
//Storyboard Layer 3 (Foreground)
//Storyboard Sound Samples
//Background Colour Transformations
3,100,0,0,160

[TimingPoints]
0,354.107648725212,4,1,0,100,1
19121,352.422907488987,4,1,0,100,1
41676,-100,4,1,0,100,0
44495,-100,4,1,0,100,0
61235,358.744394618834,4,1,0,100,1
67094,-100,4,1,0,100,0
67094,-100,4,1,0,100,0
69904,-100,4,1,0,100,0
72774,345.323741007194,4,1,0,100,1
75536,-100,4,1,0,100,0

[Colours]
Combo1 : 128,0,255
Combo2 : 0,255,0
Combo3 : 255,255,0
Combo4 : 255,0,0
Combo5 : 0,0,255

[HitObjects]
96,128,2124,1,0
160,160,2478,1,0
224,192,2832,1,0
288,224,3186,1,0
352,256,3541,1,0
416,288,3895,1,0
416,192,4249,5,2
416,160,4426,1,2
416,128,4603,1,2
192,128,4957,6,0,B|224:96,11,25
241,110,5665,6,0,B|224:128,11,25
256,128,6373,6,0,B|288:96,11,25
305,110,7082,6,0,B|288:128,9,25
368,112,7790,5,4
432,112,7967,1,4
432,176,8144,1,4
432,240,8321,1,4
368,240,8498,1,4
368,176,8675,2,6,B|288:176,1,75
192,176,9206,5,4
192,240,9383,1,4
128,240,9560,1,4
128,176,9737,1,4
192,112,9915,1,6
192,112,9974,1,6
192,112,10033,1,2
128,64,10269,1,6
128,64,10328,1,6
128,64,10387,1,6
256,64,10623,5,4
320,64,10800,1,4
320,128,10977,1,4
384,128,11154,1,4
384,64,11331,1,12
384,64,11508,1,12
448,64,11685,1,12
448,64,11862,1,12
448,128,12039,5,4
448,192,12216,1,4
384,192,12393,1,4
320,192,12570,1,4
256,192,12747,1,6
256,192,12806,1,6
256,192,12865,1,6
256,192,12924,1,6
256,192,12983,1,6
256,192,13042,1,6
256,192,13101,1,6
96,144,19121,5,8
160,144,19297,1,4
160,208,19473,1,0
224,208,19649,1,0
224,272,19825,1,0
288,272,20002,1,0
288,208,20178,1,0
352,208,20354,1,0
416,144,20530,5,8
352,144,20706,1,4
352,208,20883,1,0
288,208,21059,1,0
288,272,21235,1,0
224,272,21411,1,0
224,208,21587,1,0
160,208,21764,1,0
160,144,21940,6,0,B|160:64,1,75,8|4
224,64,22292,1,0
224,128,22469,1,0
288,64,22645,2,0,B|288:139,1,75,8|4
352,64,22997,1,0
352,128,23173,1,0
400,192,23350,6,0,B|320:192,1,75,8|4
272,192,23702,2,0,B|192:192,1,75,8|4
144,192,24054,2,0,B|64:192,3,75,8|4|8|4
64,256,24759,6,2,B|64:352,1,75
128,336,25112,2,2,B|192:288,1,75
240,256,25464,2,2,B|304:320,1,75
352,320,25817,2,2,B|352:224,1,75
416,240,26169,6,2,B|464:176,1,75
416,144,26521,2,2,B|336:96,1,75
272,112,26874,1,4
272,112,27050,1,4
272,112,27226,1,4
272,112,27402,1,4
288,32,27579,6,10,B|192:32|192:128,1,150
201,176,28107,1,2
256,192,28283,6,10,B|352:192|352:96,1,150
337,53,28812,1,2
256,192,28988,12,14,30046
96,208,30398,6,12,B|96:160|144:160,6,75
176,224,31808,6,12,B|224:224|224:272,3,75
256,192,32513,2,14,B|256:96|352:96,1,150
336,192,33217,5,0
336,192,33394,1,8
384,160,33570,5,0
384,160,33746,1,8
384,96,33922,5,0
384,96,34098,1,8
336,64,34275,5,0
336,64,34451,1,8
320,128,34627,5,0
320,128,34686,1,0
320,128,34745,1,0
320,128,34803,1,0
320,128,34862,1,0
320,128,34921,1,0
320,128,34980,1,0
320,128,35038,1,0
320,128,35112,5,2
240,128,35332,1,4
240,128,35508,1,4
240,128,35684,1,4
256,272,36037,5,0
176,240,36213,1,0
128,176,36389,2,2,B|128:128|96:128|96:96,2,75
176,80,36918,1,8
240,112,37094,1,8
448,192,37446,6,6,B|416:144|384:176,2,75
384,256,37975,1,2
256,192,38151,12,14,38504
128,240,38856,5,4
144,224,38915,1,4
160,208,38974,1,4
208,144,39209,5,4
224,128,39267,1,4
240,112,39326,1,4
288,64,39561,5,4
304,48,39620,1,4
320,32,39679,1,4
384,32,39913,5,6
400,128,40266,6,6,B|416:208,2,75
336,128,40795,1,6
272,128,40971,1,6
208,128,41147,5,12
144,128,41323,1,12
80,208,41676,5,4
80,208,41734,5,8
80,208,41793,5,8
80,208,41852,5,4
80,208,41911,5,8
80,208,41969,5,8
80,208,42028,5,4
144,272,42204,5,0
208,208,42380,5,0
144,144,42557,5,2
208,80,42733,5,2
272,144,42909,5,2
272,272,43085,5,4
272,272,43144,5,8
272,272,43203,5,8
272,272,43261,5,4
272,272,43320,5,8
272,272,43379,5,8
272,272,43438,5,4
336,208,43614,5,0
400,144,43790,5,0
400,272,43966,5,2
336,336,44143,5,2
192,160,44495,5,4
288,160,44847,5,4
320,192,44891,5,4
288,224,44980,5,4
320,256,45024,5,4
368,224,45200,6,2,B|400:192|368:144,1,75
352,128,45552,6,2,B|304:112|256:128,1,75
208,128,45905,5,0
192,176,46081,5,0
144,144,46257,5,0
144,144,46301,5,0
144,144,46389,5,0
144,144,46433,5,0
128,192,46609,6,8,B|176:288|272:224,1,150
250,236,47138,1,8
336,256,47314,6,0,B|432:208|432:64,1,225
368,64,48019,1,0
320,128,48372,1,0
256,128,48548,1,0
192,128,48724,2,0,B|192:224,7,75
192,48,50134,1,8
288,128,50310,5,0
384,128,50486,5,8
432,224,50662,5,0
368,320,50839,5,8
272,224,51015,5,0
144,224,51191,5,8
144,128,51367,5,0
208,48,51543,5,8
272,128,51720,5,0
384,128,51896,5,8
384,240,52072,5,0
288,320,52248,5,8
192,240,52424,5,0
64,240,52601,5,8
64,112,52777,5,0
192,112,52953,5,8
192,112,53071,1,0
192,112,53188,1,8
256,112,53306,5,4
336,112,53526,1,0
368,112,53658,1,4
432,128,54363,5,8
432,128,54480,1,0
432,128,54598,1,8
432,192,54715,5,4
432,272,54935,1,0
432,304,55068,1,4
336,320,55772,5,8
336,320,55890,1,0
336,320,56007,1,8
272,320,56125,5,4
160,320,56477,5,8
160,320,56595,1,0
160,320,56712,1,8
96,320,56830,5,4
96,240,57182,5,8
96,240,57300,1,0
96,240,57417,1,8
96,176,57535,5,4
144,80,57755,1,0
144,80,57887,1,4
256,80,58122,1,0
256,80,58254,1,4
256,192,58592,6,6,B|224:224|256:240|304:256|336:144|272:128|240:128|208:144|160:176|192:256|240:272,3,300
272,272,60883,1,12
336,272,61059,1,12
432,128,61414,6,2,B|352:96,1,75
288,96,61773,1,12
208,96,61952,1,12
128,96,62145,6,2,B|160:176,1,75
160,240,62490,1,12
160,320,62669,1,12
240,272,62854,6,2,B|320:304,1,75
384,304,63208,1,12
464,304,63387,1,12
432,128,63562,6,2,B|352:96,1,75
288,96,63925,1,12
208,96,64104,1,12
256,192,64270,12,4,66422
256,192,67103,6,10,B|304:112|192:80,1,150
256,192,67811,6,10,B|336:240|368:128,1,150
256,192,68519,6,10,B|208:272|320:304,1,150
256,192,69183,6,10,B|176:144|144:256,1,150
144,320,69891,5,0
144,224,70069,5,0
144,128,70246,5,2
144,32,70423,5,8
240,32,70644,5,0
240,128,70821,5,0
240,224,70998,5,8
240,320,71175,5,2
320,320,71352,5,0
320,224,71529,5,0
320,128,71706,5,2
320,32,71883,5,8
400,80,72060,6,0,B|432:112|400:160,3,75
128,80,72774,5,0
224,80,72946,5,0
320,80,73119,5,2
416,80,73291,5,8
416,176,73464,5,0
320,176,73637,5,0
224,176,73809,5,8
128,176,73982,5,2
96,256,74155,6,4,B|96:288|144:336,1,75
176,256,74500,6,4,B|176:288|224:336,1,75
256,256,74845,6,4,B|256:288|304:336,3,75
256,192,75536,6,4,B|256:160|208:112,1,75
336,192,75881,6,4,B|336:160|288:112,1,75
416,192,76227,6,4,B|416:160|368:112,3,75
