osu file format v5

[General]
AudioFilename: BT_Weldar.mp3
AudioLeadIn: 0
PreviewTime: 35956
Countdown: 2
SampleSet: Normal
StackLeniency: 0.7
Mode: 0
LetterboxInBreaks: 1
EditorBookmarks: 3956,25290,46623,57289,78623,91956,105289,115956

[Metadata]
Title:Weldar
Artist:Grant Kirkhope
Creator:K2J
Version:Production
Source:Banjo-Tooie
Tags:

[Difficulty]
HPDrainRate:5
CircleSize:4
OverallDifficulty:4
SliderMultiplier:1.2
SliderTickRate:2

[Events]
//Background and Video events
0,0,"Weldar RWP.jpg"
//Break Periods
2,37156,43636
2,69156,75636
//Storyboard Layer 0 (Background)
//Storyboard Layer 1 (Failing)
//Storyboard Layer 2 (Passing)
//Storyboard Layer 3 (Foreground)
//Storyboard Sound Samples
//Background Colour Transformations
3,100,163,162,255

[TimingPoints]
2340,333.333333333333,4,1,0,50,1

[HitObjects]
200,112,5006,2,0,B|360:112,4,120
88,112,6672,2,0,B|88:256,1,120
88,344,7339,1,0
200,344,7672,2,0,B|360:344,4,120
200,120,9672,2,0,B|200:32,3,60
256,64,10339,6,0,B|392:64|432:216,1,240
256,344,11673,1,0
168,272,12006,2,0,B|168:200,1,60
168,152,12339,1,0
168,152,12673,1,0
280,152,13006,5,2
392,152,13339,1,0
392,152,13506,1,0
392,152,13673,1,0
392,40,14006,1,2
296,96,14339,1,0
296,96,14506,1,0
296,40,14673,1,2
200,96,15006,1,0
104,40,15339,1,2
104,152,15673,6,0,B|104:320,1,120
216,272,16339,2,0,B|216:144,1,120
216,40,17006,1,0
328,40,17339,2,0,B|392:40,2,60
216,40,18006,1,0
216,152,18339,2,0,B|216:288|360:328,2,240
48,296,20339,2,0,B|48:216,1,60
48,176,20672,2,0,B|48:112,1,60
48,56,21006,6,0,B|277:25|118:303|416:320,1,480
400,208,22672,2,0,B|400:72,1,120
400,88,23339,1,0
288,88,23672,1,2
176,80,24006,1,0
176,80,24172,1,0
176,80,24339,1,0
64,80,24672,1,4
64,192,25006,1,4
472,48,26339,6,0,B|264:184,1,240
80,272,27672,1,0
184,272,28006,2,0,B|272:272,1,60
296,272,28339,2,0,B|464:272,1,120
416,160,29006,2,0,B|415:19|200:80,1,240
32,144,30339,1,0
152,320,31006,6,0,B|376:208,1,240
152,192,32339,1,0
336,80,33006,1,0
440,80,33339,2,0,B|440:176,1,60
440,192,33672,2,0,B|392:248|328:264,1,120
232,272,34339,1,2
120,272,34672,1,0
120,216,34839,1,0
120,160,35006,1,0
184,72,35339,1,2
256,152,35672,1,0
312,152,35839,1,0
312,96,36006,1,2
408,40,36339,1,0
464,128,36672,1,2
400,216,37006,1,4
168,192,45006,5,0
256,128,45339,1,0
256,128,45506,1,0
256,128,45673,1,0
344,192,46006,1,0
256,256,46339,1,4
56,64,47673,5,0
160,64,48006,2,0,B|232:64,1,60
272,64,48339,2,0,B|368:64,1,60
384,64,48673,1,0
488,64,49006,2,0,B|488:224,1,120
384,216,49673,1,0
384,104,50006,1,0
272,104,50339,2,0,B|200:104,1,60
160,104,50673,2,0,B|96:104,1,60
48,104,51006,2,0,B|48:184,2,60
112,184,51673,1,0
184,264,52006,1,0
264,336,52339,1,0
368,344,52673,1,0
472,344,53006,5,4
472,232,53339,2,0,B|472:152,1,60
472,112,53673,2,0,B|376:112,1,60
360,112,54006,1,0
248,112,54339,2,0,B|112:112,1,120
128,216,55006,1,0
128,104,55339,1,0
224,48,55673,1,0
328,48,56006,1,0
384,48,56173,1,0
440,48,56339,1,0
440,104,56506,1,0
440,160,56673,1,0
256,192,57006,12,4,58339
144,88,59006,1,0
360,88,59673,1,0
360,192,60006,2,0,B|360:280,1,60
360,312,60339,2,0,B|216:312,1,120
128,312,61006,6,0,B|-10:326|8:135|136:136,1,240
288,112,62339,1,0
296,328,63006,1,0
296,328,63173,1,0
240,328,63339,1,0
240,328,63506,1,0
184,328,63673,5,0
400,328,64339,1,0
280,144,65006,1,0
280,248,65339,2,0,B|280:352,1,60
280,360,65673,2,0,B|144:360,1,120
160,248,66339,1,0
160,136,66673,1,0
160,136,66839,1,0
160,136,67006,1,0
232,56,67339,1,2
304,136,67673,2,0,B|384:136,1,60
416,136,68006,1,2
416,248,68339,1,0
416,136,68673,1,2
416,24,69006,1,4
256,192,77006,12,4,78339
80,304,79672,6,0,B|80:240,3,60,0|0|0|0
80,192,80339,1,0
80,80,80672,1,0
184,80,81006,2,0,B|248:80,1,60
296,80,81339,2,0,B|360:80,1,60
408,80,81672,1,0
408,184,82006,1,0
408,288,82339,2,0,B|344:288,1,60
296,288,82672,2,0,B|208:288,1,60
184,288,83006,1,0
248,200,83339,1,0
248,88,83672,5,0
296,56,83839,1,0
296,112,84006,1,0
296,168,84172,1,0
336,136,84339,1,0
376,96,84506,1,0
416,56,84672,1,0
256,192,85006,12,0,86006
80,344,86339,6,0,B|160:344,1,60
192,344,86672,1,0
248,344,86839,1,0
248,288,87006,2,0,B|248:224,1,60
248,176,87339,1,0
192,176,87506,1,0
192,232,87672,6,0,B|64:232,1,120
72,176,88172,2,0,B|72:48|184:40,1,180
272,32,89006,2,0,B|336:32,1,60
384,32,89339,2,0,B|448:32,1,60
448,88,89672,2,0,B|448:232,1,120
256,192,90339,12,4,92339
88,304,93006,6,0,B|152:304,1,60
200,304,93339,2,0,B|200:224,1,60
200,192,93672,2,0,B|200:56,1,120
304,72,94339,2,0,B|304:136,1,60
304,184,94672,2,0,B|384:184,1,60
416,192,95006,2,0,B|456:303|360:328,1,120
296,312,95672,5,0
256,272,95839,1,0
224,312,96006,1,0
184,272,96172,1,0
144,312,96339,2,0,B|64:264|136:176,1,120
208,168,97006,5,0
208,112,97172,1,0
264,112,97339,1,0
320,112,97506,1,0
376,112,97672,1,0
432,112,97839,1,0
432,56,98006,1,0
328,24,98339,2,0,B|128:40|64:248,1,360
64,344,99672,2,0,B|320:344,1,240
408,344,100672,2,0,B|408:256,1,60
408,232,101006,2,0,B|408:56|144:32,1,360
48,32,102339,2,0,B|48:96,1,60
48,144,102672,2,0,B|48:208,1,60
48,256,103006,2,0,B|184:256,1,120
280,256,103672,6,0,B|280:192,3,60
280,136,104339,2,0,B|208:136,3,60
208,192,105006,2,0,B|208:256,2,60
152,192,105506,2,0,B|112:192,2,30
400,248,106339,5,0
400,120,106672,1,0
400,120,106839,1,0
336,120,107006,1,0
336,120,107172,1,0
272,120,107339,1,0
256,248,107672,1,0
168,344,108006,1,0
48,296,108339,1,0
56,168,108672,1,0
136,64,109006,6,0,B|208:64,1,60
256,64,109339,2,0,B|320:64,1,60
376,64,109672,2,0,B|376:144,2,60
456,160,110339,1,0
400,272,110672,1,0
288,336,111006,1,0
176,280,111339,1,0
288,208,111672,5,0
280,80,112006,1,0
336,80,112172,1,0
392,80,112339,1,0
384,136,112506,1,0
352,176,112672,1,0
224,168,113006,2,0,B|224:312,1,120
96,288,113672,1,0
96,160,114006,1,0
176,64,114339,5,0
304,64,114672,1,0
368,64,114839,1,0
432,64,115006,1,0
400,120,115172,1,0
336,120,115339,1,0
256,192,115673,12,4,117006
