osu file format v5

[General]
AudioFilename: BT_Weldar.mp3
AudioLeadIn: 485
PreviewTime: 35956
Countdown: 1
SampleSet: Normal
StackLeniency: 0.7
Mode: 0
LetterboxInBreaks: 1
EditorBookmarks: 3956,25290,46623,57289,78623,91956,105289,115956

[Metadata]
Title:Weldar
Artist:Grant Kirkhope
Creator:K2J
Version:Management
Source:Banjo-Tooie
Tags:

[Difficulty]
HPDrainRate:7
CircleSize:5
OverallDifficulty:5
SliderMultiplier:1.2
SliderTickRate:4

[Events]
//Background and Video events
0,0,"Weldar RWP.jpg"
//Break Periods
2,36873,41140
2,74540,77807
//Storyboard Layer 0 (Background)
//Storyboard Layer 1 (Failing)
//Storyboard Layer 2 (Passing)
//Storyboard Layer 3 (Foreground)
//Storyboard Sound Samples
//Background Colour Transformations
3,100,163,162,255

[TimingPoints]
2340,333.333333333333,4,1,0,50,1

[HitObjects]
32,336,2340,1,0
232,120,3007,1,0
440,320,3674,2,0,B|296:320,1,120
184,264,4340,2,0,B|184:192,3,60
256,192,5007,6,0,B|256:128,1,60
248,56,5340,2,0,B|168:56,1,60
184,128,5673,2,0,B|184:216,1,60
184,256,6007,2,0,B|256:256,1,60
312,256,6340,1,0
456,256,6673,2,0,B|456:176,1,60
456,120,7007,1,0
312,120,7340,1,0
168,120,7673,6,0,B|168:192,1,60
240,176,8007,2,0,B|304:176,1,60
304,248,8340,2,0,B|304:312,1,60
232,304,8673,2,0,B|152:304,1,60
96,304,9007,1,0
96,152,9340,2,0,B|112:80|176:176,1,120
174,173,9840,1,0
248,176,10007,1,0
248,176,10174,1,0
320,168,10340,6,0,B|320:96,1,60,4|0
320,32,10674,2,0,B|256:32,1,60
256,104,11007,2,0,B|312:160,1,60
272,216,11340,2,0,B|224:272,1,60
176,312,11674,1,0
320,312,12007,2,0,B|320:240,1,60
320,176,12340,1,0
200,264,12674,1,0
72,192,13007,5,2
216,192,13340,1,0
288,192,13507,1,0
216,192,13674,1,0
256,48,14007,1,2
376,120,14340,1,0
432,72,14507,1,0
488,24,14674,1,2
488,168,15007,1,0
344,168,15339,1,2
192,160,15674,6,0,B|192:80,1,60,4|0
192,24,16007,2,0,B|256:24,1,60
256,96,16340,2,0,B|256:160,1,60
256,232,16674,2,0,B|336:232,2,60
104,232,17340,2,0,B|200:128,1,120
296,40,18007,1,0
440,40,18340,6,0,B|440:112,1,60
368,104,18674,2,0,B|296:104,1,60
304,176,19007,2,0,B|304:248,1,60
232,240,19340,2,0,B|168:240,1,60
96,240,19674,1,0
224,168,20007,2,0,B|240:96|304:192,1,120
302,189,20507,1,0
376,192,20673,1,0
448,192,20840,1,0
448,264,21007,6,0,B|352:352|184:296|104:232,1,360,4|0
112,88,22340,1,0
256,88,22673,1,0
328,88,22840,1,0
328,160,23007,1,0
328,304,23340,1,0
256,192,23673,12,4,25007
24,184,26340,6,0,B|103:374|208:296,1,240,0|0
464,192,27673,1,0
312,192,28007,2,0,B|240:192,1,60
176,192,28340,2,0,B|48:192,1,120
56,40,29007,2,0,L|112:104|48:160|104:208,1,240
376,304,30340,1,0
80,320,31007,2,0,L|80:240,1,60
80,184,31340,2,0,L|80:120,1,60
80,48,31673,5,4
192,320,32340,1,0
304,48,33007,1,0
448,48,33340,1,0
448,120,33507,1,0
448,192,33673,1,0
296,192,34007,1,0
144,192,34340,1,2
48,80,34673,1,0
48,152,34840,1,0
48,80,35007,1,0
184,32,35339,1,2
184,176,35673,2,0,L|184:240,1,60,0|0
184,312,36007,1,2
312,248,36340,1,0
312,96,36673,1,2
56,96,42340,6,0,L|56:216,1,120,4|0
56,360,43007,2,0,L|56:240,1,120
192,192,43674,1,0
328,240,44007,2,0,L|392:240,2,60
448,328,44674,1,0
256,192,45007,12,0,46007
256,192,46340,1,4
64,320,47674,5,4
208,320,48007,1,0
280,320,48174,1,0
280,248,48340,1,0
280,320,48507,1,0
352,320,48674,1,0
496,320,49007,2,0,L|416:224,1,120
304,136,49674,1,0
176,216,50007,1,0
88,96,50340,5,0
160,96,50507,1,0
88,96,50674,1,0
160,96,50840,1,0
232,96,51007,1,0
232,168,51174,1,0
232,248,51340,1,0
376,248,51674,2,0,L|376:128,1,120
224,128,52340,2,0,L|224:256,1,120
128,128,53007,5,4
272,128,53340,2,4,L|272:200,1,60
272,264,53674,2,0,L|272:336,1,60
344,328,54007,1,0
256,192,54340,12,0,55340
104,136,55674,1,0
248,136,56007,1,0
320,136,56174,1,0
320,64,56340,1,0
320,136,56507,1,0
320,208,56674,1,0
256,192,57007,12,0,58007
120,88,58340,6,0,L|200:88,1,60,4|0
184,160,58674,2,0,L|184:240,1,60
112,224,59007,2,0,L|192:224,1,60
248,224,59340,2,0,L|248:152|312:152,1,120
440,152,60007,2,0,L|392:208,1,60
352,256,60340,1,0
224,328,60674,1,0
88,280,61007,6,0,L|144:224,1,60
184,192,61340,2,0,L|232:240,1,60
272,184,61674,2,0,L|320:144,1,60
376,104,62007,2,0,L|328:56,1,60
264,48,62340,1,0
120,48,62674,2,0,C|56:80|88:136,1,120
80,192,63174,1,0
152,192,63340,1,0
152,264,63507,1,0
152,352,63674,6,0,C|224:352,1,60,4|0
280,352,64007,2,0,C|280:280,1,60
280,216,64340,2,0,C|208:216,1,60
144,216,64674,2,0,C|144:288,1,60
216,280,65007,1,0
360,280,65340,2,0,C|440:280,1,60
488,280,65674,2,0,C|469:219|424:152,1,120
304,128,66340,5,2
160,128,66674,1,0
232,128,66840,1,0
304,128,67007,1,0
408,32,67340,1,2
408,176,67674,1,0
336,176,67840,1,0
368,112,68007,1,2
224,88,68340,1,0
88,32,68674,1,2
80,176,69007,5,4
344,64,69674,1,0
344,352,70340,1,0
200,352,70674,2,0,C|200:288,1,60
200,216,71007,2,0,C|200:88,1,120
344,96,71674,6,0,C|344:168,1,60
344,224,72007,2,0,C|256:224,1,60
208,224,72340,2,0,C|144:224,1,60
72,224,72674,2,0,C|72:152,1,60
72,88,73007,1,0
360,96,73674,1,0
288,96,73840,1,0
288,96,74007,1,0
360,96,74174,1,0
320,160,74340,1,4
256,192,79007,12,4,79673
256,192,79840,1,0
256,120,80007,1,0
256,48,80173,1,0
328,48,80340,2,0,C|464:48,1,120
448,192,81007,5,0
448,264,81173,1,0
384,224,81340,1,0
328,176,81507,1,0
272,128,81673,2,0,C|376:216,1,120
216,192,82339,6,0,B|264:192|264:192|165:280|80:192|80:192|129:99|200:136,1,390
288,168,83673,2,0,B|288:304,2,120,4|0|0
288,24,84673,1,0
424,72,85007,6,0,B|424:208,2,120
352,72,85840,1,0
280,72,86007,1,0
136,72,86340,1,0
136,144,86507,1,0
136,72,86673,1,0
72,104,86840,1,0
72,136,86923,1,0
72,168,87007,2,0,B|72:248,1,60
144,224,87340,1,0
144,296,87507,1,0
216,296,87673,6,0,B|280:296,1,60
344,296,88007,2,0,B|344:224,1,60
312,216,88257,1,0
280,200,88340,1,0
216,160,88507,1,0
216,232,88673,1,0
264,280,88840,1,0
312,328,89007,1,0
376,360,89173,2,0,B|376:280,1,60
376,224,89507,1,0
352,192,89590,1,0
328,160,89673,1,0
192,112,90007,5,0
192,256,90340,2,0,B|192:328,1,60,4|0
120,320,90673,2,0,B|56:320,1,60
56,280,90923,1,0
56,240,91007,1,0
56,168,91173,1,0
128,168,91340,1,0
56,168,91507,1,0
56,96,91673,2,0,B|136:96,1,60
184,96,92007,1,0
256,96,92173,5,0
256,128,92257,1,0
256,160,92340,1,0
256,304,92673,1,0
112,336,93007,6,0,B|112:272,1,60,4|0
112,200,93340,2,0,B|112:264,1,60
184,264,93673,2,0,B|328:264,1,120
432,328,94340,6,0,L|464:288|448:272,1,60
392,256,94673,2,0,L|352:232|360:208,1,60
384,152,95007,2,0,L|336:104|296:168,1,120
232,272,95673,6,0,B|192:296|160:264,1,60
128,216,96007,2,0,B|88:192|48:216,1,60
56,280,96340,2,0,B|112:312|192:312,1,120
312,304,97007,5,4
312,232,97173,1,0
312,160,97340,1,0
312,88,97507,1,0
240,88,97673,2,0,B|176:88,2,60
376,40,98340,6,0,B|376:112,1,60
448,96,98673,2,0,B|448:176,1,60
376,168,99007,2,0,B|376:232,1,60
376,296,99340,1,0
232,296,99673,5,0
160,296,99840,1,0
88,296,100007,1,0
88,224,100173,1,0
88,184,100257,1,0
88,144,100340,1,0
144,184,100507,1,0
200,144,100673,1,0
200,216,100840,1,0
256,264,101007,5,0
328,264,101173,1,0
400,264,101340,1,0
360,200,101507,1,0
336,176,101590,1,0
304,152,101673,1,0
248,104,101840,1,0
176,80,102007,2,0,B|104:80,1,60
120,152,102340,2,0,B|120:216,1,60
120,280,102673,1,0
192,280,102840,1,0
192,240,102923,1,0
192,200,103007,2,0,B|280:104|424:160,1,240,0|4
416,224,103840,5,0
416,296,104007,1,0
344,296,104173,1,0
344,256,104257,1,0
304,256,104340,1,0
304,184,104507,1,0
240,224,104673,1,0
184,264,104840,1,0
136,208,105007,1,0
136,136,105173,1,0
144,64,105340,1,0
216,72,105507,1,0
248,72,105590,1,0
280,72,105673,2,0,B|280:208|208:320,1,240,0|4
360,304,106673,5,0
432,304,106840,1,0
432,232,107007,1,0
360,232,107173,1,0
360,304,107340,1,0
216,304,107673,2,0,B|216:176,1,120
216,40,108340,1,0
216,184,108673,1,0
64,192,109007,5,0
64,264,109173,1,0
64,336,109340,1,0
136,336,109507,1,0
64,336,109673,1,0
64,264,109840,1,0
64,192,110007,1,0
64,48,110340,2,0,B|64:184,1,120
208,192,111007,1,0
208,336,111340,1,0
344,280,111673,5,4
224,200,112007,1,0
224,128,112173,1,0
288,160,112340,1,0
224,200,112507,1,0
224,128,112673,1,0
80,128,113007,2,0,B|80:56|152:24,1,120
280,32,113673,2,0,B|344:72|376:128,1,120
464,232,114340,5,0
336,144,114673,1,0
288,200,114840,1,0
240,264,115007,1,0
288,200,115173,1,0
352,240,115340,1,0
256,192,115673,12,4,116340
176,112,116673,1,0
336,112,117007,1,4
