osu file format v5

[General]
AudioFilename: 021 - Jinjo Village.mp3
AudioLeadIn: 1004
PreviewTime: -1
Countdown: 1
SampleSet: Soft
StackLeniency: 0.7
Mode: 0
LetterboxInBreaks: 1
EditorDistanceSpacing: 0.899999976158142

[Metadata]
Title:Jinjo Village
Artist:Grant Kirkhope
Creator:James2250
Version:Normal
Source:
Tags:

[Difficulty]
HPDrainRate:3
CircleSize:4
OverallDifficulty:4
SliderMultiplier:1.4
SliderTickRate:2

[Events]
//Background and Video events
0,0,"ss-banjo-tooie-xbla-jinjo-village-518.png"
//Break Periods
2,38605,42229
2,72616,76527
//Storyboard Layer 0 (Background)
//Storyboard Layer 1 (Fail)
//Storyboard Layer 2 (Pass)
//Storyboard Layer 3 (Foreground)
//Storyboard Sound Samples
//Background Colour Transformations
3,100,0,0,0

[TimingPoints]
2392,571.635449019645,4,2,0,100,1,0

[HitObjects]
256,192,2392,1,0
256,128,2677,1,0
320,128,2963,1,2
384,128,3249,1,0
448,128,3535,1,0
448,224,3963,1,2
448,256,4106,1,2
320,256,4678,5,0
256,256,4964,1,0
192,256,5250,1,2
128,256,5535,1,0
64,256,5821,2,0,B|0:288|24:384|160:384|184:256|120:232,1,280,0|0
184,240,7250,5,0
248,240,7536,2,0,C|328:240,1,70,0|0
384,240,8108,1,2
336,160,8537,1,2
336,160,8679,1,0
464,160,9251,2,2,B|424:192|408:232|424:248|464:264|504:288|496:288,1,140
400,272,10109,1,0
336,272,10394,1,2
464,64,11538,5,0
416,112,11823,1,0
368,160,12109,1,2
320,112,12395,1,0
272,64,12681,1,0
176,64,13110,1,0
176,96,13253,1,0
128,208,13824,5,0
128,272,14110,1,0
192,272,14396,1,2
320,272,14967,2,0,B|184:216|232:192,1,140
352,192,16111,5,0
416,192,16397,1,0
416,128,16682,1,2
288,128,17254,1,0
288,32,17683,1,0
256,32,17826,1,0
128,32,18397,6,0,B|80:48|24:48|56:48,1,70
80,112,18969,2,0,C|168:96,1,70
208,96,19541,1,4
400,96,20398,6,2,B|400:152,2,35
336,96,20970,1,0
208,96,21541,2,2,C|184:192,1,70
192,224,22113,1,0
64,224,22685,6,2,B|64:280,2,35
64,160,23256,1,0
64,32,23828,2,2,C|152:80,1,70
176,96,24399,1,2
224,128,24685,1,0
224,256,25257,6,0,C|368:256,1,140
368,128,26400,1,0
280,32,26972,2,0,C|200:32,1,70
208,96,27543,5,0
208,192,27972,2,0,B|248:192,3,35
280,144,28687,2,0,C|344:72,1,70
392,88,29258,1,0
400,216,29830,5,0
400,280,30116,2,2,B|376:304|304:360|272:328|304:280,2,140
400,216,31545,1,2
336,216,31831,6,2,B|336:272,2,35
336,152,32402,1,0
208,152,32974,1,2
208,216,33260,2,0,B|264:216,2,35
96,56,34403,5,0
224,56,34975,1,2
224,184,35546,1,0
320,184,35975,1,0
320,216,36118,1,0
320,344,36690,5,0
224,344,37118,1,0
192,344,37261,1,0
128,344,37547,1,0
128,280,37833,2,0,C|200:208,1,70
224,192,38405,1,0
416,56,43549,6,0,C|344:104,1,70
352,160,44121,1,2
224,160,44693,2,0,C|136:160,1,70
160,96,45264,1,2
288,96,45836,2,0,B|264:112|256:112|256:176|368:128|248:192|320:176|352:200|480:64,1,280
224,176,48122,6,0,C|304:240,1,70
336,224,48694,1,2
464,224,49266,2,0,C|440:320,1,70
384,288,49837,1,2
256,288,50409,6,0,C|296:216,1,70
240,192,50981,1,2
240,64,51552,1,0
304,64,51838,2,2,B|304:128|304:144,1,70
304,256,52695,2,0,C|384:320,2,70
176,256,53839,6,0,B|136:208|128:192|120:176|128:144|160:128|160:112,1,140
272,128,54982,1,0
336,128,55268,1,2
400,128,55554,1,0
400,320,56411,1,2
336,320,56697,1,2
256,192,57269,12,0,58983
256,256,59555,5,0
256,128,60127,1,0
384,128,60698,2,2,B|440:96|480:88|472:96,2,70,0|2|2
392,256,61842,6,0,C|456:192,1,70
400,176,62413,2,0,C|351:226,1,70
392,256,62985,1,4
144,192,64128,5,2
96,232,64414,2,0,C|152:296,1,70
264,272,65271,1,2
264,176,65700,1,0
296,176,65843,1,0
168,176,66415,6,0,B|136:128|104:104|64:104|8:96|64:112|64:112|64:104,1,140,0|2
56,168,67272,1,0
56,232,67558,1,0
56,296,67844,1,2
120,296,68130,1,2
248,296,68701,6,0,B|248:240,2,35,0|0|0
312,296,69273,2,0,C|312:248,2,35
376,296,69844,1,0
376,168,70416,1,0
312,168,70702,2,0,B|312:200|312:216,2,35
248,168,71274,2,0,B|248:224,2,35
184,168,71845,1,0
120,168,72131,2,0,C|120:248,1,70
256,240,77847,5,0
320,240,78133,1,0
384,240,78419,1,0
384,112,78991,1,0
320,112,79276,1,0
256,112,79562,1,0
192,112,79848,6,0,B|192:56,2,35
192,176,80420,1,0
128,176,80706,1,0
128,304,81277,1,0
192,304,81563,2,0,B|256:304,6,35
192,176,82992,5,0
256,176,83278,1,0
256,240,83564,1,0
352,240,83992,1,0
384,240,84135,6,0,C|384:160,1,70
384,112,84707,2,0,C|304:128,1,70
256,128,85279,2,0,C|184:80,1,70
256,64,85850,2,0,C|328:40,1,70
384,16,86422,1,0
384,144,86994,5,0
320,144,87279,1,0
320,208,87565,1,2
192,208,88137,1,0
192,304,88566,1,0
160,304,88708,1,2
160,176,89280,5,0
160,112,89566,1,0
224,112,89852,1,2
288,112,90138,1,0
352,112,90423,2,0,B|240:192|232:200,1,140
128,240,91567,5,2
160,296,91852,1,0
192,352,92138,1,0
224,296,92424,1,0
248,240,92710,1,2
344,240,93139,1,0
344,208,93282,1,0
368,80,93853,6,2,C|440:32,1,70
464,80,94425,2,2,C|432:160,1,70
416,208,94996,1,2
160,208,96140,6,0,B|160:112,2,70,2|0|2
288,208,97283,1,2
288,144,97569,1,0
288,80,97855,1,2
160,80,98426,5,0
160,144,98712,1,0
96,144,98998,1,0
96,272,99570,2,0,B|96:360,1,70
160,336,100141,1,2
288,336,100713,5,0
288,272,100999,2,0,B|240:272,2,35
288,208,101570,2,0,C|216:208,3,70,0|0|0|2
288,96,102999,5,0
352,96,103285,2,2,B|352:160,2,35
416,96,103857,2,0,C|464:176,1,70,0|2
464,224,104428,2,0,C|488:320,1,70,2|0
352,288,105286,5,0
352,224,105572,1,2
352,160,105858,1,0
224,160,106429,2,0,B|224:248,1,70
160,224,107001,1,2
96,336,107572,5,0
160,336,107858,1,0
224,336,108144,1,2
224,208,108716,2,0,B|320:208,2,70,0|2|0
352,208,109859,5,0
352,144,110145,1,2
352,80,110431,1,0
224,80,111002,1,0
192,128,111288,1,2
160,176,111574,1,2
160,304,112146,5,2
224,304,112431,1,0
224,240,112717,1,2
352,240,113289,2,0,C|280:200,1,70,0|2
240,160,113860,2,0,C|304:112,1,70,0|2
336,80,114432,5,0
400,80,114718,2,0,B|400:168,2,70
464,80,115575,1,0
464,208,116147,1,0
400,208,116433,6,2,B|400:264,2,35
336,208,117004,2,2,C|304:288,1,70
240,272,117576,1,0
176,272,117862,2,2,B|88:272,1,70,2|0
128,80,119005,6,0,C|208:32,1,70
224,96,119577,2,0,C|152:136,1,70
160,192,120148,2,0,C|160:280,1,70
160,320,120720,2,0,C|240:320,1,70
288,320,121292,6,0,B|288:232,1,70
288,192,121863,2,0,C|360:248,1,70
400,240,122435,1,0
400,176,122721,1,0
464,176,123007,1,0
464,48,123578,5,0
400,48,123864,2,2,B|400:104,4,35
336,48,124721,1,0
272,48,125007,1,0
272,112,125293,1,0
208,112,125579,6,2,B|208:168,2,35
144,144,126151,2,2,C|144:96,2,35
144,208,126722,2,2,C|224:208,1,70
224,272,127294,2,2,C|272:272,4,35
224,336,128151,5,0
288,336,128437,1,0
352,336,128723,1,0
352,272,129009,1,0
352,208,129295,1,2
448,208,129723,1,2
448,176,129866,1,2
448,48,130438,6,0,B|432:0|368:48,1,70
328,32,131009,1,0
264,32,131295,1,2
264,96,131581,1,0
200,96,131867,1,0
136,96,132153,1,0
136,160,132439,1,0
