osu file format v5

[General]
AudioFilename: Freezeezy Peak.mp3
AudioLeadIn: 1015
PreviewTime: -1
Countdown: 0
SampleSet: Normal
StackLeniency: 0.7
Mode: 0
LetterboxInBreaks: 1

[Metadata]
Title:Freezeezy Peak
Artist:Grant Kirkhope
Creator:Kasada
Version:Normal
Source:Banjo-Kazooie
Tags:

[Difficulty]
HPDrainRate:4
CircleSize:4
OverallDifficulty:5
SliderMultiplier:1.4
SliderTickRate:1

[Events]
//Background and Video events
0,0,"scarf.jpg"
//Break Periods
2,9579,12315
2,40184,45402
2,79477,91725
//Storyboard Layer 0 (Background)
//Storyboard Layer 1 (Failing)
//Storyboard Layer 2 (Passing)
//Storyboard Layer 3 (Foreground)
//Storyboard Sound Samples
//Background Colour Transformations
3,100,163,162,255

[TimingPoints]
280,413.556378073241,4,1,0,100,1
53220,413.596940938093,4,2,0,100,0
66455,-100,4,1,0,100,0

[HitObjects]
64,56,280,1,0
136,56,486,1,0
208,56,693,2,0,B|208:128,1,70
136,128,1107,1,0
64,128,1313,1,0
64,200,1520,2,0,B|160:200,1,70
200,200,1934,1,0
272,200,2141,1,0
344,200,2347,2,0,B|344:128,1,70
272,128,2761,1,0
200,128,2968,1,0
200,56,3174,2,0,B|296:56,1,70
336,56,3588,6,0,B|468:41|456:208,1,210
456,328,4622,1,0
352,328,5035,1,0
280,328,5242,1,0
72,328,5863,1,0
72,328,6069,1,0
416,80,7310,6,0,B|421:169|328:168,1,140
192,168,8137,1,0
48,168,8551,2,0,B|34:66|208:80,1,210
272,80,9378,1,0
64,64,13513,5,0
168,64,13927,1,0
272,64,14237,1,0
272,64,14340,1,0
408,64,14754,1,0
408,272,15374,6,0,B|408:184,1,70
304,200,15891,1,0
304,200,15995,1,0
160,200,16408,1,0
160,336,16822,2,0,B|256:336,2,70,0|0|2
160,201,17649,2,0,B|248:201,2,70,0|0|2
160,56,18476,6,0,B|264:56,2,70,0|0|2
88,56,19096,1,0
88,128,19303,2,0,B|88:216,1,70,2|0
88,264,19717,2,2,B|88:304|144:304,1,70,2|10
208,304,20130,5,0
344,304,20544,1,0
272,224,20854,1,0
272,224,20957,1,0
128,224,21371,2,0,B|84:216|34:265|97:324|144:296,1,140
184,304,21991,1,0
256,304,22198,1,0
360,304,22508,1,0
360,304,22612,1,0
360,160,23025,1,0
216,160,23439,6,0,B|216:256,2,70,0|0|2
72,160,24266,2,0,B|72:264,2,70,0|0|8
216,160,25093,2,0,B|304:160,2,70,0|0|2
144,160,25713,1,0
80,200,25920,1,8
72,272,26127,1,0
112,328,26334,1,8
184,328,26540,1,8
256,328,26747,6,0,B|318:330|379:311|419:261|408:192,1,210
408,144,27574,1,0
304,56,27988,1,0
232,56,28195,1,0
160,56,28401,2,0,B|118:56|120:104,1,70
120,168,28815,2,0,B|120:210|168:208,1,70
232,208,29228,1,2
368,208,29642,1,0
368,344,30056,5,0
160,344,30676,1,0
160,272,30883,1,0
296,272,31296,1,0
296,200,31503,1,0
224,200,31710,2,0,B|152:200,1,70,0|8
184,136,32123,2,0,B|112:136,1,70,0|2
144,72,32537,2,2,B|43:56|48:160,1,140
48,208,33157,1,0
48,280,33364,6,0,B|48:320|104:344|152:320|152:264,1,140
152,216,33984,1,0
160,144,34191,1,8
224,120,34398,1,0
296,120,34605,2,8,B|336:120|360:160,1,70
376,216,35018,2,0,B|379:281|304:256,1,70,0|8
264,264,35432,2,0,B|199:267|224:192,1,70,0|8
216,152,35845,2,0,B|213:83|251:67|328:72,1,140
440,72,36672,5,0
440,208,37086,1,0
336,208,37396,1,0
336,208,37500,1,8
192,208,37913,1,0
88,208,38223,1,8
88,208,38327,1,0
88,64,38740,1,0
192,64,39050,1,0
192,64,39154,1,8
328,64,39567,6,0,B|472:64,1,140,0|4
64,56,46598,6,0,B|153:53|152:144,1,140,8|2
288,136,47425,2,0,B|285:47|376:48,1,140,8|2
472,144,48252,2,0,B|475:233|384:232,1,140,8|2
248,232,49079,2,2,B|159:229|160:320,1,140
296,312,49906,5,0
368,312,50113,1,0
440,312,50320,1,2
440,168,50733,1,0
368,168,50940,1,2
296,168,51147,1,0
152,168,51560,5,0
80,168,51767,1,2
80,240,51974,1,0
152,240,52181,1,2
224,240,52388,1,2
224,168,52594,1,2
224,96,52801,1,0
152,96,53008,1,2
80,96,53215,5,8
80,304,53835,1,0
152,304,54042,1,0
288,304,54455,1,0
360,304,54662,1,0
360,232,54869,1,0
216,232,55282,1,0
360,232,55696,1,2
216,232,56110,1,0
72,232,56523,5,0
72,88,56937,1,0
128,48,57144,1,0
200,40,57350,1,0
336,40,57764,1,0
408,48,57971,1,0
456,96,58177,1,8
464,232,58591,1,8
376,344,59005,1,8
256,88,59832,5,0
256,296,60452,1,0
256,296,60659,1,0
144,208,61072,1,0
256,120,61486,1,0
360,208,61899,1,0
256,120,62313,1,2
144,208,62727,1,0
256,192,63140,12,4,66449
64,336,67069,5,0
200,336,67482,1,0
336,336,67896,2,0,B|384:336|384:280,1,70
384,80,68723,2,0,B|383:31|336:32,1,70
112,32,70171,5,0
112,168,70584,1,0
112,304,70998,1,0
248,312,71411,2,0,B|248:96,1,210
248,32,72238,1,0
384,312,73065,6,0,B|448:240|456:160|432:96|384:64|360:48,1,280
240,32,74306,1,0
104,56,74720,1,0
64,192,75133,1,0
104,328,75547,1,0
256,184,76167,1,0
256,184,76374,5,0
256,40,76787,1,0
144,120,77201,1,0
144,256,77615,1,0
256,336,78028,1,0
368,256,78442,1,0
376,152,78752,1,0
368,120,78855,1,0
256,32,79269,1,0
72,56,92916,5,0
280,56,93536,1,0
208,56,93743,1,2
208,192,94157,1,0
208,192,94364,1,2
208,120,94570,1,0
272,152,94777,1,2
272,224,94984,1,0
208,264,95191,1,2
