osu file format v14

[General]
AudioFilename: pic_polaire.mp3
AudioLeadIn: 0
PreviewTime: 26671
Countdown: 0
SampleSet: Normal
StackLeniency: 0.7
Mode: 1
LetterboxInBreaks: 0
WidescreenStoryboard: 0

[Editor]
DistanceSpacing: 0.7
BeatDivisor: 4
GridSize: 32
TimelineZoom: 1.4

[Metadata]
Title:Freezeezy Peak
TitleUnicode:Freezeezy Peak
Artist:Grant Kirkhope
ArtistUnicode:Grant Kirkhope
Creator:-Tenshi-
Version:Kantan
Source:Banjo-Kazooie
Tags:Rareware Rare N64 Nintendo winter snow christmas
BeatmapID:826192
BeatmapSetID:375265

[Difficulty]
HPDrainRate:8
CircleSize:5
OverallDifficulty:3
ApproachRate:5
SliderMultiplier:1.4
SliderTickRate:1

[Events]
//Background and Video events
0,0,"xmas08_1024.jpg",0,0
//Break Periods
//Storyboard Layer 0 (Background)
//Storyboard Layer 1 (Fail)
//Storyboard Layer 2 (Pass)
//Storyboard Layer 3 (Foreground)
//Storyboard Sound Samples

[TimingPoints]
202,413.579183181113,4,1,0,70,1,0
39905,-100,4,1,0,70,0,1
53140,-100,4,1,0,70,0,0
53553,-100,4,1,0,40,0,0
65961,-100,4,1,0,70,0,0
106078,-100,4,1,0,70,0,1
119312,-100,4,1,0,70,0,0

[HitObjects]
128,224,202,5,0,0:0:0:0:
192,96,1856,1,8,0:0:0:0:
160,96,2683,1,8,0:0:0:0:
160,96,3510,1,0,0:0:0:0:
160,96,5164,1,8,0:0:0:0:
192,64,5992,1,0,0:0:0:0:
256,128,7232,1,0,0:0:0:0:
256,128,7646,1,8,0:0:0:0:
256,128,8473,1,8,0:0:0:0:
192,128,9300,1,0,0:0:0:0:
192,128,10127,1,12,0:0:0:0:
224,64,11782,1,0,0:0:0:0:
160,128,13436,1,8,0:0:0:0:
224,128,14263,5,8,0:0:0:0:
160,128,15504,1,0,0:0:0:0:
224,128,15918,1,8,0:0:0:0:
192,128,16745,1,8,0:0:0:0:
224,96,17158,1,8,0:0:0:0:
192,96,17572,1,0,0:0:0:0:
224,96,18399,1,0,0:0:0:0:
224,96,18813,1,8,0:0:0:0:
96,96,19226,1,0,0:0:0:0:
160,96,20053,1,8,0:0:0:0:
192,96,20880,1,8,0:0:0:0:
224,96,22121,1,0,0:0:0:0:
192,128,22535,1,8,0:0:0:0:
224,64,23362,1,8,0:0:0:0:
224,64,23776,1,0,0:0:0:0:
224,64,24189,1,8,0:0:0:0:
224,128,25016,1,0,0:0:0:0:
224,128,25430,1,0,0:0:0:0:
224,128,25843,1,8,0:0:0:0:
256,160,26671,1,12,0:0:0:0:
224,96,28325,1,0,0:0:0:0:
224,128,28738,1,0,0:0:0:0:
256,96,29152,1,8,0:0:0:0:
256,128,29979,1,0,0:0:0:0:
224,128,30806,1,0,0:0:0:0:
224,128,31634,1,8,0:0:0:0:
192,128,32047,1,0,0:0:0:0:
192,128,32461,1,8,0:0:0:0:
192,128,33288,1,8,0:0:0:0:
192,160,34942,1,0,0:0:0:0:
224,128,35356,1,0,0:0:0:0:
224,128,35769,1,8,0:0:0:0:
224,160,36596,1,0,0:0:0:0:
224,128,37424,1,8,0:0:0:0:
224,160,38251,1,0,0:0:0:0:
224,160,39078,1,8,0:0:0:0:
224,128,39905,1,12,0:0:0:0:
192,128,40732,1,8,0:0:0:0:
160,128,41973,1,0,0:0:0:0:
160,128,42387,1,8,0:0:0:0:
160,64,43214,1,8,0:0:0:0:
160,64,43627,1,0,0:0:0:0:
160,64,44041,1,8,0:0:0:0:
192,128,44868,1,0,0:0:0:0:
192,128,45282,1,8,0:0:0:0:
192,128,45695,1,0,0:0:0:0:
192,128,46522,1,8,0:0:0:0:
192,96,47350,1,8,0:0:0:0:
224,128,48590,1,0,0:0:0:0:
224,128,49004,1,8,0:0:0:0:
224,128,49831,1,8,0:0:0:0:
192,96,50245,1,8,0:0:0:0:
192,96,50658,1,0,0:0:0:0:
224,128,51485,1,0,0:0:0:0:
224,128,51899,1,0,0:0:0:0:
224,128,52312,1,8,0:0:0:0:
224,128,53140,1,12,0:0:0:0:
256,192,54380,1,0,0:0:0:0:
256,192,54794,1,8,0:0:0:0:
224,160,56035,1,8,0:0:0:0:
224,160,56448,1,0,0:0:0:0:
224,128,57689,1,0,0:0:0:0:
192,64,58103,1,8,0:0:0:0:
256,96,58930,1,0,0:0:0:0:
224,96,59757,1,8,0:0:0:0:
224,96,60998,1,0,0:0:0:0:
224,96,61411,1,8,0:0:0:0:
224,96,62652,1,8,0:0:0:0:
224,96,63066,1,0,0:0:0:0:
224,96,64306,1,8,0:0:0:0:
224,96,64720,1,0,0:0:0:0:
224,96,65547,1,8,0:0:0:0:
256,128,66374,1,4,0:0:0:0:
256,128,67615,1,0,0:0:0:0:
192,96,68028,1,8,0:0:0:0:
192,160,68856,1,0,0:0:0:0:
224,96,70096,1,0,0:0:0:0:
288,64,70510,1,8,0:0:0:0:
288,96,71337,1,8,0:0:0:0:
256,96,72164,1,0,0:0:0:0:
256,96,72991,1,8,0:0:0:0:
224,96,73819,1,8,0:0:0:0:
224,96,75059,1,8,0:0:0:0:
224,96,75473,1,0,0:0:0:0:
224,96,76300,1,0,0:0:0:0:
224,96,77954,1,0,0:0:0:0:
224,96,78782,1,8,0:0:0:0:
224,96,79609,1,4,0:0:0:0:
256,128,80849,1,0,0:0:0:0:
192,96,81263,1,8,0:0:0:0:
192,160,82090,1,0,0:0:0:0:
224,96,83331,1,0,0:0:0:0:
288,64,83744,1,8,0:0:0:0:
288,96,84572,1,8,0:0:0:0:
256,96,85399,1,0,0:0:0:0:
256,96,86226,1,8,0:0:0:0:
224,96,87053,1,8,0:0:0:0:
224,96,88294,1,8,0:0:0:0:
224,96,88707,1,0,0:0:0:0:
256,192,89535,12,0,92431,0:0:0:0:
256,128,92843,5,12,0:0:0:0:
192,128,93670,1,0,0:0:0:0:
224,96,94498,1,8,0:0:0:0:
224,128,94911,1,0,0:0:0:0:
256,96,95325,1,8,0:0:0:0:
256,128,96152,1,0,0:0:0:0:
224,128,96979,1,8,0:0:0:0:
192,128,97806,1,0,0:0:0:0:
192,128,98220,1,0,0:0:0:0:
224,128,98633,1,8,0:0:0:0:
192,128,99461,1,8,0:0:0:0:
160,160,100288,1,0,0:0:0:0:
192,160,101115,1,8,0:0:0:0:
224,128,101528,1,0,0:0:0:0:
224,128,101942,1,8,0:0:0:0:
224,160,102769,1,0,0:0:0:0:
224,160,104423,1,0,0:0:0:0:
224,160,105251,1,8,0:0:0:0:
224,128,106078,1,4,0:0:0:0:
128,96,106905,1,8,0:0:0:0:
128,128,107319,1,0,0:0:0:0:
160,128,107732,1,8,0:0:0:0:
224,128,108559,1,8,0:0:0:0:
224,128,109386,1,0,0:0:0:0:
224,128,110214,1,0,0:0:0:0:
224,128,110627,1,8,0:0:0:0:
224,128,111041,1,0,0:0:0:0:
224,128,111868,1,0,0:0:0:0:
224,128,112695,1,8,0:0:0:0:
224,128,113522,1,8,0:0:0:0:
224,128,113936,1,8,0:0:0:0:
224,128,114349,1,0,0:0:0:0:
224,128,115177,1,8,0:0:0:0:
224,128,116004,1,0,0:0:0:0:
256,128,116831,1,0,0:0:0:0:
224,96,117244,1,0,0:0:0:0:
256,128,117658,1,8,0:0:0:0:
224,96,118485,1,8,0:0:0:0:
256,96,119312,1,0,0:0:0:0:
160,96,120967,1,0,0:0:0:0:
256,96,121794,1,0,0:0:0:0:
160,96,122621,1,8,0:0:0:0:
192,64,123448,1,0,0:0:0:0:
256,128,124689,1,0,0:0:0:0:
256,128,125102,1,8,0:0:0:0:
256,128,125930,1,8,0:0:0:0:
192,128,126757,1,0,0:0:0:0:
192,128,127584,1,12,0:0:0:0:
