osu file format v5

[General]
AudioFilename: 15_-_final_battle.mp3
AudioLeadIn: 0
PreviewTime: 5181
Countdown: 1
SampleSet: Normal
StackLeniency: 0.7
Mode: 0
LetterboxInBreaks: 1
EditorBookmarks: 5042,21626,36626,48070,70376,88042,109292,138292,149542,159959
EditorDistanceSpacing: 0.800000011920929

[Metadata]
Title:Final Battle
Artist:Grant Kirkhope
Creator:kingcobra52
Version:Hard
Source:Banjo-Kazooie
Tags:banjo kazooie grunty guntilda bk b-k

[Difficulty]
HPDrainRate:4
CircleSize:5
OverallDifficulty:6
SliderMultiplier:1.6
SliderTickRate:1

[Events]
//Background and Video events
0,0,"Banjo-Kazooie_-_Target.jpg"
//Break Periods
2,32492,36726
2,60492,70059
2,103826,108726
2,128492,138059
//Storyboard Layer 0 (Background)
//Storyboard Layer 1 (Fail)
//Storyboard Layer 2 (Pass)
//Storyboard Layer 3 (Foreground)
//Storyboard Sound Samples
//Background Colour Transformations
3,100,163,162,255

[TimingPoints]
2959.44858918272,333.333333333333,4,1,0,80,1,0
16292,-100,4,2,0,80,0,0
21626,-100,4,1,0,60,0,0
37292,-100,4,1,0,80,0,0
48292,-100,4,2,0,81,0,0
59959,-100,4,1,0,80,0,0
76292,-200,4,1,0,80,0,0
77626,-100,4,1,0,80,0,0
82876,-100,4,1,0,50,0,0
85626,-100,4,1,0,80,0,0
88209,-100,4,2,0,81,0,0
93542,-100,4,1,0,80,0,0
109515,-100,4,1,0,49,0,0
114959,-100,4,1,0,80,0,0
170959,-100,4,1,0,60,0,0
176292,-100,4,1,0,80,0,0

[HitObjects]
88,80,5292,2,0,B|24:160|112:232,1,160,0|0
208,288,5959,1,8
336,272,6292,1,8
448,208,6626,1,8
480,80,6959,1,0
408,40,7181,5,0
368,40,7292,2,0,B|320:8|248:32,1,106.666666666667,8|0
224,48,7626,2,4,B|152:80|56:32,1,160
64,232,8292,5,0
120,296,8515,1,0
152,328,8626,2,0,B|248:256,1,106.666666666667,8|0
272,240,8959,2,0,B|216:160|304:96,2,160
399,240,9959,2,0,B|506:240,1,106.666666666667,8|0
504,200,10292,1,2
280,72,10959,5,0
192,72,11181,2,0,B|136:72,4,53.3333333333333
192,160,11848,2,0,B|120:160,1,53.3333333333333,0|8
56,160,12181,2,0,B|0:160,1,53.3333333333333,0|8
0,248,12515,2,0,B|64:248,1,53.3333333333333,0|8
136,248,12848,2,0,B|200:248,1,53.3333333333333,0|8
192,336,13181,2,0,B|128:336,1,53.3333333333333,0|8
56,336,13515,6,4,B|0:336,1,53.3333333333333,4|4
32,208,13959,2,0,B|-11:129|37:57,2,160
136,128,14959,5,4
208,80,15181,1,0
248,80,15292,1,4
320,120,15515,1,0
360,120,15626,1,4
424,176,15848,1,0
464,176,15959,1,0
464,264,16181,1,0
424,264,16292,1,2
296,264,16626,6,0,B|237:327|205:207|149:263,2,160
296,136,17626,2,0,B|248:80|224:168|192:120,1,106.666666666667
160,136,17959,2,0,B|112:80|88:168|56:120,1,106.666666666667
24,128,18292,2,0,B|76:180|-44:212|19:271,2,160,0|0|0
112,40,19292,6,0,B|176:104|264:56,1,160
328,112,19848,1,0
328,112,19959,2,2,B|384:48|440:88,1,106.666666666667
456,96,20292,2,0,B|496:144,12,53.3333333333333
424,216,21959,6,0,B|288:304,1,160
200,304,22515,1,0
160,304,22626,2,0,B|96:304|64:232,1,106.666666666667
73,250,22959,1,0
72,128,23292,2,0,B|88:56|152:64,1,106.666666666667
184,64,23626,2,4,B|280:96|336:-8,1,160,4|4
416,96,24292,5,0
416,184,24515,1,0
416,224,24626,2,0,B|480:224,3,53.3333333333333
416,344,25292,2,0,B|362:392|314:344,1,106.666666666667
320,350,25626,1,0
232,352,25848,1,0
192,352,25959,2,4,B|8:352,1,160
160,128,26959,5,0
160,216,27181,2,0,B|96:216,4,53.3333333333333
248,216,27848,2,0,B|320:216,1,53.3333333333333,0|8
384,216,28181,2,0,B|456:216,1,53.3333333333333,0|8
440,128,28515,2,0,B|376:128,1,53.3333333333333,0|8
304,128,28848,2,0,B|240:129,1,53.3333333333333,0|8
248,40,29181,2,4,B|312:40,1,53.3333333333333
384,40,29515,6,0,B|441:40,1,53.3333333333333
487,160,29959,2,0,B|517:138|488:116,2,53.3333333333333
488,200,30292,2,4,B|528:288|440:352,2,160
400,200,31181,5,0
400,240,31292,1,4
312,240,31515,1,0
312,280,31626,1,4
224,280,31848,1,0
224,320,31959,1,4
136,320,32181,1,0
136,360,32292,1,4
16,80,37626,6,4,B|96:24|184:64,1,160
256,56,38181,1,0
295,56,38292,2,4,B|367:22|447:79,1,160
448,160,38848,1,0
407,160,38959,2,4,B|336:127|256:183,1,160
320,288,39626,1,0
192,288,39959,2,0,B|24:288,1,160,0|4
32,160,40626,5,4
32,72,40848,1,0
32,32,40959,2,4,B|224:32,1,160
192,160,41626,2,0,B|288:144|288:48,2,160,0|0|4
312,192,42626,1,8
440,192,42959,6,4,B|474:264|418:344,1,160
368,272,43514,1,0
328,272,43625,2,4,B|250:328|178:294,1,160
96,264,44181,1,0
56,240,44292,2,4,B|0:160|40:72,1,160
152,32,44959,1,0
280,32,45292,6,0,B|440:136,1,160,0|4
416,248,45959,1,0
328,248,46181,1,0
288,248,46292,2,4,B|448:352,1,160,4|4
512,248,46959,2,0,B|496:152|400:152,2,160,0|0|2
512,248,47959,1,2
512,120,48292,6,0,B|430:83|350:139,1,160,0|4
288,176,48847,1,0
288,216,48958,2,0,B|216:250|136:194,1,160,0|4
136,280,49514,1,0
136,320,49625,2,0,B|206:370|288:332,1,160,0|4
408,296,50292,1,0
408,168,50626,2,0,B|240:168,1,160,4|0
120,168,51293,5,4
120,80,51515,1,0
160,80,51626,2,0,B|352:80,1,160,0|4
400,176,52293,2,2,B|400:84|496:68,2,160,2|2|2
400,304,53293,1,2
272,304,53626,6,0,B|200:338|120:282,1,160,0|4
40,232,54181,1,0
40,192,54292,2,0,B|113:227|191:171,1,160,0|4
192,88,54848,1,0
192,48,54959,2,0,B|112:104|24:64,1,160,0|4
128,160,55626,1,0
256,160,55959,6,0,B|416:264,1,160,4|0
464,136,56626,1,4
392,88,56848,1,0
367,119,56959,2,0,B|233:32,1,160,0|4
144,128,57626,2,0,B|128:32|32:32,2,160,2|2|2
144,256,58626,1,2
256,192,58959,12,4,60292
24,72,70959,6,4,B|216:72,1,160
312,72,71626,1,0
440,72,71959,1,0
440,200,72292,2,4,B|256:200,1,160
152,200,72959,1,0
24,200,73292,1,0
24,327,73626,6,0,B|103:292|179:333,1,160
304,336,74292,2,0,B|392:296|480:344,1,160
464,208,74959,2,2,B|376:248|288:200,1,160
176,207,75626,2,2,B|109:245|21:205,1,160
128,128,76292,2,0,B|152:40|256:24|352:40|376:128,1,320
256,192,77709,12,0,80292
192,192,80626,5,0
320,192,80959,1,4
256,80,81292,2,0,C|256:240,1,160
192,352,81959,1,0
320,352,82292,1,4
256,240,82626,1,0
192,128,82959,5,0
192,128,83126,1,0
256,128,83292,5,0
256,128,83459,1,0
320,128,83626,5,0
320,128,83792,1,0
384,128,83959,5,0
384,128,84126,1,0
384,64,84292,5,0
384,64,84459,1,0
320,64,84625,5,0
320,64,84792,1,0
256,64,84959,5,0
256,64,85126,1,0
192,64,85292,5,0
192,64,85459,1,0
192,128,85626,5,0
104,224,85959,2,0,C|288:224,2,160
104,352,86959,2,4,C|264:352,2,160
104,352,87959,1,0
104,224,88292,5,0
224,192,88626,1,0
104,152,88959,1,2
224,120,89292,1,0
352,120,89626,1,2
472,88,89959,1,0
352,48,90292,1,2
472,16,90626,1,0
352,48,90959,5,2
224,48,91292,1,0
224,176,91625,1,2
352,176,91959,1,0
352,304,92292,1,2
224,304,92625,1,0
224,176,92958,1,2
352,176,93292,1,0
352,304,93626,1,4
480,304,93959,5,0
480,216,94181,1,0
479,176,94292,2,0,C|496:151|416:127|448:103,1,160
320,104,94959,1,4
192,104,95292,1,0
104,104,95515,1,0
104,144,95626,2,0,C|136:168|56:192|88:232,1,160
72,344,96292,5,4
200,344,96626,1,0
200,256,96848,1,0
240,256,96959,2,0,C|264:224|288:304|328:272,1,160
320,160,97626,1,4
320,32,97960,1,0
232,32,98182,1,0
192,32,98293,2,0,C|168:0|144:80|104:48,1,160
256,192,98848,12,4,99626
256,192,100070,12,4,100959
256,192,101403,12,4,102292
256,192,102737,12,4,103626
40,24,109626,6,0,C|136:24,1,80
120,88,109959,2,0,C|8:88,1,80
40,152,110292,2,0,C|152:152,1,80
120,216,110626,2,0,C|16:216,1,80
40,280,110959,2,0,C|144:280,1,80
184,280,111292,2,0,C|280:280,1,80
264,216,111626,2,0,C|176:216,1,80
184,152,111959,2,0,C|280:152,1,80
264,88,112292,6,2,C|168:88,1,80
184,24,112626,2,2,C|288:24,1,80
328,24,112959,2,2,C|432:24,1,80
408,88,113292,2,2,C|296:88,1,80
256,192,113626,12,0,114959
384,192,115292,6,0,B|488:184|512:288,2,160
256,192,116292,1,4
128,192,116626,2,0,B|24:184|0:288,2,160
184,80,117626,2,0,C|200:72|224:80|248:72|272:80|296:72|320:80|344:72,3,160,4|0|0|0
256,192,118959,12,4,120292
168,192,120626,6,0,C|344:192,2,160
104,80,121626,2,4,B|256:-8|416:80,1,320
408,200,122626,1,0
408,328,122959,2,0,B|320:344|248:256,1,160
152,343,123626,2,4,B|97:275|10:290,1,160
8,160,124292,2,0,B|8:104,8,40
136,160,125292,5,0
264,160,125626,2,0,B|264:112,4,40
392,160,126292,2,0,B|392:112,4,40
392,288,126959,2,0,B|344:288,3,40
320,288,127292,2,0,B|272:288,3,40
248,288,127626,2,0,B|200:288,3,40
176,288,127959,2,0,B|120:288,4,40,0|0|0|0|4
64,48,138959,5,0
192,48,139292,1,8
319,48,139626,2,0,B|412:89|460:9,1,160,0|8
456,136,140292,1,0
328,136,140625,1,8
200,136,140959,2,0,B|152:216|40:168,1,160,0|8
64,336,141626,5,0
192,336,141959,1,8
319,335,142293,2,0,B|412:295|460:375,1,160,0|8
456,248,142959,1,0
328,248,143292,1,8
200,248,143626,2,0,B|152:168|40:216,1,160,0|8
64,80,144292,6,0,B|248:80,1,160
352,80,144959,1,4
224,80,145292,1,4
288,192,145626,2,0,B|128:192,1,160
0,192,146293,1,4
128,192,146626,1,4
128,320,146959,6,0,B|160:384|240:368,1,106.666666666667
256,368,147292,2,0,B|316:382|348:318,1,106.666666666667
352,280,147626,2,0,B|366:219|302:187,1,106.666666666667
264,184,147959,2,0,B|204:171|172:235,1,106.666666666667
136,224,148292,2,0,B|72:160|144:80,1,160,8|0
272,79,148959,2,0,B|342:157|278:221,1,160,8|0
384,152,149626,6,0,B|432:152,7,40
384,152,150292,1,4
384,280,150626,1,0
256,280,150959,2,0,B|208:280,7,40
256,280,151626,1,4
104,72,152292,6,0,B|152:72,7,40
104,72,152959,1,4
104,200,153292,1,4
232,200,153625,2,0,B|272:200,7,40
232,200,154292,1,4
464,312,154959,5,0
464,312,155292,1,0
336,312,155626,1,2
160,120,156292,1,0
160,120,156626,1,0
288,120,156959,1,2
256,192,157626,12,4,159626
256,192,160292,5,0
168,96,160626,2,0,B|48:144,1,106.666666666667,8|0
40,168,160959,2,0,B|8:240|88:280,1,106.666666666667,8|0
96,287,161293,2,0,B|156:292|156:364,1,106.666666666667,8|0
155,361,161626,1,0
272,304,161959,2,0,B|320:272|392:296,1,106.666666666667,8|0
415,296,162293,2,4,B|457:214|425:142,1,160
312,72,162959,5,0
224,72,163182,1,0
184,72,163293,2,0,B|144:144|40:144,1,160,8|0
48,271,163960,2,0,B|67:321|134:327,1,106.666666666667,8|0
133,326,164292,1,0
216,328,164515,5,0
256,328,164626,2,4,B|416:256,1,160
400,136,165293,1,0
272,136,165626,5,0
184,136,165848,2,0,B|184:208,4,53.3333333333333
96,136,166515,2,0,B|96:208,1,53.3333333333333,0|8
96,272,166848,2,0,B|96:336,1,53.3333333333333,0|8
184,328,167182,2,0,B|248:328,1,53.3333333333333,0|8
320,328,167515,2,0,B|392:328,1,53.3333333333333,0|8
456,328,167848,2,4,B|520:328,1,53.3333333333333
511,256,168182,6,0,B|458:256,1,53.3333333333333
464,168,168515,1,0
464,128,168626,2,0,B|392:64|304:136,2,160
376,216,169626,5,4
288,216,169848,1,0
248,216,169959,1,4
160,216,170182,1,0
120,216,170293,1,4
120,128,170515,1,0
160,128,170626,1,4
248,128,170848,1,0
288,128,170959,1,4
384,40,171293,6,0,B|325:103|293:-17|237:39,2,160
392,168,172293,2,0,B|440:112|464:200|496:152,1,106.666666666667
488,200,172626,2,0,B|531:228|443:252|499:300,1,106.666666666667
463,327,172959,2,0,B|404:390|372:270|316:326,2,160
360,247,173959,6,0,B|311:191|267:223,1,106.666666666667
267,222,174292,1,0
184,216,174515,1,0
184,176,174626,2,2,B|240:112|296:152,1,106.666666666667
320,144,174959,2,0,B|360:88,11,53.3333333333333
256,192,176292,12,4,177292
192,192,177626,6,0,B|192:136,2,53.3333333333333,4|0|0
232,192,177959,6,0,B|232:128,2,53.3333333333333,4|0|0
272,192,178292,6,0,B|272:136,2,53.3333333333333,4|0|0
312,192,178626,6,0,B|312:128,3,53.3333333333333,4|0|0|4
