osu file format v5

[General]
AudioFilename: 130 - The 6th Battle! Donkey Kong vs Army Dillo II!.mp3
AudioLeadIn: 982
PreviewTime: 3970
Countdown: 1
SampleSet: Normal
StackLeniency: 0.7
Mode: 0
LetterboxInBreaks: 1

[Editor]
DistanceSpacing: 1
BeatDivisor: 4
GridSize: 8

[Metadata]
Title:Donkey Kong vs Army Dillo II
Artist:Grant Kirkhope
Creator:James2250
Version:Normal
Source:Donkey Kong 64
Tags:

[Difficulty]
HPDrainRate:4
CircleSize:5
OverallDifficulty:4
SliderMultiplier:1
SliderTickRate:2

[Events]
//Background and Video events
0,0,"DK Boss.jpg"
//Break Periods
2,49885,54201
2,86848,90516
//Storyboard Layer 0 (Background)
//Storyboard Layer 1 (Fail)
//Storyboard Layer 2 (Pass)
//Storyboard Layer 3 (Foreground)
//Storyboard Sound Samples
//Background Colour Transformations
3,100,163,162,255

[TimingPoints]
1058,324.21917216038,4,1,0,71,1,0

[Colours]
Combo1 : 0,255,0
Combo2 : 255,255,0
Combo3 : 255,0,0
Combo4 : 128,0,255
Combo5 : 0,0,255

[HitObjects]
152,96,1058,2,0,B|376:96,1,200,0|4
352,296,2354,2,0,B|144:296,1,200,0|4
48,120,3651,5,0
48,216,3975,2,0,B|256:216,2,200,0|0|2
48,312,5597,1,2
288,136,6569,6,0,B|504:136,2,200,0|0|2
288,32,8190,1,2
408,304,9163,5,0
304,304,9487,1,0
304,200,9811,2,0,B|424:200,2,100,0|0|2
304,96,10784,1,2
200,96,11108,1,2
200,296,11757,6,0,B|416:296,1,200,0|0
400,192,12729,2,0,B|400:72,2,100,0|0|0
112,96,14350,6,0,B|112:320,1,200,0|0
208,296,15323,2,0,B|208:192,2,100,0|2|2
424,72,16944,5,0
320,72,17268,1,0
320,168,17593,2,0,B|440:168,1,100
424,264,18241,1,2
320,264,18565,1,2
48,144,19538,6,0,B|48:256,2,100
144,144,20511,2,0,B|144:264,1,100,0|0
240,240,21159,2,0,B|240:128,1,100,0|0
392,272,22132,5,0
392,368,22456,1,0
288,368,22780,2,0,B|288:264,1,100,0|0
184,272,23429,1,0
184,368,23753,1,4
288,200,24401,5,4
256,192,25050,12,0,26347
208,192,26671,5,0
304,192,26995,1,4
256,192,27643,12,0,28940
256,32,29265,6,0,B|256:152,1,100,0|4
136,288,30237,2,0,L|248:288,1,100,0|0
336,288,30886,1,2
336,184,31210,1,2
433,186,31534,1,2
432,288,31858,6,0,L|432:184,1,100,0|4
272,56,32831,1,0
168,56,33155,2,0,L|168:176,3,100,0|0|0|0
168,256,34452,1,0
64,256,34776,5,4
264,256,35425,1,0
464,256,36073,1,4
464,56,36722,1,0
264,56,37370,1,4
64,56,38018,1,0
64,256,38667,1,4
264,256,39315,1,0
64,256,39964,6,0,B|72:344|208:336|232:320|232:320,1,200,4|0
336,152,41261,2,0,B|328:64|192:72|168:88|168:88,1,200,4|0
64,256,42558,2,0,B|72:344|208:336|232:320|232:320,1,200,4|0
336,152,43854,2,0,B|328:64|192:72|168:88|168:88,1,200,4|0
360,32,45151,6,0,B|360:248,1,200,4|0
160,232,46448,2,0,B|160:8,1,200,4|0
160,232,47745,2,0,B|376:232,1,200,4|0
360,32,49042,2,0,B|152:32,1,200,4|0
64,48,55526,5,2
160,48,55851,1,2
112,136,56175,1,4
288,48,56823,5,2
384,48,57147,1,2
336,136,57472,1,4
384,328,58120,5,2
288,328,58444,1,2
336,240,58769,1,4
152,328,59417,5,2
56,328,59741,1,2
104,240,60065,1,4
104,136,60390,6,0,B|216:136,1,100
400,136,61362,1,0
296,136,61686,1,0
400,136,62011,2,0,B|400:256,2,100,0|2|2
496,136,62983,6,0,B|496:24,1,100
296,40,63956,1,0
192,40,64280,2,0,B|192:160,2,100,0|0|2
88,40,65253,2,2,B|88:144,1,100
256,192,65901,12,0,68495
40,64,68819,6,0,B|40:176,1,100,8|0
136,160,69468,2,0,B|136:40,1,100,8|0
232,64,70116,2,0,B|232:184,1,100,8|0
328,160,70765,1,4
256,192,71089,12,0,73683
472,40,74007,5,8
368,40,74331,2,0,B|368:160,1,100,0|8
368,240,74979,1,0
264,240,75304,1,8
264,136,75628,2,0,B|264:32,1,100,0|8
160,40,76276,5,4
448,320,77573,1,4
48,320,78870,1,4
424,192,80167,1,4
48,40,81464,1,4
392,248,82761,6,0,B|392:352,2,100
288,248,83733,1,2
184,248,84058,1,2
480,248,85030,6,0,B|480:136,2,100
480,152,86003,1,0
376,152,86327,1,2
272,152,86651,1,2
256,40,91839,5,4
48,256,92812,6,0,B|48:368,5,100,8|0|8|0|8|4
344,360,95405,6,0,B|344:248,5,100,8|0|8|0|8|4
416,72,97675,6,2,B|312:72,1,100
216,72,98323,1,4
72,208,98972,6,2,B|184:208,1,100
272,208,99620,1,4
432,320,100269,6,2,B|320:320,1,100
232,320,100917,1,4
128,320,101241,6,0,B|128:200,3,100
32,40,102862,6,0,B|240:40,1,200,8|4
432,40,104159,2,0,B|432:256,1,200,8|4
232,264,105456,2,0,B|16:264,1,200,8|4
232,312,106753,2,0,B|456:312,1,200,8|4
408,112,108050,6,0,B|512:144|456:224|392:248|448:288,1,200,8|4
232,280,109347,2,0,B|128:248|184:168|248:144|192:104,1,200,8|4
32,216,110644,2,0,B|-8:104|80:48|104:32,1,200,8|4
488,32,112589,6,2,B|272:32,1,200
88,32,113886,2,2,B|88:248,1,200
288,232,115183,5,2
288,24,116480,1,2
488,368,117776,6,2,B|512:240|464:152|456:120|416:72|352:48|328:40|320:40,1,400
32,40,120370,6,2,B|8:168|56:256|64:288|104:336|168:360|192:368|200:368,1,400
256,192,122964,5,4
