osu file format v5

[General]
AudioFilename: 130 - The 6th Battle! Donkey Kong vs Army Dillo II!.mp3
AudioLeadIn: 982
PreviewTime: 3970
Countdown: 1
SampleSet: Normal
StackLeniency: 0.6
Mode: 0
LetterboxInBreaks: 1

[Editor]
DistanceSpacing: 1
BeatDivisor: 4
GridSize: 8

[Metadata]
Title:Donkey Kong vs Army Dillo II
Artist:Grant Kirkhope
Creator:James2250
Version:Hard
Source:Donkey Kong 64
Tags:

[Difficulty]
HPDrainRate:5
CircleSize:5
OverallDifficulty:5
SliderMultiplier:1.3
SliderTickRate:2

[Events]
//Background and Video events
0,0,"DK Boss.jpg"
//Break Periods
2,49885,54321
2,86848,90636
//Storyboard Layer 0 (Background)
//Storyboard Layer 1 (Fail)
//Storyboard Layer 2 (Pass)
//Storyboard Layer 3 (Foreground)
//Storyboard Sound Samples
//Background Colour Transformations
3,100,163,162,255

[TimingPoints]
1058,324.21917216038,4,1,0,71,1,0

[Colours]
Combo1 : 0,255,0
Combo2 : 255,255,0
Combo3 : 255,0,0
Combo4 : 128,0,255
Combo5 : 0,0,255

[HitObjects]
136,56,1058,1,4
392,56,1706,1,4
392,312,2354,1,4
128,312,3003,1,4
136,56,3651,1,4
200,168,3975,6,2,B|40:168,1,130
200,168,4624,2,2,B|352:168,1,130
328,296,5272,1,0
200,296,5597,1,0
32,40,6569,6,2,B|176:40,1,130
160,168,7218,2,2,B|8:168,1,130
32,296,7866,1,0
160,296,8190,1,0
456,40,9163,5,2
392,40,9325,1,0
328,40,9487,1,2
328,168,9811,1,2
392,168,9974,1,0
456,168,10136,1,2
328,168,10460,2,0,B|328:320,1,130
456,296,11108,1,0
200,352,11757,6,0,B|200:192,1,130
72,224,12405,1,2
72,160,12567,1,0
128,192,12729,1,0
256,192,13054,1,0
384,192,13378,1,0
32,24,14350,6,0,B|184:24,1,130
288,24,14999,2,2,B|288:96,2,65
416,24,15647,1,0
416,152,15972,1,0
48,288,16944,6,0,B|48:368,2,65
160,352,17593,2,2,B|160:264,2,65
288,352,18241,1,0
288,224,18565,1,0
24,192,19538,6,0,B|184:192,1,130
152,64,20186,1,2
200,104,20349,1,0
248,64,20511,1,2
376,64,20835,1,0
464,160,21159,1,0
376,256,21483,1,0
112,264,22132,5,0
240,264,22456,1,0
200,136,22780,2,2,B|112:136,2,65
328,136,23429,2,0,B|472:136,1,130
296,344,24401,5,4
56,232,25050,2,0,B|64:112|88:48|168:8|232:0|328:40|360:32|408:40|472:40,1,520
448,168,26671,2,0,B|448:320,1,130,0|4
192,344,27643,2,0,B|72:336|72:304|-8:232|0:168|64:48|80:56|160:40|224:32,1,520
256,192,29589,12,0,31534
48,32,32183,6,0,B|48:304,1,260
176,296,33155,2,0,B|176:144,1,130,2|2
304,168,33804,2,2,B|304:320,1,130
176,296,34452,1,0
56,352,34776,5,4
312,352,35425,1,0
312,88,36073,1,4
48,88,36722,1,0
264,224,37370,1,4
488,88,38018,1,0
488,344,38667,1,4
264,224,39315,1,0
40,96,39964,6,0,B|136:48|232:16|296:96,1,260,4|0
280,344,41261,2,0,B|208:288|112:288|88:312|64:336|40:368,1,260,4|0
304,312,42558,2,0,B|232:240|224:152|280:112|320:96,1,260,4|0
64,24,43854,2,0,B|56:120|56:200|56:240|56:288,1,260,4|0
312,224,45151,6,0,B|312:368,2,130,2|0|2
128,32,46448,2,0,B|128:176,2,130,2|0|2
384,32,47745,2,0,B|384:176,2,130,2|0|2
208,224,49042,2,0,B|208:376,2,130,2|0|2
464,32,55526,6,0,B|464:192,1,130
336,160,56175,1,2
208,160,56499,1,0
336,160,56823,1,2
208,160,57147,1,0
80,160,57472,1,2
256,352,58120,6,0,B|256:208,1,130
128,224,58769,1,2
256,224,59093,1,0
384,224,59417,1,2
256,224,59741,1,0
256,96,60065,1,2
144,32,60390,5,0
16,32,60714,2,0,B|16:296,1,260,8|0
144,288,61686,1,2
272,288,62011,2,0,B|272:136,2,130,8|0|8
400,288,62983,5,0
400,160,63308,2,0,B|136:160,1,260,8|0
144,32,64280,1,2
16,32,64604,2,8,B|16:184,2,130,8|0|8
272,32,65901,6,2,B|272:192,1,130
272,291,66550,2,2,B|272:147,1,130
402,162,67198,2,2,B|258:162,1,130
143,162,67847,2,2,B|279:162,1,130
256,288,68495,5,8
128,288,68819,1,0
256,288,69144,1,8
384,288,69468,1,0
256,288,69792,1,8
256,160,70116,1,0
256,288,70440,1,8
384,288,70765,1,0
456,176,71089,6,2,B|456:32,1,130
328,48,71737,2,2,B|328:208,1,130
200,176,72386,2,2,B|200:24,1,130
72,48,73034,2,2,B|72:184,1,130
72,304,73683,5,8
200,304,74007,1,0
136,192,74331,1,8
264,192,74655,1,0
320,304,74979,1,8
384,192,75304,1,0
448,304,75628,1,8
384,192,75952,1,0
384,64,76276,6,0,B|120:64,1,260,4|0
136,320,77573,6,0,B|400:320,1,260,4|0
384,64,78870,6,0,B|96:64,1,260,4|0
144,320,80167,6,4,B|424:320,1,260,4|0
256,192,81464,12,0,82761
256,128,83085,6,0,B|256:288,3,130
448,328,85030,5,0
448,200,85354,1,0
320,200,85679,1,0
320,328,86003,1,0
192,328,86327,1,0
192,200,86651,1,0
256,192,91839,5,4
40,160,92812,6,0,B|40:248,2,65
40,32,93460,1,2
168,32,93784,1,0
168,160,94108,1,2
280,96,94433,1,0
480,160,95405,6,0,B|480:248,2,65
352,160,96054,1,2
352,288,96378,1,0
224,288,96702,1,2
224,160,97026,1,0
48,352,97675,5,2
48,288,97837,1,0
48,224,97999,1,2
48,96,98323,1,0
304,96,98972,6,0,B|304:184,4,65
480,288,100269,5,2
480,224,100431,1,0
480,160,100593,1,2
480,32,100917,1,0
352,32,101241,6,0,B|192:32,2,130
352,160,102214,1,4
256,192,102862,12,4,103511
256,192,104159,6,0,B|360:24|424:120|448:184,1,260,0|4
256,192,105456,12,4,106105
256,192,106753,6,0,B|152:360|88:264|64:200,1,260,0|4
320,272,108050,5,2
408,272,108266,1,2
368,192,108482,1,2
368,104,108698,1,4
104,104,109347,5,2
200,104,109563,1,2
152,192,109779,1,2
152,272,109995,1,4
280,48,110644,5,2
344,104,110860,1,2
408,48,111076,1,2
472,104,111292,1,4
40,224,112589,6,0,B|40:360,1,130,0|2
168,352,113237,2,0,B|168:216,1,130,0|2
296,224,113886,2,0,B|296:368,1,130,0|2
424,352,114534,2,0,B|424:216,1,130,0|2
296,224,115183,6,0,B|296:104|296:88,1,130,0|2
168,96,115831,2,0,B|168:232,1,130,0|2
296,224,116480,2,0,B|296:80,1,130,0|2
168,96,117128,2,0,B|168:240,1,130,0|2
80,328,117776,5,2
208,328,118101,1,0
336,328,118425,1,0
464,328,118749,1,0
464,200,119073,5,2
336,200,119397,1,0
208,200,119722,1,0
80,200,120046,1,0
80,72,120370,5,2
208,72,120694,1,0
336,72,121019,1,0
464,72,121343,1,0
464,200,121667,5,2
336,200,121991,1,0
208,200,122315,1,0
80,200,122640,1,0
144,88,122964,5,4
