osu file format v12

[General]
AudioFilename: perfect dark- deep sea (combat).mp3
AudioLeadIn: 0
PreviewTime: 61927
Countdown: 2
SampleSet: Normal
StackLeniency: 0.7
Mode: 0
LetterboxInBreaks: 0

[Editor]
DistanceSpacing: 0.6
BeatDivisor: 2
GridSize: 8

[Metadata]
Title:Deep Sea Nullify Threat (Escape Version)
TitleUnicode:Deep Sea Nullify Threat (Escape Version)
Artist:Grant Kirkhope
ArtistUnicode:Grant Kirkhope
Creator:agentdark1706
Version:Special Agent
Source:Perfect Dark
Tags:
BeatmapID:257339
BeatmapSetID:95916

[Difficulty]
HPDrainRate:5
CircleSize:4
OverallDifficulty:5
ApproachRate:5
SliderMultiplier:0.90000000596046
SliderTickRate:2

[Events]
//Background and Video events
0,0,"PerfectDark-5.png",0,0
//Break Periods
2,23551,28396
2,49636,51910
2,85273,87180
2,109154,110694
//Storyboard Layer 0 (Background)
//Storyboard Layer 1 (Fail)
//Storyboard Layer 2 (Pass)
//Storyboard Layer 3 (Foreground)
//Storyboard Sound Samples
//Background Colour Transformations
3,100,163,162,255

[TimingPoints]
205,367.398159509202,4,1,0,40,1,0
35475,-83.3333333333333,4,2,1,55,0,1
47231,-100,4,1,0,40,0,0
61927,-83.3333333333333,4,2,1,55,0,1
73684,-100,4,1,0,40,0,0
97198,-83.3333333333333,4,2,1,55,0,1
108954,-100,4,1,0,40,0,0

[Colours]
Combo1 : 255,150,0
Combo2 : 5,240,5
Combo3 : 0,255,255
Combo4 : 240,5,5
Combo5 : 128,0,255

[HitObjects]
104,56,6083,1,0,0:0:0:0:
232,56,6818,1,0,0:0:0:0:
168,160,7552,1,0,0:0:0:0:
152,288,8287,1,0,0:0:0:0:
216,288,8655,1,0,0:0:0:0:
277,285,9022,6,0,P|357:229|301:181,1,180.000001192092
288,128,10124,1,0,0:0:0:0:
232,96,10492,2,0,L|112:96,2,90.000000596046
232,160,11594,1,0,0:0:0:0:
232,224,11961,5,0,0:0:0:0:
104,224,12696,1,0,0:0:0:0:
104,96,13431,1,0,0:0:0:0:
232,96,14166,2,0,L|344:96,2,90.000000596046
224,224,15635,5,0,0:0:0:0:
224,288,16003,1,0,0:0:0:0:
288,288,16370,2,0,L|365:210,1,90.000000596046
392,176,17105,2,0,L|472:88,1,90.000000596046
423,84,17840,5,0,0:0:0:0:
368,84,18207,1,0,0:0:0:0:
313,84,18574,2,0,L|258:84,2,45.000000298023
313,139,19309,5,0,0:0:0:0:
313,194,19677,1,0,0:0:0:0:
313,248,20044,2,0,L|313:303,2,45.000000298023
257,248,20779,5,0,0:0:0:0:
202,248,21146,1,0,0:0:0:0:
146,248,21514,2,0,P|88:256|64:216,1,90.000000596046
56,176,22248,1,0,0:0:0:0:
56,112,22616,2,0,P|72:56|120:56,1,90.000000596046
160,48,23351,1,0,0:0:0:0:
56,48,29596,5,0,0:0:0:0:
120,48,29964,1,0,0:0:0:0:
184,48,30331,2,0,L|184:128,2,45.000000298023
248,48,31066,5,0,0:0:0:0:
312,48,31433,1,0,0:0:0:0:
376,48,31801,2,0,L|376:116,2,45.000000298023
440,40,32536,6,0,P|475:40|480:96,1,90.000000596046
472,152,33270,2,0,P|451:186|387:186,1,90.000000596046
344,192,34005,2,0,L|338:255,2,45.000000298023
280,192,34740,2,0,L|290:115,2,45.000000298023
208,192,35475,1,0,0:0:0:0:
136,192,35842,1,0,0:0:0:0:
108,192,36026,1,0,0:0:0:0:
80,192,36210,1,0,0:0:0:0:
80,40,36944,5,0,0:0:0:0:
152,40,37312,1,0,0:0:0:0:
160,112,37679,2,0,L|280:112,2,107.999997419357
88,240,39149,1,0,0:0:0:0:
160,240,39516,1,0,0:0:0:0:
232,240,39884,2,0,L|232:120,1,107.999997419357
304,128,40618,2,0,L|304:272,1,107.999997419357
376,240,41353,5,0,0:0:0:0:
472,352,42088,1,0,0:0:0:0:
472,280,42455,1,0,0:0:0:0:
472,208,42823,6,0,L|472:152,2,53.9999987096784
424,152,43557,2,0,L|424:96,2,53.9999987096784
352,120,44292,1,0,0:0:0:0:
240,128,44843,5,0,0:0:0:0:
240,128,45027,1,0,0:0:0:0:
168,136,45394,1,0,0:0:0:0:
96,144,45762,2,0,P|80:216|96:256,1,107.999997419357
144,296,46497,2,0,P|168:320|200:312,2,53.9999987096784
256,192,47231,12,0,49436,0:0:0:0:
56,192,53110,5,0,0:0:0:0:
120,192,53477,1,0,0:0:0:0:
280,192,54579,1,0,0:0:0:0:
336,192,54947,1,0,0:0:0:0:
336,32,56049,5,0,0:0:0:0:
392,32,56416,1,0,0:0:0:0:
432,192,57519,1,0,0:0:0:0:
376,192,57886,1,0,0:0:0:0:
296,192,58437,6,0,L|296:256,3,45.000000298023
238,247,59356,1,0,0:0:0:0:
210,247,59539,1,0,0:0:0:0:
128,248,60090,1,0,0:0:0:0:
127,191,60458,6,0,L|64:232,1,45.000000298023
48,248,61009,2,0,L|47:309,1,45.000000298023
96,312,61560,1,0,0:0:0:0:
178,314,61927,5,0,0:0:0:0:
260,314,62295,1,0,0:0:0:0:
342,314,62662,2,0,L|416:312,2,53.9999987096784
342,231,63397,5,0,0:0:0:0:
342,148,63764,1,0,0:0:0:0:
342,65,64132,2,0,L|264:64,2,53.9999987096784
424,65,64867,5,0,0:0:0:0:
424,147,65234,1,0,0:0:0:0:
424,229,65601,1,0,0:0:0:0:
424,311,65969,2,0,P|360:312|320:288,1,107.999997419357
240,288,66704,5,0,0:0:0:0:
146,291,67071,1,0,0:0:0:0:
144,208,67438,2,0,P|176:200|200:216,2,53.9999987096784
311,208,68541,5,0,0:0:0:0:
393,208,68908,1,0,0:0:0:0:
475,208,69275,1,0,0:0:0:0:
475,42,70010,5,0,0:0:0:0:
392,42,70378,1,0,0:0:0:0:
309,42,70745,1,0,0:0:0:0:
143,42,71480,6,0,P|120:56|96:40,2,53.9999987096784
225,42,72215,1,0,0:0:0:0:
225,124,72582,1,0,0:0:0:0:
142,124,72949,2,0,P|138:173|192:200,2,107.999997419357
252,124,74419,6,0,B|288:96|288:96|344:136,1,90.000000596046
328,192,75154,2,0,B|292:222|292:222|248:192,1,90.000000596046
200,200,75889,2,0,L|88:200,1,90.000000596046
112,256,76623,1,0,0:0:0:0:
32,85,77358,5,0,0:0:0:0:
87,85,77726,1,0,0:0:0:0:
141,85,78093,2,0,P|208:88|208:56,1,90.000000596046
275,79,78828,1,0,0:0:0:0:
329,79,79195,5,0,0:0:0:0:
329,79,79379,1,0,0:0:0:0:
329,79,79563,1,0,0:0:0:0:
368,184,80297,2,0,P|392:144|440:176,1,90.000000596046
432,247,81032,5,0,0:0:0:0:
432,301,81399,1,0,0:0:0:0:
432,356,81767,1,0,0:0:0:0:
377,356,82134,1,0,0:0:0:0:
321,356,82502,6,0,B|240:356|240:224|328:224,1,180.000001192092
348,180,83604,1,0,0:0:0:0:
386,218,83971,2,0,L|424:256,2,45.000000298023
424,176,84706,2,0,L|376:128,2,45.000000298023
256,192,88380,12,0,90584,0:0:0:0:
440,320,91319,5,0,0:0:0:0:
401,281,91687,1,0,0:0:0:0:
362,242,92054,2,0,L|264:168,1,90.000000596046
235,137,92789,1,0,0:0:0:0:
196,175,93156,5,0,0:0:0:0:
157,213,93524,2,0,L|200:256,2,45.000000298023
111,243,94258,1,0,0:0:0:0:
72,204,94626,1,0,0:0:0:0:
80,152,94993,6,0,P|128:72|224:75,1,180.000001192092
255,100,96095,1,0,0:0:0:0:
293,138,96463,2,0,L|200:208,1,90.000000596046
264,263,97198,5,0,0:0:0:0:
322,321,97565,1,0,0:0:0:0:
380,262,97932,1,0,0:0:0:0:
380,179,98300,1,0,0:0:0:0:
380,96,98667,6,0,P|272:208|264:272,1,215.999994838714
352,264,99769,1,0,0:0:0:0:
440,264,100137,1,0,0:0:0:0:
427,108,100872,6,0,P|384:80|345:116,1,107.999997419357
248,104,101606,1,0,0:0:0:0:
152,88,101974,2,0,P|144:64|112:72,2,53.9999987096784
117,166,102709,1,0,0:0:0:0:
117,248,103076,5,0,0:0:0:0:
117,330,103443,1,0,0:0:0:0:
199,330,103811,1,0,0:0:0:0:
281,330,104178,1,0,0:0:0:0:
360,308,104546,6,0,P|424:312|424:284,1,107.999997419357
428,206,105280,1,0,0:0:0:0:
428,123,105648,1,0,0:0:0:0:
345,123,106015,2,0,P|328:88|313:83,1,53.9999987096784
237,77,106566,5,0,0:0:0:0:
237,77,106750,1,0,0:0:0:0:
256,168,107117,2,0,P|240:232|192:216,1,107.999997419357
160,144,107852,2,0,P|88:96|88:208,1,215.999994838714
64,272,108954,1,0,0:0:0:0:
256,192,111894,12,0,114098,0:0:0:0:
449,64,114833,5,0,0:0:0:0:
402,93,115200,1,0,0:0:0:0:
356,124,115568,1,0,0:0:0:0:
317,162,115935,1,0,0:0:0:0:
328,216,116302,6,0,P|346:280|408:296,2,135.000000894069,0|0|0,0:0|0:0|0:0,0:0:0:0:
280,192,117772,1,0,0:0:0:0:
239,161,118139,1,0,0:0:0:0:
200,122,118507,1,0,0:0:0:0:
161,83,118874,1,0,0:0:0:0:
109,102,119242,6,0,B|136:160|56:176|96:240,1,135.000000894069
168,240,120344,1,0,0:0:0:0:
168,240,120527,1,0,0:0:0:0:
248,240,121078,1,0,0:0:0:0:
360,240,121813,5,0,0:0:0:0:
360,240,121997,1,0,0:0:0:0:
440,240,122548,1,0,0:0:0:0:
440,184,122915,2,0,P|456:144|411:126,2,90.000000596046
