osu file format v12

[General]
AudioFilename: perfect dark- deep sea (combat).mp3
AudioLeadIn: 0
PreviewTime: 61927
Countdown: 2
SampleSet: Normal
StackLeniency: 0.7
Mode: 0
LetterboxInBreaks: 0

[Editor]
DistanceSpacing: 0.5
BeatDivisor: 4
GridSize: 8

[Metadata]
Title:Deep Sea Nullify Threat (Escape Version)
TitleUnicode:Deep Sea Nullify Threat (Escape Version)
Artist:Grant Kirkhope
ArtistUnicode:Grant Kirkhope
Creator:agentdark1706
Version:Perfect Agent
Source:Perfect Dark
Tags:
BeatmapID:257338
BeatmapSetID:95916

[Difficulty]
HPDrainRate:7
CircleSize:4
OverallDifficulty:6
ApproachRate:7
SliderMultiplier:1.80000000596046
SliderTickRate:2

[Events]
//Background and Video events
0,0,"PerfectDark-5.png",0,0
//Break Periods
2,73884,76458
//Storyboard Layer 0 (Background)
//Storyboard Layer 1 (Fail)
//Storyboard Layer 2 (Pass)
//Storyboard Layer 3 (Foreground)
//Storyboard Sound Samples
//Background Colour Transformations
3,100,163,162,255

[TimingPoints]
205,367.398159509202,4,1,0,40,1,0
35475,-100,4,2,1,55,0,1
47231,-100,4,1,0,40,0,0
61927,-76.9230769230769,4,2,1,55,0,1
73684,-100,4,1,0,40,0,0
97198,-76.9230769230769,4,2,1,55,0,1
108954,-100,4,1,0,40,0,0

[Colours]
Combo1 : 255,150,0
Combo2 : 5,240,5
Combo3 : 0,255,255
Combo4 : 240,5,5
Combo5 : 128,0,255

[HitObjects]
80,64,6083,1,0,0:0:0:0:
120,72,6267,1,0,0:0:0:0:
160,88,6450,1,0,0:0:0:0:
64,216,6818,2,0,L|176:216,1,90.000000298023
228,280,7185,2,0,L|116:280,1,90.000000298023
64,344,7552,2,0,L|176:344,1,90.000000298023
228,280,7920,1,0,0:0:0:0:
464,24,8287,6,0,L|464:136,1,90.000000298023
368,112,8655,2,0,L|368:224,1,90.000000298023
464,200,9022,2,0,L|464:312,1,90.000000298023
360,308,9389,1,0,0:0:0:0:
104,320,9757,1,0,0:0:0:0:
80,264,9941,1,0,0:0:0:0:
72,208,10124,1,0,0:0:0:0:
104,104,10492,6,0,P|160:32|240:64,1,180.000000596046
224,208,11226,1,0,0:0:0:0:
264,168,11410,1,0,0:0:0:0:
320,144,11594,1,0,0:0:0:0:
448,232,11961,2,0,P|464:312|392:296,1,180.000000596046
296,336,12696,5,0,0:0:0:0:
344,128,13063,1,0,0:0:0:0:
144,224,13431,1,0,0:0:0:0:
152,40,13798,1,0,0:0:0:0:
344,128,14166,1,0,0:0:0:0:
144,224,14533,1,0,0:0:0:0:
296,336,14900,1,0,0:0:0:0:
128,56,15635,5,0,0:0:0:0:
64,96,15819,1,0,0:0:0:0:
128,136,16003,1,0,0:0:0:0:
64,184,16186,1,0,0:0:0:0:
128,224,16370,1,0,0:0:0:0:
368,216,16737,5,0,0:0:0:0:
464,352,17105,1,0,0:0:0:0:
432,344,17197,1,0,0:0:0:0:
404,336,17289,1,0,0:0:0:0:
384,328,17380,1,0,0:0:0:0:
360,312,17472,1,0,0:0:0:0:
344,288,17564,1,0,0:0:0:0:
344,264,17656,1,0,0:0:0:0:
356,236,17748,1,0,0:0:0:0:
368,216,17840,1,0,0:0:0:0:
256,72,18207,5,0,0:0:0:0:
136,144,18574,1,0,0:0:0:0:
304,176,18942,1,0,0:0:0:0:
272,240,19126,1,0,0:0:0:0:
232,304,19309,1,0,0:0:0:0:
136,232,19677,2,0,L|200:136,1,90.000000298023
112,144,20044,1,0,0:0:0:0:
200,304,20411,2,0,P|200:224|288:208,1,180.000000596046
64,64,21514,6,0,P|24:96|64:128,1,90.000000298023
144,136,21881,2,0,P|184:168|144:192,1,90.000000298023
48,200,22248,2,0,P|8:224|56:248,1,90.000000298023
264,208,22983,1,0,0:0:0:0:
208,312,23351,2,0,L|264:312,4,45.0000001490115
352,304,24085,5,0,0:0:0:0:
416,256,24269,1,0,0:0:0:0:
352,216,24453,1,0,0:0:0:0:
416,176,24636,1,0,0:0:0:0:
352,128,24820,1,0,0:0:0:0:
168,128,25188,5,0,0:0:0:0:
104,176,25371,1,0,0:0:0:0:
168,216,25555,1,0,0:0:0:0:
104,256,25739,1,0,0:0:0:0:
168,296,25922,2,0,B|272:264|256:160,2,180.000000596046
56,248,27025,5,0,0:0:0:0:
40,200,27208,1,0,0:0:0:0:
56,144,27392,1,0,0:0:0:0:
96,104,27576,1,0,0:0:0:0:
136,92,27759,1,0,0:0:0:0:
184,200,28127,5,0,0:0:0:0:
200,224,28219,1,0,0:0:0:0:
224,240,28310,1,0,0:0:0:0:
256,248,28402,1,0,0:0:0:0:
288,248,28494,1,0,0:0:0:0:
312,232,28586,1,0,0:0:0:0:
328,208,28678,1,0,0:0:0:0:
344,184,28770,1,0,0:0:0:0:
368,168,28862,1,0,0:0:0:0:
424,96,29229,1,0,0:0:0:0:
240,64,29596,5,0,0:0:0:0:
72,176,29964,1,0,0:0:0:0:
176,312,30331,1,0,0:0:0:0:
344,312,30699,1,0,0:0:0:0:
432,192,31066,1,0,0:0:0:0:
352,80,31433,1,0,0:0:0:0:
256,144,31801,2,0,P|224:184|248:208,3,90.000000298023
264,248,32536,1,0,0:0:0:0:
152,336,32903,5,0,0:0:0:0:
96,272,33087,1,0,0:0:0:0:
172,228,33270,1,0,0:0:0:0:
248,176,33454,1,0,0:0:0:0:
316,132,33638,1,0,0:0:0:0:
432,184,34005,2,0,P|448:208|432:224,8,45.0000001490115
248,128,35107,5,0,0:0:0:0:
80,72,35475,1,0,0:0:0:0:
472,344,36210,1,0,0:0:0:0:
416,296,36393,1,0,0:0:0:0:
344,296,36577,1,0,0:0:0:0:
272,296,36761,1,0,0:0:0:0:
200,296,36944,1,2,0:0:0:0:
476,32,37679,5,0,0:0:0:0:
424,88,37863,1,0,0:0:0:0:
352,88,38047,1,0,0:0:0:0:
280,88,38230,1,0,0:0:0:0:
208,88,38414,1,2,0:0:0:0:
32,192,39149,5,0,0:0:0:0:
96,192,39332,1,0,0:0:0:0:
160,192,39516,1,0,0:0:0:0:
272,192,39884,1,2,0:0:0:0:
304,192,39975,1,0,0:0:0:0:
336,192,40067,1,0,0:0:0:0:
368,192,40159,1,0,0:0:0:0:
400,192,40251,1,2,0:0:0:0:
496,192,40618,5,2,0:0:0:0:
464,192,40710,1,0,0:0:0:0:
432,192,40802,1,0,0:0:0:0:
400,192,40894,1,0,0:0:0:0:
368,192,40986,1,2,0:0:0:0:
184,72,41353,6,0,P|208:112|176:136,1,90.000000298023
88,144,41720,2,0,P|64:192|88:224,1,90.000000298023
192,240,42088,2,0,P|216:280|184:304,1,90.000000298023
88,304,42455,1,0,0:0:0:0:
240,208,42823,5,2,0:0:0:0:
40,120,43190,1,2,0:0:0:0:
200,64,43557,1,2,0:0:0:0:
264,32,43741,1,0,0:0:0:0:
316,84,43925,1,2,0:0:0:0:
464,192,44292,5,2,0:0:0:0:
240,288,45027,1,0,0:0:0:0:
192,232,45211,1,0,0:0:0:0:
144,288,45394,1,0,0:0:0:0:
80,144,45762,2,2,P|80:88|128:72,2,90.000000298023
148,148,46313,1,0,0:0:0:0:
224,160,46497,2,2,P|160:168|144:136,2,90.000000298023
256,192,47231,12,0,49620,0:0:0:0:
96,80,50171,5,0,0:0:0:0:
176,80,50354,1,0,0:0:0:0:
256,80,50538,1,0,0:0:0:0:
336,80,50722,2,0,P|392:32|448:112,1,180.000000596046
440,240,51457,5,0,0:0:0:0:
424,312,51640,1,0,0:0:0:0:
352,296,51824,1,0,0:0:0:0:
176,296,52191,1,0,0:0:0:0:
112,256,52375,1,0,0:0:0:0:
48,296,52559,1,0,0:0:0:0:
152,64,53110,5,0,0:0:0:0:
248,112,53294,1,0,0:0:0:0:
152,176,53477,1,0,0:0:0:0:
248,224,53661,1,0,0:0:0:0:
400,176,54028,1,0,0:0:0:0:
376,272,54212,1,0,0:0:0:0:
248,320,54579,6,0,L|160:232,1,90.000000298023
176,320,54947,2,0,L|256:232,1,90.000000298023
168,168,55498,1,0,0:0:0:0:
440,64,56049,5,0,0:0:0:0:
384,104,56233,1,0,0:0:0:0:
328,144,56416,1,0,0:0:0:0:
296,96,56600,2,0,P|288:176|384:168,1,180.000000596046
248,40,57335,5,0,0:0:0:0:
200,80,57519,1,0,0:0:0:0:
152,120,57703,1,0,0:0:0:0:
112,160,57886,1,0,0:0:0:0:
72,192,58070,2,0,L|232:48,1,180.000000596046
456,336,58988,5,0,0:0:0:0:
432,312,59080,1,0,0:0:0:0:
408,288,59172,1,0,0:0:0:0:
376,280,59264,1,0,0:0:0:0:
344,280,59356,1,0,0:0:0:0:
312,280,59447,1,0,0:0:0:0:
280,264,59539,1,0,0:0:0:0:
144,336,59907,5,0,0:0:0:0:
144,272,60090,1,0,0:0:0:0:
168,208,60274,1,0,0:0:0:0:
200,152,60458,2,0,P|256:136|184:112,1,180.000000596046
144,72,61009,1,0,0:0:0:0:
56,192,61376,1,0,0:0:0:0:
72,328,61744,2,4,L|128:328,2,55.0000001490115
224,224,62662,5,2,0:0:0:0:
200,168,62846,1,0,0:0:0:0:
248,128,63030,1,2,0:0:0:0:
296,168,63213,1,0,0:0:0:0:
288,224,63397,1,2,0:0:0:0:
256,176,63764,5,0,0:0:0:0:
56,48,64132,2,2,L|200:136,1,116.999995031595
256,176,64499,1,2,0:0:0:0:
368,240,64867,1,0,0:0:0:0:
368,296,65050,1,0,0:0:0:0:
256,312,65418,1,0,0:0:0:0:
200,312,65601,1,2,0:0:0:0:
208,208,65969,6,0,P|160:136|224:176,1,233.99999006319
256,48,66704,1,2,0:0:0:0:
320,48,66887,1,2,0:0:0:0:
384,48,67071,2,0,B|440:96|440:96|384:48|384:48|480:128|480:128,1,233.99999006319
96,96,67806,5,0,0:0:0:0:
200,296,68173,1,0,0:0:0:0:
312,112,68541,1,2,0:0:0:0:
408,288,68908,1,0,0:0:0:0:
496,112,69275,1,2,0:0:0:0:
312,112,69643,5,0,0:0:0:0:
184,200,70010,1,2,0:0:0:0:
320,288,70378,1,0,0:0:0:0:
184,328,70745,1,0,0:0:0:0:
56,128,71480,5,0,0:0:0:0:
120,88,71663,1,0,0:0:0:0:
184,128,71847,1,0,0:0:0:0:
296,232,72215,5,2,0:0:0:0:
352,280,72398,1,0,0:0:0:0:
408,232,72582,1,2,0:0:0:0:
236,116,72949,2,0,B|160:116|160:248|240:248|324:248|320:128|216:128|216:216|216:216,1,233.99999006319
240,176,73684,1,4,0:0:0:0:
256,192,77358,12,0,79195,0:0:0:0:
424,252,79563,5,0,0:0:0:0:
336,328,79930,1,0,0:0:0:0:
216,328,80297,1,0,0:0:0:0:
112,272,80665,1,0,0:0:0:0:
96,160,81032,1,0,0:0:0:0:
160,72,81399,1,0,0:0:0:0:
256,48,81767,1,0,0:0:0:0:
360,64,82134,1,0,0:0:0:0:
440,132,82502,5,0,0:0:0:0:
456,192,82685,1,0,0:0:0:0:
448,248,82869,1,0,0:0:0:0:
424,304,83053,1,0,0:0:0:0:
376,336,83236,1,0,0:0:0:0:
256,344,83604,1,0,0:0:0:0:
144,336,83972,5,0,0:0:0:0:
112,328,84063,1,0,0:0:0:0:
88,312,84155,1,0,0:0:0:0:
64,288,84247,1,0,0:0:0:0:
56,256,84339,1,0,0:0:0:0:
56,184,84522,1,0,0:0:0:0:
72,112,84706,5,0,0:0:0:0:
88,88,84798,1,0,0:0:0:0:
120,64,84889,1,0,0:0:0:0:
152,56,84981,1,0,0:0:0:0:
184,56,85073,1,0,0:0:0:0:
400,96,85441,5,0,0:0:0:0:
496,144,85625,1,0,0:0:0:0:
400,192,85808,1,0,0:0:0:0:
496,240,85992,1,0,0:0:0:0:
400,280,86176,1,0,0:0:0:0:
256,296,86543,1,0,0:0:0:0:
128,280,86910,5,0,0:0:0:0:
40,248,87094,1,0,0:0:0:0:
128,192,87278,1,0,0:0:0:0:
40,136,87462,1,0,0:0:0:0:
128,96,87645,1,0,0:0:0:0:
256,80,88013,1,0,0:0:0:0:
400,96,88380,6,0,P|464:152|400:208,1,180.000000596046
296,208,89115,1,0,0:0:0:0:
296,208,89299,1,0,0:0:0:0:
296,208,89482,1,0,0:0:0:0:
192,208,89850,2,0,P|128:264|200:312,1,180.000000596046
288,320,90584,1,0,0:0:0:0:
288,320,90768,1,0,0:0:0:0:
288,320,90952,1,0,0:0:0:0:
472,240,91319,6,0,P|432:256|384:232,1,90.000000298023
344,160,91687,2,0,P|296:144|264:168,1,90.000000298023
232,240,92054,2,0,P|176:256|144:224,1,90.000000298023
140,160,92421,1,0,0:0:0:0:
140,56,92789,5,0,0:0:0:0:
140,160,92973,1,0,0:0:0:0:
240,120,93156,2,0,L|240:232,1,90.000000298023
328,176,93524,1,0,0:0:0:0:
328,264,93707,1,0,0:0:0:0:
408,224,93891,1,0,0:0:0:0:
232,304,94258,6,0,L|104:304,1,90.000000298023
200,192,94626,2,0,L|320:192,1,90.000000298023
376,80,94993,2,0,L|248:80,2,90.000000298023
112,64,95728,5,0,0:0:0:0:
152,128,95912,1,0,0:0:0:0:
104,184,96095,2,0,B|200:248|200:248|288:192,1,180.000000596046
304,256,96647,1,0,0:0:0:0:
360,296,96830,1,0,0:0:0:0:
256,56,97198,6,0,L|256:344,1,233.99999006319
160,256,97932,1,0,0:0:0:0:
248,256,98116,1,0,0:0:0:0:
336,256,98300,1,0,0:0:0:0:
336,112,98667,6,0,L|112:296,1,233.99999006319
152,120,99402,1,0,0:0:0:0:
216,176,99586,1,0,0:0:0:0:
280,232,99769,1,0,0:0:0:0:
396,324,100137,6,0,L|176:144,1,233.99999006319
216,296,100872,1,0,0:0:0:0:
280,232,101055,1,0,0:0:0:0:
344,168,101239,1,0,0:0:0:0:
184,128,101606,5,2,0:0:0:0:
104,192,101790,1,0,0:0:0:0:
184,240,101974,1,2,0:0:0:0:
256,192,102157,1,0,0:0:0:0:
320,128,102341,1,2,0:0:0:0:
400,192,102525,1,0,0:0:0:0:
320,248,102709,1,2,0:0:0:0:
80,312,103076,5,0,0:0:0:0:
112,320,103168,1,0,0:0:0:0:
144,328,103260,1,0,0:0:0:0:
176,328,103352,1,0,0:0:0:0:
208,320,103443,1,0,0:0:0:0:
160,192,103811,5,0,0:0:0:0:
184,168,103903,1,0,0:0:0:0:
208,152,103994,1,0,0:0:0:0:
240,144,104086,1,0,0:0:0:0:
272,160,104178,1,0,0:0:0:0:
320,280,104546,5,0,0:0:0:0:
352,280,104637,1,0,0:0:0:0:
376,264,104729,1,0,0:0:0:0:
400,240,104821,1,0,0:0:0:0:
400,208,104913,1,0,0:0:0:0:
304,72,105280,5,0,0:0:0:0:
208,152,105464,1,2,0:0:0:0:
304,200,105648,1,0,0:0:0:0:
208,256,105831,1,2,0:0:0:0:
304,312,106015,1,0,0:0:0:0:
384,96,106383,6,0,P|440:112|448:176,1,116.999995031595
360,200,106750,2,0,P|336:144|264:160,1,116.999995031595
264,232,107117,2,2,L|136:336,2,116.999995031595
168,112,107852,5,0,0:0:0:0:
352,264,108036,1,0,0:0:0:0:
256,192,108220,1,2,0:0:0:0:
256,192,108587,1,0,0:0:0:0:
96,240,108954,6,0,P|144:312|160:256,1,180.000000596046
160,208,109505,2,0,P|208:152|192:216,1,180.000000596046
180,336,110240,1,0,0:0:0:0:
248,256,110424,1,0,0:0:0:0:
312,336,110608,1,0,0:0:0:0:
376,256,110791,1,0,0:0:0:0:
448,336,110975,2,0,P|488:232|424:176,1,180.000000596046
160,96,111710,5,0,0:0:0:0:
264,176,111893,1,0,0:0:0:0:
160,96,112077,1,0,0:0:0:0:
160,200,112261,1,0,0:0:0:0:
256,264,112444,1,0,0:0:0:0:
160,96,112812,1,0,0:0:0:0:
312,72,113179,5,0,0:0:0:0:
416,72,113363,1,0,0:0:0:0:
416,176,113547,1,0,0:0:0:0:
416,280,113731,1,0,0:0:0:0:
312,176,113914,1,0,0:0:0:0:
120,72,114282,5,0,0:0:0:0:
64,136,114465,1,0,0:0:0:0:
176,136,114649,1,0,0:0:0:0:
120,192,114833,1,0,0:0:0:0:
120,272,115016,5,0,0:0:0:0:
144,288,115108,1,0,0:0:0:0:
168,304,115200,1,0,0:0:0:0:
248,320,115384,1,0,0:0:0:0:
384,288,115751,5,0,0:0:0:0:
396,256,115843,1,0,0:0:0:0:
384,232,115935,1,0,0:0:0:0:
332,172,116119,1,0,0:0:0:0:
412,168,116302,5,0,0:0:0:0:
368,96,116486,1,0,0:0:0:0:
352,72,116578,1,0,0:0:0:0:
328,60,116670,1,0,0:0:0:0:
252,52,116853,1,0,0:0:0:0:
136,92,117221,5,0,0:0:0:0:
108,112,117313,1,0,0:0:0:0:
96,136,117405,1,0,0:0:0:0:
64,212,117588,1,0,0:0:0:0:
104,292,117772,5,0,0:0:0:0:
160,212,117956,1,0,0:0:0:0:
268,212,118139,1,0,0:0:0:0:
212,292,118323,1,0,0:0:0:0:
320,128,118690,5,0,0:0:0:0:
400,128,118874,1,0,0:0:0:0:
440,56,119058,1,0,0:0:0:0:
360,56,119242,1,0,0:0:0:0:
184,112,119609,6,0,P|136:144|136:176,1,90.000000298023
216,352,120160,2,0,L|320:272,1,90.000000298023
320,352,120527,2,0,L|216:272,1,90.000000298023
218,229,120895,2,0,L|312:152,1,90.000000298023
208,96,121262,1,0,0:0:0:0:
400,192,121630,6,0,L|288:192,1,90.000000298023
112,192,121997,2,0,L|224:192,1,90.000000298023
256,88,122548,1,0,0:0:0:0:
256,288,122732,1,0,0:0:0:0:
320,192,123099,5,0,0:0:0:0:
192,192,123283,1,0,0:0:0:0:
256,168,123467,2,4,L|256:232,2,45.0000001490115
