osu file format v12

[General]
AudioFilename: perfect dark- deep sea (combat).mp3
AudioLeadIn: 0
PreviewTime: 61927
Countdown: 2
SampleSet: Soft
StackLeniency: 0.7
Mode: 0
LetterboxInBreaks: 0

[Editor]
DistanceSpacing: 1
BeatDivisor: 4
GridSize: 8

[Metadata]
Title:Deep Sea Nullify Threat (Escape Version)
TitleUnicode:Deep Sea Nullify Threat (Escape Version)
Artist:Grant Kirkhope
ArtistUnicode:Grant Kirkhope
Creator:agentdark1706
Version:Dark Agent
Source:Perfect Dark
Tags:
BeatmapID:257337
BeatmapSetID:95916

[Difficulty]
HPDrainRate:5
CircleSize:4
OverallDifficulty:5
ApproachRate:9
SliderMultiplier:2.20000000596046
SliderTickRate:2

[Events]
//Background and Video events
0,0,"PerfectDark-5.png",0,0
//Break Periods
2,73884,76023
//Storyboard Layer 0 (Background)
//Storyboard Layer 1 (Fail)
//Storyboard Layer 2 (Pass)
//Storyboard Layer 3 (Foreground)
//Storyboard Sound Samples
//Background Colour Transformations
3,100,163,162,255

[TimingPoints]
205,367.398159509202,4,1,0,40,1,0
35475,-100,4,2,1,55,0,1
47231,-100,4,1,0,40,0,0
61927,-66.6666666666667,4,2,1,55,0,1
73684,-100,4,1,0,40,0,0
97198,-66.6666666666667,4,2,1,55,0,1
108954,-100,4,1,0,40,0,0

[Colours]
Combo1 : 255,150,0
Combo2 : 5,240,5
Combo3 : 0,255,255
Combo4 : 240,5,5
Combo5 : 128,0,255

[HitObjects]
64,48,6083,1,0,0:0:0:0:
440,336,6450,1,0,0:0:0:0:
352,280,6633,1,0,0:0:0:0:
264,216,6818,1,0,0:0:0:0:
416,64,7185,5,0,0:0:0:0:
400,80,7277,1,0,0:0:0:0:
384,96,7369,1,0,0:0:0:0:
368,112,7461,1,0,0:0:0:0:
352,128,7553,1,0,0:0:0:0:
64,296,7920,5,0,0:0:0:0:
80,312,8012,1,0,0:0:0:0:
96,328,8104,2,0,P|160:336|184:280,1,110.000000298023
160,192,8471,5,0,0:0:0:0:
176,160,8563,1,0,0:0:0:0:
200,144,8655,1,0,0:0:0:0:
232,136,8747,1,0,0:0:0:0:
264,136,8838,1,0,0:0:0:0:
368,128,9022,6,0,P|408:144|368:168,1,110.000000298023
160,208,9389,2,0,P|120:224|160:240,1,110.000000298023
304,312,9757,2,0,P|344:344|384:288,1,110.000000298023
368,128,10124,1,0,0:0:0:0:
192,64,10308,1,0,0:0:0:0:
80,170,10492,5,0,0:0:0:0:
112,272,10675,1,0,0:0:0:0:
232,192,10859,1,0,0:0:0:0:
256,280,11043,1,0,0:0:0:0:
384,192,11226,5,0,0:0:0:0:
135,113,11409,1,0,0:0:0:0:
304,48,11593,1,0,0:0:0:0:
184,256,11777,1,0,0:0:0:0:
143,136,11961,6,0,P|144:88|205:96,2,110.000000298023
256,193,12512,1,0,0:0:0:0:
378,256,12696,2,0,P|384:301|332:306,2,110.000000298023
228,282,13247,1,0,0:0:0:0:
79,339,13431,5,0,0:0:0:0:
81,305,13523,1,0,0:0:0:0:
89,266,13615,1,0,0:0:0:0:
104,233,13706,1,0,0:0:0:0:
119,207,13798,1,0,0:0:0:0:
274,282,13982,5,0,0:0:0:0:
442,349,14166,1,0,0:0:0:0:
435,312,14257,1,0,0:0:0:0:
424,283,14349,1,0,0:0:0:0:
413,250,14441,1,0,0:0:0:0:
398,223,14533,1,0,0:0:0:0:
256,167,14717,5,0,0:0:0:0:
76,48,14900,2,0,P|127:73|127:133,1,110.000000298023
453,54,15268,2,0,P|405:74|400:133,1,110.000000298023
255,273,15635,1,0,0:0:0:0:
104,192,15819,1,0,0:0:0:0:
392,192,16003,1,0,0:0:0:0:
253,98,16186,1,0,0:0:0:0:
264,232,16370,5,0,0:0:0:0:
280,200,16462,1,0,0:0:0:0:
256,176,16554,1,0,0:0:0:0:
272,152,16646,1,0,0:0:0:0:
256,120,16737,1,0,0:0:0:0:
352,192,17105,5,0,0:0:0:0:
376,208,17197,1,0,0:0:0:0:
408,192,17289,1,0,0:0:0:0:
432,216,17380,1,0,0:0:0:0:
464,192,17472,1,0,0:0:0:0:
112,304,17840,6,0,L|112:184,3,110.000000298023
208,48,18574,1,0,0:0:0:0:
352,152,18758,1,0,0:0:0:0:
184,200,18942,1,0,0:0:0:0:
312,320,19309,5,0,0:0:0:0:
280,312,19401,1,0,0:0:0:0:
256,320,19493,1,0,0:0:0:0:
224,312,19585,1,0,0:0:0:0:
200,320,19677,2,0,P|160:272|192:232,3,110.000000298023
256,192,20411,1,0,0:0:0:0:
352,120,20595,1,0,0:0:0:0:
80,88,20779,5,0,0:0:0:0:
96,104,20871,1,0,0:0:0:0:
112,120,20962,1,0,0:0:0:0:
128,136,21054,1,0,0:0:0:0:
144,152,21146,1,0,0:0:0:0:
360,312,21330,5,0,0:0:0:0:
392,88,21514,1,0,0:0:0:0:
376,104,21605,1,0,0:0:0:0:
360,120,21697,1,0,0:0:0:0:
344,136,21789,1,0,0:0:0:0:
328,152,21881,1,0,0:0:0:0:
152,304,22065,5,0,0:0:0:0:
392,216,22248,1,0,0:0:0:0:
152,192,22432,1,0,0:0:0:0:
392,128,22616,1,0,0:0:0:0:
152,88,22799,1,0,0:0:0:0:
256,240,22983,2,0,L|256:160,3,55.0000001490115
256,128,23351,5,0,0:0:0:0:
88,56,23534,1,0,0:0:0:0:
408,56,23718,1,0,0:0:0:0:
112,336,24085,5,0,0:0:0:0:
56,184,24269,1,0,0:0:0:0:
240,240,24453,1,0,0:0:0:0:
184,96,24636,1,0,0:0:0:0:
160,240,24820,1,0,0:0:0:0:
176,280,24912,1,0,0:0:0:0:
208,296,25004,1,0,0:0:0:0:
368,304,25188,5,0,0:0:0:0:
368,136,25371,1,0,0:0:0:0:
368,304,25555,1,0,0:0:0:0:
176,312,25739,1,0,0:0:0:0:
80,224,25922,1,0,0:0:0:0:
80,184,26014,1,0,0:0:0:0:
112,160,26106,1,0,0:0:0:0:
216,112,26290,5,0,0:0:0:0:
256,240,26473,1,0,0:0:0:0:
72,312,26657,6,0,L|192:312,1,110.000000298023
448,96,27025,2,0,L|312:96,1,110.000000298023
104,104,27392,5,0,0:0:0:0:
136,104,27484,1,0,0:0:0:0:
176,104,27576,1,0,0:0:0:0:
400,296,27759,1,0,0:0:0:0:
360,296,27851,1,0,0:0:0:0:
320,296,27943,1,0,0:0:0:0:
136,192,28127,5,0,0:0:0:0:
368,192,28310,1,0,0:0:0:0:
208,280,28494,1,0,0:0:0:0:
320,104,28678,1,0,0:0:0:0:
296,280,28862,1,0,0:0:0:0:
208,104,29045,1,0,0:0:0:0:
256,192,29229,1,0,0:0:0:0:
464,256,29596,6,0,P|424:288|384:248,1,110.000000298023
96,208,29964,2,0,P|144:176|176:216,1,110.000000298023
320,272,30331,2,0,P|280:304|240:272,1,110.000000298023
192,112,30699,2,0,P|232:80|272:112,1,110.000000298023
392,56,31066,5,0,0:0:0:0:
144,96,31250,1,0,0:0:0:0:
392,176,31433,1,0,0:0:0:0:
144,232,31617,1,0,0:0:0:0:
392,296,31801,1,0,0:0:0:0:
144,344,31984,1,0,0:0:0:0:
256,304,32168,2,0,L|256:80,1,220.000000596046
144,344,32903,5,0,0:0:0:0:
392,296,33087,1,0,0:0:0:0:
144,232,33270,1,0,0:0:0:0:
392,176,33454,1,0,0:0:0:0:
144,96,33638,1,0,0:0:0:0:
392,48,34005,5,0,0:0:0:0:
392,80,34097,1,0,0:0:0:0:
392,112,34189,1,0,0:0:0:0:
144,96,34373,5,0,0:0:0:0:
144,128,34464,1,0,0:0:0:0:
144,160,34556,1,0,0:0:0:0:
392,184,34740,5,0,0:0:0:0:
392,208,34832,1,0,0:0:0:0:
392,232,34924,1,0,0:0:0:0:
144,248,35107,1,0,0:0:0:0:
392,312,35475,5,0,0:0:0:0:
144,248,35658,1,0,0:0:0:0:
144,96,35842,1,2,0:0:0:0:
392,224,36210,1,0,0:0:0:0:
392,192,36301,1,0,0:0:0:0:
392,152,36393,1,0,0:0:0:0:
144,248,36577,6,2,L|280:248,2,110.000000298023
352,136,37128,1,0,0:0:0:0:
360,328,37312,1,0,0:0:0:0:
248,248,37495,1,0,0:0:0:0:
248,248,37679,2,2,L|136:248,1,110.000000298023
312,248,38047,2,2,L|424:248,1,110.000000298023
224,128,38414,5,0,0:0:0:0:
256,128,38506,1,0,0:0:0:0:
296,128,38598,1,0,0:0:0:0:
264,240,38781,1,2,0:0:0:0:
384,32,39149,6,0,L|384:160,1,110.000000298023
136,312,39516,2,0,L|136:176,1,110.000000298023
376,304,39884,1,0,0:0:0:0:
264,192,40067,1,0,0:0:0:0:
144,80,40251,1,2,0:0:0:0:
296,192,40526,2,0,L|216:192,3,55.0000001490115
464,192,40986,1,2,0:0:0:0:
64,312,41353,5,4,0:0:0:0:
344,64,42088,1,0,0:0:0:0:
360,96,42180,1,0,0:0:0:0:
344,120,42272,1,0,0:0:0:0:
344,216,42455,6,2,L|392:264,1,55.0000001490115
384,256,42639,2,0,L|304:344,1,110.000000298023
96,160,43190,1,2,0:0:0:0:
120,280,43557,6,0,L|80:320,2,55.0000001490115
160,192,43925,1,0,0:0:0:0:
128,176,44017,1,0,0:0:0:0:
96,160,44109,1,0,0:0:0:0:
40,136,44200,2,0,L|104:160,1,55.0000001490115
488,32,44660,5,2,0:0:0:0:
368,128,44843,1,0,0:0:0:0:
456,248,45027,1,0,0:0:0:0:
408,288,45119,1,0,0:0:0:0:
352,304,45211,1,0,0:0:0:0:
216,312,45394,1,0,0:0:0:0:
160,296,45486,1,0,0:0:0:0:
112,264,45578,1,0,0:0:0:0:
104,160,45762,5,2,0:0:0:0:
120,144,45854,1,0,0:0:0:0:
136,128,45946,1,0,0:0:0:0:
216,80,46129,5,2,0:0:0:0:
232,96,46221,1,0,0:0:0:0:
248,112,46313,1,0,0:0:0:0:
336,152,46497,6,2,L|456:152,2,110.000000298023
256,288,47231,5,0,0:0:0:0:
256,192,47415,1,0,0:0:0:0:
160,136,47599,1,0,0:0:0:0:
256,192,47783,1,0,0:0:0:0:
392,104,48150,1,0,0:0:0:0:
64,56,48517,5,0,0:0:0:0:
112,88,48609,1,0,0:0:0:0:
160,120,48701,1,0,0:0:0:0:
256,192,48885,1,0,0:0:0:0:
424,280,49068,1,2,0:0:0:0:
256,304,49252,5,0,0:0:0:0:
256,240,49344,1,0,0:0:0:0:
256,184,49436,1,0,0:0:0:0:
256,72,49620,1,0,0:0:0:0:
256,184,49803,1,2,0:0:0:0:
48,96,50171,5,0,0:0:0:0:
96,272,50354,1,0,0:0:0:0:
200,96,50538,1,0,0:0:0:0:
264,272,50722,1,0,0:0:0:0:
512,192,51089,1,0,0:0:0:0:
408,192,51273,5,0,0:0:0:0:
296,192,51457,1,0,0:0:0:0:
192,192,51640,1,0,0:0:0:0:
152,48,52008,5,0,0:0:0:0:
152,192,52191,1,0,0:0:0:0:
344,304,52559,1,0,0:0:0:0:
464,304,52742,1,0,0:0:0:0:
428,108,53110,5,0,0:0:0:0:
388,80,53202,1,0,0:0:0:0:
348,60,53294,1,0,0:0:0:0:
300,48,53385,1,0,0:0:0:0:
248,44,53477,1,0,0:0:0:0:
200,48,53569,1,0,0:0:0:0:
160,64,53661,1,0,0:0:0:0:
128,84,53753,1,0,0:0:0:0:
104,112,53845,1,0,0:0:0:0:
256,196,54212,5,0,0:0:0:0:
108,260,54579,1,0,0:0:0:0:
132,292,54671,1,0,0:0:0:0:
176,312,54763,1,0,0:0:0:0:
216,320,54855,1,0,0:0:0:0:
256,324,54947,1,0,0:0:0:0:
296,320,55039,1,0,0:0:0:0:
340,312,55131,1,0,0:0:0:0:
376,284,55222,1,0,0:0:0:0:
404,256,55314,1,0,0:0:0:0:
256,196,55682,5,0,0:0:0:0:
120,64,56049,1,0,0:0:0:0:
96,80,56141,1,0,0:0:0:0:
104,96,56233,1,0,0:0:0:0:
144,168,56416,5,0,0:0:0:0:
160,184,56508,1,0,0:0:0:0:
176,176,56600,1,0,0:0:0:0:
248,80,56784,6,0,P|312:56|352:96,1,110.000000298023
344,280,57151,2,0,P|312:304|248:280,1,110.000000298023
440,144,57519,2,0,P|472:184|424:224,1,110.000000298023
288,192,57886,1,0,0:0:0:0:
176,224,58070,2,0,P|144:176|184:144,1,110.000000298023
256,280,58437,2,0,P|320:304|352:264,1,110.000000298023
440,216,58805,5,0,0:0:0:0:
176,272,59356,2,0,P|171:326|227:334,1,110.000000298023
323,190,59723,2,0,P|331:142|272:128,1,110.000000298023
152,192,60090,2,0,P|141:250|184:272,1,110.000000298023
280,120,60458,2,0,P|274:59|224:48,1,110.000000298023
64,152,61009,5,0,0:0:0:0:
96,128,61101,1,0,0:0:0:0:
128,144,61193,1,0,0:0:0:0:
272,208,61376,1,0,0:0:0:0:
304,216,61468,1,0,0:0:0:0:
320,248,61560,1,0,0:0:0:0:
256,72,61927,5,0,0:0:0:0:
256,304,62111,1,0,0:0:0:0:
136,192,62295,1,0,0:0:0:0:
352,192,62478,1,0,0:0:0:0:
192,128,62662,5,2,0:0:0:0:
312,256,62846,1,0,0:0:0:0:
312,128,63030,1,2,0:0:0:0:
192,256,63213,1,0,0:0:0:0:
224,160,63397,6,0,L|80:56,1,165.000006741285
288,224,63764,2,0,L|432:320,1,165.000006741285
240,328,64132,1,2,0:0:0:0:
224,224,64315,5,2,0:0:0:0:
256,208,64407,1,0,0:0:0:0:
288,192,64499,1,0,0:0:0:0:
392,120,64683,1,0,0:0:0:0:
256,88,64867,5,2,0:0:0:0:
104,120,65050,1,0,0:0:0:0:
88,160,65142,1,0,0:0:0:0:
104,192,65234,1,2,0:0:0:0:
256,248,65418,1,0,0:0:0:0:
152,160,65601,5,2,0:0:0:0:
352,160,65785,1,0,0:0:0:0:
256,304,65969,1,2,0:0:0:0:
136,72,66336,5,0,0:0:0:0:
168,104,66428,1,0,0:0:0:0:
192,128,66520,1,0,0:0:0:0:
368,72,66704,1,0,0:0:0:0:
336,104,66795,1,0,0:0:0:0:
304,128,66887,1,0,0:0:0:0:
256,240,67071,5,2,0:0:0:0:
104,344,67255,1,0,0:0:0:0:
392,344,67438,1,2,0:0:0:0:
256,240,67622,1,0,0:0:0:0:
256,80,67806,1,4,0:0:0:0:
112,328,68541,6,2,L|168:248,1,82.5000033706426
160,264,68724,2,0,L|224:320,1,82.5000033706426
232,320,68908,1,0,0:0:0:0:
424,288,69092,5,0,0:0:0:0:
408,264,69184,1,0,0:0:0:0:
384,240,69275,1,2,0:0:0:0:
312,160,69459,1,0,0:0:0:0:
40,144,69643,6,0,L|88:64,2,82.5000033706426
40,192,69918,1,2,0:0:0:0:
56,232,70010,2,0,L|128:80,1,165.000006741285
216,232,70378,1,2,0:0:0:0:
312,88,70561,1,0,0:0:0:0:
216,232,70745,5,2,0:0:0:0:
208,248,70837,1,0,0:0:0:0:
208,264,70929,1,0,0:0:0:0:
216,280,71020,1,0,0:0:0:0:
224,288,71112,1,2,0:0:0:0:
408,200,71480,6,2,P|384:136|288:128,1,165.000006741285
120,96,71847,2,2,P|128:160|224:184,1,165.000006741285
296,240,72215,1,2,0:0:0:0:
312,256,72306,1,0,0:0:0:0:
328,272,72398,1,0,0:0:0:0:
77,352,72766,6,2,L|152:304,1,82.5000033706426
160,296,72949,1,0,0:0:0:0:
72,232,73133,1,0,0:0:0:0:
96,224,73225,1,0,0:0:0:0:
120,208,73317,1,6,0:0:0:0:
256,144,73684,1,4,0:0:0:0:
256,192,76623,12,0,79195,0:0:0:0:
464,48,79563,5,0,0:0:0:0:
104,304,79930,1,0,0:0:0:0:
184,240,80114,1,0,0:0:0:0:
256,176,80297,1,0,0:0:0:0:
448,336,80665,5,0,0:0:0:0:
424,304,80757,1,0,0:0:0:0:
400,272,80848,1,0,0:0:0:0:
376,248,80940,1,0,0:0:0:0:
352,224,81032,1,0,0:0:0:0:
352,32,81399,6,0,L|352:160,1,110.000000298023
224,96,81767,1,0,0:0:0:0:
224,240,81951,1,0,0:0:0:0:
96,168,82134,2,0,L|96:280,1,110.000000298023
224,96,82502,1,0,0:0:0:0:
112,280,82869,1,0,0:0:0:0:
352,336,83236,5,0,0:0:0:0:
432,192,83420,1,0,0:0:0:0:
352,336,83604,1,0,0:0:0:0:
328,168,83788,1,0,0:0:0:0:
352,336,83971,1,0,0:0:0:0:
224,224,84155,1,0,0:0:0:0:
352,336,84339,5,0,0:0:0:0:
192,328,84522,1,0,0:0:0:0:
40,240,84706,1,0,0:0:0:0:
136,160,84890,1,0,0:0:0:0:
112,144,84982,1,0,0:0:0:0:
112,112,85073,1,0,0:0:0:0:
464,80,85441,5,0,0:0:0:0:
288,200,85625,2,0,L|384:128,2,110.000000298023
160,160,86176,1,0,0:0:0:0:
144,288,86359,2,0,L|80:328,2,55.0000001490115
272,312,86727,1,0,0:0:0:0:
400,256,86910,5,0,0:0:0:0:
264,88,87094,1,0,0:0:0:0:
144,264,87278,1,0,0:0:0:0:
264,88,87462,1,0,0:0:0:0:
400,256,87645,1,0,0:0:0:0:
264,200,87829,1,0,0:0:0:0:
264,200,87921,1,0,0:0:0:0:
264,200,88013,1,0,0:0:0:0:
128,64,88196,5,0,0:0:0:0:
360,64,88380,2,0,P|432:80|448:120,1,110.000000298023
216,152,88747,2,0,P|200:200|240:240,1,110.000000298023
88,288,89115,1,0,0:0:0:0:
216,152,89299,1,0,0:0:0:0:
352,256,89482,1,0,0:0:0:0:
56,48,89850,5,0,0:0:0:0:
80,80,89942,1,0,0:0:0:0:
104,104,90033,1,0,0:0:0:0:
184,224,90217,2,0,L|80:296,1,110.000000298023
184,336,90584,1,0,0:0:0:0:
264,280,90768,2,0,L|304:216,2,55.0000001490115
384,72,91319,5,0,0:0:0:0:
360,64,91411,1,0,0:0:0:0:
240,96,91595,1,0,0:0:0:0:
224,80,91687,1,0,0:0:0:0:
112,104,91870,1,0,0:0:0:0:
72,112,91962,1,0,0:0:0:0:
48,136,92054,2,0,L|144:208,3,110.000000298023
344,208,92789,5,0,0:0:0:0:
368,224,92881,1,0,0:0:0:0:
272,248,93064,1,0,0:0:0:0:
248,232,93156,1,0,0:0:0:0:
144,208,93340,2,0,L|232:128,1,110.000000298023
64,56,93707,1,0,0:0:0:0:
88,80,93799,1,0,0:0:0:0:
112,104,93891,1,0,0:0:0:0:
400,64,94258,5,0,0:0:0:0:
368,88,94350,1,0,0:0:0:0:
336,104,94442,1,0,0:0:0:0:
392,288,94626,1,0,0:0:0:0:
360,264,94718,1,0,0:0:0:0:
328,240,94810,1,0,0:0:0:0:
192,192,94993,6,0,L|137:192,3,55.0000001490115
80,192,95361,1,0,0:0:0:0:
352,272,95728,1,0,0:0:0:0:
328,256,95820,1,0,0:0:0:0:
304,240,95912,1,0,0:0:0:0:
168,112,96095,5,0,0:0:0:0:
192,136,96187,1,0,0:0:0:0:
216,160,96279,1,0,0:0:0:0:
208,240,96463,2,0,L|120:344,1,110.000000298023
304,136,96830,2,0,L|384:40,1,110.000000298023
256,192,97198,5,0,0:0:0:0:
80,264,97932,1,0,0:0:0:0:
256,328,98116,1,0,0:0:0:0:
224,152,98300,1,0,0:0:0:0:
400,208,98484,1,0,0:0:0:0:
360,80,98667,1,2,0:0:0:0:
240,48,98851,5,0,0:0:0:0:
192,56,98943,1,0,0:0:0:0:
144,80,99035,1,0,0:0:0:0:
40,136,99218,1,0,0:0:0:0:
132,240,99402,2,2,P|204:240|188:328,1,165.000006741285
384,240,99769,2,2,P|296:256|320:328,1,165.000006741285
256,200,100137,6,0,L|256:35,2,165.000006741285
144,200,100688,1,0,0:0:0:0:
96,200,100780,1,0,0:0:0:0:
48,200,100872,1,0,0:0:0:0:
368,200,101055,1,0,0:0:0:0:
416,200,101147,1,0,0:0:0:0:
456,200,101239,1,0,0:0:0:0:
240,24,101423,6,0,L|240:200,1,165.000006741285
240,360,101790,2,0,L|240:192,1,165.000006741285
128,208,102157,1,2,0:0:0:0:
112,248,102249,1,0,0:0:0:0:
96,288,102341,1,0,0:0:0:0:
352,176,102525,5,2,0:0:0:0:
368,136,102617,1,0,0:0:0:0:
392,96,102709,1,0,0:0:0:0:
448,200,102892,1,4,0:0:0:0:
328,200,103076,38,2,L|152:200,1,165.000006741285
64,136,103443,1,0,0:0:0:0:
232,104,103627,1,0,0:0:0:0:
384,80,103811,6,2,P|424:112|392:208,1,165.000006741285
192,136,104178,2,2,P|144:200|200:256,1,165.000006741285
64,328,104546,1,0,0:0:0:0:
224,328,104729,1,0,0:0:0:0:
384,328,104913,1,0,0:0:0:0:
472,216,105097,1,0,0:0:0:0:
448,48,105280,5,2,0:0:0:0:
432,56,105372,1,0,0:0:0:0:
416,56,105464,1,0,0:0:0:0:
320,64,105648,5,0,0:0:0:0:
152,112,105831,1,0,0:0:0:0:
256,176,106015,1,0,0:0:0:0:
256,208,106107,1,2,0:0:0:0:
256,240,106199,1,0,0:0:0:0:
160,208,106383,1,6,0:0:0:0:
408,312,106750,5,0,0:0:0:0:
248,312,106934,1,0,0:0:0:0:
408,312,107117,1,2,0:0:0:0:
408,144,107301,1,0,0:0:0:0:
320,64,107485,6,0,L|224:64,2,82.5000033706426
256,168,107852,1,2,0:0:0:0:
192,264,108036,2,0,L|120:216,2,82.5000033706426
64,64,108587,1,6,0:0:0:0:
464,320,108954,5,0,0:0:0:0:
360,272,109138,1,0,0:0:0:0:
224,272,109322,1,0,0:0:0:0:
96,272,109505,1,0,0:0:0:0:
360,160,109873,1,0,0:0:0:0:
400,136,109965,1,0,0:0:0:0:
424,112,110057,1,0,0:0:0:0:
456,32,110240,5,0,0:0:0:0:
348,56,110424,1,0,0:0:0:0:
224,56,110608,1,0,0:0:0:0:
96,56,110791,1,0,0:0:0:0:
96,168,110975,1,0,0:0:0:0:
416,184,111342,6,0,L|336:184,1,55.0000001490115
304,184,111525,1,0,0:0:0:0:
192,184,111710,1,0,0:0:0:0:
360,128,111894,5,0,0:0:0:0:
168,256,112077,1,0,0:0:0:0:
360,256,112261,1,0,0:0:0:0:
168,128,112445,1,0,0:0:0:0:
264,184,112812,1,0,0:0:0:0:
264,288,112996,1,0,0:0:0:0:
264,72,113179,1,0,0:0:0:0:
264,184,113363,5,0,0:0:0:0:
264,184,113547,1,0,0:0:0:0:
264,328,113731,1,0,0:0:0:0:
264,328,113914,1,0,0:0:0:0:
264,72,114282,1,0,0:0:0:0:
64,112,114649,5,0,0:0:0:0:
72,160,114741,1,0,0:0:0:0:
104,184,114833,1,0,0:0:0:0:
216,96,115016,1,0,0:0:0:0:
160,200,115200,1,0,0:0:0:0:
216,304,115384,1,0,0:0:0:0:
256,296,115476,1,0,0:0:0:0:
280,256,115568,1,0,0:0:0:0:
296,200,115751,6,0,L|408:200,2,110.000000298023,0|0|0,0:0|0:0|0:0,0:0:0:0:
216,96,116302,1,0,0:0:0:0:
200,304,116486,1,0,0:0:0:0:
296,200,116670,1,0,0:0:0:0:
128,184,116853,2,0,P|64:168|128:216,1,220.000000596046
376,160,117588,5,0,0:0:0:0:
456,120,117772,1,0,0:0:0:0:
448,240,117956,1,0,0:0:0:0:
456,120,118139,1,0,0:0:0:0:
376,160,118323,5,0,0:0:0:0:
336,144,118415,1,0,0:0:0:0:
312,168,118507,1,0,0:0:0:0:
232,232,118690,1,0,0:0:0:0:
128,240,118874,2,0,L|128:112,2,110.000000298023
200,320,119425,5,0,0:0:0:0:
320,304,119609,1,0,0:0:0:0:
408,240,119793,1,0,0:0:0:0:
376,200,119884,1,0,0:0:0:0:
344,160,119976,1,0,0:0:0:0:
280,80,120160,2,0,L|408:80,2,110.000000298023
136,120,120711,5,0,0:0:0:0:
208,288,120895,1,0,0:0:0:0:
296,128,121078,1,0,0:0:0:0:
376,288,121262,1,0,0:0:0:0:
216,200,121630,5,0,0:0:0:0:
168,200,121722,1,0,0:0:0:0:
128,200,121813,1,0,0:0:0:0:
32,200,121997,1,0,0:0:0:0:
128,200,122181,5,0,0:0:0:0:
128,104,122364,1,0,0:0:0:0:
128,288,122548,1,0,0:0:0:0:
264,288,122732,2,0,P|384:288|384:192,1,220.000000596046
256,136,123467,5,0,0:0:0:0:
256,176,123558,1,0,0:0:0:0:
256,208,123650,1,4,0:0:0:0:
