osu file format v9

[General]
AudioFilename: winter.mp3
AudioLeadIn: 0
PreviewTime: 52069
Countdown: 0
SampleSet: Normal
StackLeniency: 0.7
Mode: 0
LetterboxInBreaks: 1

[Editor]
DistanceSpacing: 1
BeatDivisor: 3
GridSize: 16

[Metadata]
Title:Click Clock Wood
Artist:Grant Kirkhope
Creator:Odaril
Version:Winter
Source:Banjo-Kazooie
Tags:rare rareware seasons autumn N64 nintendo Banjo Kazooie

[Difficulty]
HPDrainRate:1
CircleSize:3
OverallDifficulty:2
ApproachRate:3
SliderMultiplier:1.04
SliderTickRate:3

[Events]
//Background and Video events
0,0,"winter.jpg"
//Break Periods
//Storyboard Layer 0 (Background)
//Storyboard Layer 1 (Fail)
//Storyboard Layer 2 (Pass)
//Storyboard Layer 3 (Foreground)
//Storyboard Sound Samples
//Background Colour Transformations
3,100,163,162,255

[TimingPoints]
153,500,4,2,1,40,1,0
38236,-100,4,2,1,5,0,0
38569,-100,4,2,1,40,0,0
38736,-100,4,2,1,5,0,0
39069,-100,4,2,1,40,0,0
42569,-100,4,2,1,40,0,0
42736,-100,4,2,1,55,0,0
43069,-100,4,2,1,40,0,0
43236,-100,4,2,1,40,0,0
46236,-100,4,2,1,5,0,0
46569,-100,4,2,1,40,0,0
46736,-100,4,2,1,5,0,0
47069,-100,4,2,1,40,0,0
52153,-100,4,1,2,20,0,0
55486,-100,4,2,2,20,0,0
55819,-100,4,1,2,20,0,0
67986,-100,4,1,1,40,0,0
68236,-100,4,1,1,5,0,0
68569,-100,4,1,1,40,0,0
69236,-100,4,1,1,5,0,0
69569,-100,4,1,1,40,0,0
76236,-100,4,1,1,5,0,0
76569,-100,4,1,1,40,0,0
77236,-100,4,1,1,5,0,0
77569,-100,4,1,1,40,0,0
83986,-100,4,1,2,40,0,0

[Colours]
Combo1 : 243,242,253
Combo2 : 94,144,173
Combo3 : 169,167,191

[HitObjects]
118,269,4153,1,2
208,81,5153,1,2
400,158,6153,5,2
423,259,6653,2,0,B|387:321,1,69.3333333333333,0|2
256,356,7653,1,2
256,252,8153,5,2
256,48,9153,1,0
256,252,10153,1,2
372,246,12153,5,2
256,72,13153,1,2
140,246,14153,5,2
222,309,14653,2,0,B|251:330|288:325,1,69.3333333333333,0|2
416,274,15653,1,0
413,170,16153,5,2
241,51,17153,1,0
413,170,18153,1,2
115,73,20153,5,2
214,103,20653,1,0
121,150,21153,1,2
220,179,21653,1,0
127,226,22153,5,2
226,255,22653,2,0,B|312:283,1,69.3333333333333,0|2
425,308,23653,1,0
425,204,24153,5,2
351,130,24653,1,0
277,56,25153,1,2
173,56,25653,2,0,B|118:111,1,69.3333333333333,0|2
425,308,27653,1,0
436,204,28153,5,2
338,239,28653,1,0
355,136,29153,1,2
259,176,29653,1,0
260,72,30153,5,2
171,126,30653,2,0,B|155:162|165:197,1,69.3333333333333,0|2
258,295,31653,1,0
355,258,32152,5,2
436,192,32653,1,2
355,126,33153,1,2
275,192,33653,2,0,B|192:192,1,69.3333333333333,0|2
400,192,36153,5,2
226,306,37153,1,0
129,268,37653,1,0
79,176,38153,2,0,B|60:123|84:72,2,104,2|0|0
260,277,40153,5,2
256,68,41153,1,0
357,91,41653,1,0
380,192,42153,1,2
339,287,42653,2,0,B|289:319|226:309,1,104,2|2
140,278,43653,1,0
140,278,44153,5,2
342,229,45153,1,0
411,151,45653,1,0
308,131,46153,2,0,B|254:113|204:137,2,104,2|0|0
139,252,48153,5,2
90,159,48653,1,0
193,166,49153,1,2
242,257,49653,1,0
256,192,50153,12,4,52153
256,192,53153,5,4
256,192,54153,1,4
198,105,54653,1,2
94,90,55153,1,4
120,192,55653,1,0
68,283,56153,5,4
269,335,57153,1,4
269,127,58153,1,4
68,75,59153,1,4
276,75,60153,5,4
377,97,60653,1,8
399,198,61153,1,4
296,178,61653,1,8
194,157,62153,1,4
121,231,62653,5,8
204,292,63153,1,4
308,292,63653,1,12
391,231,64152,5,4
256,72,65152,1,4
121,231,66153,1,4
220,261,66653,1,12
319,292,67153,1,4
420,314,67653,1,12
386,215,68153,6,0,B|349:101,1,104,2|0
252,95,69153,2,0,B|287:206,1,104,2|0
319,292,70153,1,2
215,292,70653,5,0
125,238,71153,1,2
79,144,71653,1,2
77,40,72153,5,2
256,144,73153,1,0
435,40,74153,1,0
256,144,75153,1,2
76,248,76153,6,0,B|28:148,1,104,2|0
134,154,77153,2,0,B|184:253,1,104,2|0
233,334,78153,1,0
333,306,78653,5,0
418,247,79153,1,2
456,150,79653,1,2
456,46,80153,5,2
256,103,81153,1,0
56,46,82153,1,2
129,119,82653,1,0
202,192,83153,1,0
275,265,83653,1,0
290,162,84153,5,2
374,101,84653,1,2
459,160,85153,1,2
375,220,85653,1,2
289,279,86153,5,2
237,188,86653,1,2
183,272,87153,1,2
131,354,87653,1,2
67,271,88153,5,2
15,180,88653,1,2
105,129,89153,1,2
157,218,89653,1,2
247,166,90153,5,2
325,98,90653,1,2
320,201,91153,1,2
395,272,91653,1,2
406,168,92153,5,2
207,106,93153,1,2
137,302,94153,1,2
137,302,94653,1,2
237,329,95153,1,2
445,174,96153,21,2
256,86,97153,1,2
256,192,98153,12,0,100153
