osu file format v9

[General]
AudioFilename: summer.mp3
AudioLeadIn: 0
PreviewTime: 53162
Countdown: 0
SampleSet: Normal
StackLeniency: 0.7
Mode: 0
LetterboxInBreaks: 1

[Editor]
DistanceSpacing: 2
BeatDivisor: 4
GridSize: 16

[Metadata]
Title:Click Clock Wood
Artist:Grant Kirkhope
Creator:Odaril
Version:Summer
Source:Banjo-Kazooie
Tags:rare rareware seasons autumn N64 nintendo Banjo Kazooie

[Difficulty]
HPDrainRate:6
CircleSize:5
OverallDifficulty:6
ApproachRate:7
SliderMultiplier:0.8
SliderTickRate:1

[Events]
//Background and Video events
0,0,"summer.jpg"
//Break Periods
//Storyboard Layer 0 (Background)
//Storyboard Layer 1 (Fail)
//Storyboard Layer 2 (Pass)
//Storyboard Layer 3 (Foreground)
//Storyboard Sound Samples
//Background Colour Transformations
3,100,163,162,255

[TimingPoints]
1255,333.333333333333,3,1,1,50,1,0
8254,-200,3,1,1,50,0,0
9254,-100,3,1,1,50,0,0
16254,-200,3,1,1,50,0,0
17254,-100,3,1,1,50,0,0
24254,-200,3,1,1,50,0,0
25254,-100,3,1,1,50,0,0
32254,-200,3,1,1,50,0,0
33254,-100,3,1,1,50,0,0
53239,333.333333333333,3,1,1,50,1,0
60238,-200,3,1,1,50,0,0
61238,-100,3,1,1,50,0,0
68238,-200,3,1,1,50,0,0
69238,-100,3,1,1,50,0,0
73238,-100,3,1,1,60,0,0
76238,-200,3,1,1,60,0,0
77238,-100,3,1,1,60,0,0
84238,-200,3,1,1,60,0,0
85238,-100,3,1,1,60,0,0

[Colours]
Combo1 : 211,120,20
Combo2 : 95,62,18
Combo3 : 136,78,19

[HitObjects]
82,166,5254,6,0,B|80:100|136:60,1,120.000000894069,2|0
192,116,5921,1,0
253,62,6088,1,0
308,119,6254,2,0,B|359:155|351:229,1,120.000000894069,2|0
310,293,6921,1,0
243,247,7088,1,0
178,293,7254,5,2
149,264,7588,1,0
120,235,7921,1,0
92,205,8254,2,0,B|68:166|97:131,1,80.000000596046,2|2
222,31,9254,6,0,B|304:72|271:166,1,160,0|2
230,232,10254,1,2
310,232,10588,1,0
272,302,10921,1,0
333,352,11255,1,2
179,351,11588,6,2,B|171:342|171:342|159:351|155:334|155:334|143:347|142:329|142:329|126:340|120:322,4,80.000000596046,0|0|0|0|0
333,324,13255,6,0,B|392:305|396:232,1,120.000000894069,2|0
381,152,13921,1,0
310,190,14088,1,0
309,110,14255,2,0,B|274:57|205:65,1,120.000000894069,2|0
127,83,14921,1,0
181,141,15088,1,0
116,188,15255,5,2
144,216,15588,1,0
172,244,15921,1,0
200,272,16255,2,0,B|229:305|275:303,1,80.000000596046,2|0
415,234,17255,6,0,B|364:165|275:177,1,160,2|2
195,193,18255,1,2
222,117,18588,1,0
143,132,18921,1,0
172,57,19254,1,2
110,223,19588,6,2,B|97:216|92:229|92:229|77:219|74:233|74:233|62:225|55:238|55:238|40:238,4,80.000000596046,0|0|0|0|0
255,323,21254,6,0,B|302:315|319:264,1,80.000000596046,2|0
336,198,21754,1,0
317,119,21921,1,2
259,175,22088,1,0
226,102,22254,2,0,B|184:124|180:172,1,80.000000596046,2|0
182,244,22754,1,0
222,313,22921,1,2
268,248,23088,1,0
316,311,23254,5,2
344,282,23588,1,0
372,253,23921,1,0
400,224,24254,2,0,B|433:192,2,40.000000298023,2|0|2
344,282,25254,6,0,B|309:314|254:300,1,80
220,239,25921,1,2
217,159,26254,2,0,B|256:176|296:159,1,80.000000596046,2|0
361,114,26921,1,0
419,59,27254,1,2
242,54,27588,6,2,B|229:48|224:62|224:62|211:49|207:64|207:64|196:51|194:65|194:65|179:60,4,80.000000596046,0|0|0|0|0
122,182,29254,6,0,B|111:224|140:259,1,80.000000596046,2|0
194,314,29754,1,0
252,259,29921,1,2
318,304,30088,1,0
343,228,30254,2,0,B|376:193|356:151,1,80.000000596046,2|0
308,91,30754,1,0
244,41,30921,1,2
216,116,31088,1,0
185,189,31254,5,2
213,217,31588,1,0
241,245,31921,1,0
269,273,32254,5,2
341,273,32588,1,2
403,236,32921,1,2
407,163,33254,6,0,B|389:119|351:103,1,80.000000596046
280,76,33921,1,2
202,94,34254,1,2
161,163,34588,1,0
170,242,34921,1,0
161,163,35254,1,2
334,273,35588,6,2,B|350:271|350:286|350:286|361:278|363:296|363:296|376:285|373:303|373:303|390:306,4,80.000000596046,0|0|0|0|0
249,120,37255,5,2
316,220,37588,1,0
196,227,37921,1,0
315,150,38254,5,2
261,257,38587,1,0
195,157,38920,1,0
316,220,39254,5,0
196,226,39588,2,0,B|144:222|132:176,1,80,2|2
261,257,40254,5,0
195,157,40588,2,0,B|172:113|200:79,1,80,2|2
347,119,41254,5,0
431,204,41588,1,0
315,236,41921,1,0
414,138,42254,5,2
387,255,42588,1,0
301,171,42921,1,0
413,138,43254,1,2
209,61,43588,6,2,B|218:52|224:66|224:66|236:52|238:67|238:67|245:53|249:69|249:69|259:55|266:68,4,80.000000596046,0|0|0|0|0
75,173,45254,5,2
174,106,45588,1,0
181,225,45921,1,0
106,111,46254,5,2
213,163,46588,1,0
114,229,46921,1,0
174,106,47254,5,0
181,225,47588,2,0,B|179:272|135:292,1,80,2|2
213,163,48254,5,0
114,229,48588,2,0,B|68:249|36:225,1,80,2|2
180,315,49254,5,2
339,328,49588,1,0
465,230,49921,1,2
465,230,50254,5,2
308,262,50588,1,0
148,246,50921,1,2
81,162,51143,1,2
66,139,51254,5,0
208,210,51588,1,0
367,215,51921,1,2
367,215,52254,5,2
324,60,52588,1,0
164,44,52921,1,2
95,179,53239,5,12
212,70,53572,1,0
212,70,53905,1,0
51,62,54239,5,8
182,152,54572,1,0
182,152,54905,1,0
417,179,55239,5,8
300,70,55572,1,0
300,70,55905,1,0
461,62,56239,5,8
330,152,56572,1,0
330,152,56905,1,0
108,230,57238,6,0,B|138:259|183:258,1,80.000000596046,12|0
269,257,57738,1,0
352,226,57905,1,8
277,180,58072,1,0
189,177,58238,2,0,B|146:177|116:148,1,80.000000596046,10|0
57,83,58738,1,0
140,52,58905,1,8
222,85,59072,1,0
304,119,59238,22,0,B|328:135|357:126,1,40.000000298023,10|0
432,182,59572,2,0,B|426:206|410:225,1,40.000000298023,2|0
325,284,59905,2,0,B|305:270|283:280,1,40.000000298023,10|0
169,257,60238,2,0,B|157:215|166:174,1,80.000000596046,10|10
181,58,61238,21,8
181,58,61572,1,0
181,58,61905,1,10
352,98,62238,1,10
233,228,62572,1,0
181,58,62905,1,8
61,188,63238,1,10
302,171,63572,6,2,B|317:170|313:184|313:184|330:178|324:192|324:192|340:188|335:201|335:201|353:208,4,80.000000596046,2|10|10|2|10
122,204,65238,6,0,B|86:228|84:272,1,80.000000596046,10|0
111,355,65738,1,0
165,285,65905,1,8
219,355,66072,1,0
274,287,66238,2,0,B|292:246|328:231,1,80,10|0
413,209,66738,1,0
348,150,66905,1,8
422,103,67072,1,0
377,28,67238,6,0,B|352:18|334:22,1,40,10|0
217,22,67572,2,0,B|238:22|263:31,1,40,2|0
355,95,67905,2,0,B|330:92|312:108,1,40,10|0
196,100,68238,2,0,B|237:119|242:164,1,80,10|8
256,339,69238,5,10
256,339,69572,1,0
256,339,69905,1,10
107,245,70238,1,10
169,79,70572,1,0
345,79,70905,1,8
405,245,71238,1,10
256,119,71572,6,2,B|262:104|251:98|251:98|263:90|251:85|251:85|263:78|251:72|251:72|261:64|256:56,4,80,0|8|8|0|8
114,292,73238,6,0,B|153:301|196:288,1,80,14|0
272,248,73738,1,0
328,180,73905,1,8
372,256,74072,1,0
328,180,74239,2,0,B|359:147|349:107,1,80,10|0
307,30,74738,1,0
218,31,74905,1,8
231,118,75072,1,0
218,31,75238,6,0,B|177:36,1,40,14|0
86,77,75572,2,0,B|119:99,1,40,2|0
197,175,75905,2,0,B|158:187,1,40,10|0
59,254,76238,2,0,B|77:293|121:305,1,80,14|8
279,324,77238,5,8
279,324,77572,1,0
279,324,77905,1,10
410,205,78238,1,10
256,120,78572,1,0
102,205,78905,1,8
256,120,79239,1,10
284,348,79572,6,2,B|276:344|272:356|272:356|264:340|256:356|256:356|248:340|240:356|240:356|236:344|228:348,4,80,0|8|8|0|8
392,134,81238,6,0,B|363:104|317:104,1,80,12|0
232,107,81738,1,0
283,180,81905,1,8
196,201,82072,1,0
250,270,82238,2,0,B|283:286|332:279,1,80,14|0
368,201,82738,1,0
283,180,82905,1,8
232,107,83072,1,0
320,104,83238,6,0,B|363:104,1,40,14|0
443,162,83572,2,0,B|396:174,1,40,2|0
317,236,83905,2,0,B|352:251,1,40,10|0
460,307,84238,2,0,B|439:343|394:353,1,80,14|8
218,335,85238,5,14
218,335,85572,1,0
218,335,85905,1,10
112,195,86238,1,10
288,206,86572,1,0
437,113,86905,1,8
264,82,87238,1,10
100,310,87572,6,2,B|86:307|84:320|84:320|70:313|70:328|70:328|55:323|55:338|55:338|42:340,4,80,0|8|8|0|8
195,122,89238,5,8
220,297,89572,1,2
346,174,89905,1,10
165,209,90238,5,8
329,275,90572,1,2
285,104,90905,1,10
220,297,91238,5,8
346,174,91572,2,0,B|383:142|377:98,1,80,2|10
329,275,92238,5,8
285,104,92572,2,0,B|276:57|235:40,1,80,2|10
329,275,93238,5,8
474,175,93572,1,2
315,101,93905,1,10
329,275,94238,5,8
170,200,94572,1,2
185,376,94905,1,10
329,275,95238,1,10
239,141,95572,6,2,B|242:128|226:127|226:127|235:115|215:115|215:115|222:100|207:102|207:102|203:89,4,80,0|8|8|0|8
422,182,97238,5,14
294,303,97572,1,0
119,293,97905,1,8
94,119,98238,5,10
247,207,98572,1,0
421,181,98905,1,8
488,19,99238,5,8
312,35,99572,2,0,B|267:48|250:94,1,80,2|10
419,22,100238,5,8
295,147,100572,2,0,B|266:183|279:231,1,80,2|10
309,274,101072,1,0
322,290,101155,1,0
335,305,101238,5,10
475,227,101572,1,0
335,305,101905,1,10
177,279,102238,5,10
91,143,102572,1,0
177,279,102905,1,10
296,264,103155,1,0
289,246,103238,5,8
440,192,103572,5,0
375,338,103905,1,10
215,335,104238,1,8
94,228,104572,1,0
213,122,104905,1,10
331,229,105238,1,12
