osu file format v9

[General]
AudioFilename: spring.mp3
AudioLeadIn: 0
PreviewTime: 43715
Countdown: 0
SampleSet: Soft
StackLeniency: 0.3
Mode: 0
LetterboxInBreaks: 1

[Editor]
DistanceSpacing: 1
BeatDivisor: 3
GridSize: 16

[Metadata]
Title:Click Clock Wood
Artist:Grant Kirkhope
Creator:Odaril
Version:Spring
Source:Banjo-Kazooie
Tags:rare rareware seasons autumn N64 nintendo Banjo Kazooie

[Difficulty]
HPDrainRate:6
CircleSize:5
OverallDifficulty:7
ApproachRate:8
SliderMultiplier:1.4
SliderTickRate:1

[Events]
//Background and Video events
0,0,"spring.jpg"
//Break Periods
2,71464,79656
//Storyboard Layer 0 (Background)
//Storyboard Layer 1 (Fail)
//Storyboard Layer 2 (Pass)
//Storyboard Layer 3 (Foreground)
//Storyboard Sound Samples
//Background Colour Transformations
3,100,163,162,255

[TimingPoints]
414,285.687077421198,4,2,1,50,1,0
2366,-100,4,2,1,20,0,0
2461,-100,4,2,1,30,0,0
2556,-100,4,2,1,40,0,0
2651,-100,4,2,1,50,0,0
14001,-100,4,2,2,50,0,0
18555,-100,4,2,1,50,0,0
20832,-133.333333333333,4,1,1,50,0,0
20988,-133.333333333333,4,1,1,50,0,0
23271,-133.333333333333,4,1,1,50,0,0
29940,-100,4,2,1,50,0,0
39267,-66.6666666666667,4,1,1,100,0,0
41552,-71.4285714285714,4,1,1,90,0,0
41981,-76.9230769230769,4,1,1,80,0,0
42410,-83.3333333333333,4,1,1,70,0,0
42838,-90.9090909090909,4,1,1,60,0,0
43267,-100,4,1,1,50,0,0
62122,-100,4,1,1,50,0,0
80120,-100,4,2,2,40,0,0
80596,-100,4,2,1,40,0,0
80882,-100,4,2,2,40,0,0
81168,-100,4,2,1,40,0,0
81453,-100,4,2,2,40,0,0
81739,-100,4,2,1,40,0,0
81930,-100,4,2,2,40,0,0
82596,-100,4,2,2,40,0,0
82834,-100,4,2,1,40,0,0
83120,-100,4,2,2,40,0,0
83406,-100,4,2,1,40,0,0
83691,-100,4,2,2,40,0,0
83977,-100,4,2,1,40,0,0
84191,-100,4,2,2,40,0,0
84620,-100,4,2,1,40,0,0
84834,-100,4,2,2,40,0,0
85120,-100,4,2,1,40,0,0
85405,-100,4,2,2,40,0,0
85691,-100,4,2,1,40,0,0
85977,-100,4,2,2,40,0,0
86262,-100,4,2,1,40,0,0
86501,-100,4,2,2,40,0,0
86929,-100,4,2,1,40,0,0
87120,-100,4,2,2,40,0,0
87405,-100,4,2,1,40,0,0
87691,-100,4,2,2,40,0,0
87977,-100,4,2,1,40,0,0
88262,-100,4,2,2,40,0,0
88548,-100,4,2,1,40,0,0
88786,-100,4,2,2,40,0,0
89215,-100,4,2,1,40,0,0
89405,-100,4,2,2,40,0,0
89691,-100,4,2,1,40,0,0
89976,-100,4,2,2,40,0,0
90262,-100,4,2,1,40,0,0
90548,-100,4,2,2,40,0,0
90833,-100,4,2,1,40,0,0
91072,-100,4,2,2,40,0,0
91500,-100,4,2,1,40,0,0
91691,-100,4,2,2,40,0,0
91976,-100,4,2,1,40,0,0
92262,-100,4,2,2,40,0,0
92548,-100,4,2,1,40,0,0
92833,-100,4,2,2,40,0,0
93119,-100,4,2,1,40,0,0
93357,-100,4,2,2,40,0,0
93786,-100,4,2,1,40,0,0
93976,-100,4,2,2,40,0,0
94262,-100,4,2,1,40,0,0
94547,-100,4,2,2,40,0,0
94833,-100,4,2,1,40,0,0
95119,-100,4,2,2,40,0,0
95404,-100,4,2,1,40,0,0
95643,-100,4,2,2,40,0,0
96071,-100,4,2,1,40,0,0
96262,-100,4,2,2,40,0,0
96547,-100,4,2,1,40,0,0
96833,-100,4,2,2,40,0,0
97119,-100,4,2,1,40,0,0
97404,-100,4,2,2,40,0,0
97690,-100,4,2,1,40,0,0
97928,-100,4,2,2,40,0,0
98357,-100,4,2,1,40,0,0
98499,-100,4,1,1,40,0,0
101261,-100,4,1,1,40,0,0
112689,-100,4,1,1,32,0,0
113117,-100,4,1,1,24,0,0
113546,-100,4,1,1,16,0,0
113974,-100,4,1,1,8,0,0

[Colours]
Combo1 : 60,252,54
Combo2 : 0,113,0
Combo3 : 0,191,0

[HitObjects]
68,84,2413,2,0,B|102:119,3,46.6666666666667
285,89,2889,1,0
269,106,2985,1,0
286,291,3175,1,0
270,274,3271,1,0
84,294,3461,1,0
100,277,3557,1,0
242,191,3747,5,0
265,191,3842,1,0
395,298,4032,1,0
408,278,4127,1,0
416,91,4318,2,0,B|341:40|238:50,1,186.666666666667
115,122,4984,5,0
110,128,5270,1,0
105,134,5556,1,0
55,213,5746,1,0
55,236,5842,1,0
155,79,6032,1,0
330,16,7270,5,0
155,80,7460,1,0
179,79,7556,1,0
264,244,7746,1,0
267,222,7841,1,0
427,126,8032,1,0
406,128,8127,1,0
220,155,8318,5,0
203,171,8413,1,0
85,315,8603,1,0
73,294,8698,1,0
113,111,8889,2,0,B|182:45|286:56,1,186.666666666667
408,123,9555,5,0
412,128,9841,1,0
415,134,10127,1,0
450,220,10317,1,0
451,243,10413,1,0
380,70,10603,1,0
49,47,11841,5,8
216,129,12031,1,0
233,113,12127,1,0
57,174,12317,1,0
76,160,12412,1,10
231,264,12603,1,0
249,249,12698,1,0
65,285,12889,5,0
81,268,12984,1,8
259,327,13174,1,0
278,313,13269,2,0,B|325:287|336:235,1,93.3333333333333,0|8
343,220,13555,1,2
399,41,13746,1,8
391,59,13841,1,0
112,81,14126,21,8
108,87,14412,1,0
105,92,14698,1,10
43,162,14888,1,0
44,185,14984,1,0
146,29,15174,1,0
168,30,15269,5,8
325,227,15555,1,0
334,134,15745,1,8
310,134,15841,1,2
216,134,16031,1,8
192,134,16126,1,0
381,291,16412,5,8
457,121,16602,1,0
436,109,16698,1,0
265,183,16888,1,0
247,168,16983,1,10
235,354,17174,1,0
214,343,17269,1,0
30,316,17459,5,0
26,292,17555,2,0,B|23:241|47:202,1,93.3333333333333,8|0
59,183,17840,1,0
168,30,18031,1,8
178,51,18126,1,2
164,237,18317,1,8
187,236,18412,1,0
444,118,18697,5,8
448,124,18983,1,0
453,129,19269,1,10
460,222,19459,1,0
458,245,19555,1,0
379,211,19745,1,0
375,234,19840,5,8
251,331,20126,1,0
162,301,20316,1,8
156,278,20412,1,2
222,193,20602,1,8
230,214,20697,1,0
369,74,20983,6,0,B|335:36|273:39,2,104.999996870756,0|2|0
413,127,21745,1,0
420,142,21840,1,2
293,360,22126,1,0
77,231,22411,1,2
204,12,22697,1,0
264,47,22888,1,2
277,57,22983,1,2
147,207,23268,6,0,B|80:214|67:271,2,104.999996870756,0|2|0
216,197,24030,1,0
233,195,24126,1,2
494,194,24411,1,0
414,125,24697,2,0,B|417:81,3,34.9999989569188,2|0|0|0
312,73,25173,2,0,B|308:120,1,34.9999989569188,2|2
112,117,25554,6,0,B|118:63|177:34,2,104.999996870756,0|2|0
94,184,26316,1,0
91,201,26411,1,2
279,367,26697,1,0
444,177,26982,1,2
255,10,27268,1,0
195,47,27459,1,2
184,60,27554,1,2
149,255,27839,5,0
357,282,28125,1,2
277,88,28411,1,0
246,212,28601,1,2
258,199,28697,1,2
346,169,28887,5,0
338,153,28982,1,0
145,67,29268,1,2
50,255,29554,1,0
134,143,29744,1,2
151,143,29839,1,2
427,191,30125,5,0
355,362,30315,1,0
342,342,30411,1,0
157,362,30601,1,0
170,342,30696,1,2
56,192,30887,1,0
79,192,30982,1,0
157,22,31172,1,0
170,42,31268,1,0
355,22,31458,1,0
342,42,31553,1,0
452,192,31744,1,0
428,192,31839,2,0,B|280:192,1,140,2|0
166,121,32410,5,0
161,134,32696,1,0
155,146,32982,1,2
122,233,33172,1,0
143,242,33268,1,0
195,63,33458,1,0
216,72,33553,5,0
412,147,33839,1,0
333,342,34125,1,2
137,267,34410,1,0
216,72,34696,5,0
137,267,34886,1,0
158,277,34982,1,0
333,342,35172,1,0
345,322,35267,1,2
412,147,35458,1,0
391,135,35553,1,0
216,72,35743,1,0
206,93,35839,1,0
47,191,36029,1,0
66,204,36124,1,0
226,300,36315,1,0
249,300,36410,2,0,B|324:284|344:207,1,140,2|0
359,68,36981,5,0
352,80,37267,1,0
345,92,37553,1,2
258,127,37743,1,0
276,141,37839,1,0
124,32,38029,1,0
108,49,38124,5,0
19,157,38410,1,0
158,166,38696,1,2
76,279,38981,1,0
220,295,39267,5,12
13,335,39553,1,0
68,132,39838,1,8
272,82,40124,1,0
272,82,40267,1,8
62,67,40553,1,8
62,67,40695,1,0
257,143,40981,1,8
450,67,41267,1,0
256,77,41552,5,8
256,77,41695,1,0
320,141,41981,1,8
320,141,42124,1,0
256,192,42410,1,8
256,192,42552,1,0
310,246,42838,1,8
310,246,42981,1,0
208,252,43267,6,2,B|157:236|148:188,1,93.3333333333333,0|0
148,140,43552,2,2,B|152:104|184:84|204:76|220:74,1,93.3333333333333,0|0
253,80,43838,6,0,B|330:76|385:124,1,140,12|0
428,303,44314,1,0
428,303,44409,2,0,B|356:271|292:299,1,140,8|0
125,214,44885,1,0
125,214,44981,2,0,B|188:176|261:196,1,140,8|0
379,52,45457,1,0
379,52,45552,2,0,B|311:32|237:59,1,140,8|8
75,144,46028,1,0
48,172,46123,5,8
208,307,46409,1,0
316,218,46600,1,0
316,218,46695,1,8
184,54,46980,1,0
75,143,47171,1,0
75,143,47266,1,8
208,308,47552,1,0
316,218,47742,1,0
316,218,47837,1,8
185,54,48123,1,8
75,143,48314,1,0
59,186,48409,6,0,B|75:264|159:265,1,140,8|0
341,227,48885,1,0
341,227,48980,2,0,B|325:149|241:148,1,140,8|0
428,157,49456,1,0
428,157,49552,2,0,B|398:88|326:69,1,140,8|0
146,147,50028,1,0
146,147,50123,2,0,B|176:78|248:59,1,140,8|8
428,156,50599,1,0
418,201,50694,5,8
256,335,50980,1,0
83,216,51266,1,8
231,67,51551,1,0
357,128,51742,1,8
295,159,51837,2,0,B|228:149|212:214,1,93.3333333333333,8|0
277,224,52123,2,0,B|344:214|360:279,1,93.3333333333333,8|0
295,288,52409,2,0,B|228:278|216:343,1,93.3333333333333,8|0
278,350,52694,1,8
72,304,52980,6,0,B|72:222|135:183,1,140,12|0
230,84,53456,1,0
230,84,53551,2,0,B|312:76|358:129,1,140,8|0
449,233,54027,1,0
449,233,54123,2,0,B|468:158|423:97,1,140,8|0
296,158,54599,1,0
296,158,54694,2,0,B|215:174|168:121,1,140,8|8
256,335,55265,6,0,B|190:350|117:340,1,140,8|0
169,209,55742,1,0
169,209,55837,2,0,B|229:244|309:216,1,140,8|0
180,284,56313,1,0
180,284,56408,2,0,B|97:279|74:207,1,140,8|0
92,68,56884,1,0
92,68,56980,2,0,B|124:136|206:130,1,140,8|8
437,115,57551,6,0,B|369:79|336:19,1,140,8|0
380,160,58027,1,0
380,160,58122,2,0,B|440:137|472:44,1,140,8|0
449,195,58598,1,0
449,195,58694,2,0,B|368:170|339:105,1,140,8|0
394,241,59170,1,0
394,241,59265,2,0,B|454:218|486:125,1,140,8|8
472,277,59741,1,0
442,313,59836,5,8
256,213,60122,1,0
70,313,60408,1,8
256,213,60693,1,0
186,91,60884,1,8
252,70,60979,2,0,B|315:78|326:137,1,93.3333333333333,8|0
253,138,61265,2,0,B|196:146|181:207,1,93.3333333333333,8|0
256,213,61551,2,0,B|319:221|330:280,1,93.3333333333333,8|0
260,287,61836,1,8
52,320,62122,5,4
138,96,62408,1,2
274,64,62598,2,0,B|322:64,1,46.6666666666667,2|0
116,112,62979,1,2
252,80,63169,2,0,B|300:80,1,46.6666666666667,2|0
94,128,63550,1,2
230,96,63740,2,0,B|278:96,1,46.6666666666667,2|0
72,150,64122,1,2
218,299,64407,5,4
390,178,64693,1,2
277,96,64884,2,0,B|229:96,1,46.6666666666667,2|0
414,196,65264,1,2
301,114,65455,2,0,B|253:114,1,46.6666666666667,2|0
438,216,65836,1,2
325,134,66027,2,0,B|277:134,1,46.6666666666667,2|0
462,233,66407,1,2
288,351,66693,5,4
98,259,66979,2,0,B|92:212|114:167,1,93.3333333333333,2|2
168,210,67264,1,0
414,259,67550,2,0,B|420:212|398:167,1,93.3333333333333,2|2
344,210,67835,1,0
98,259,68121,2,0,B|92:212|114:167,1,93.3333333333333,2|2
168,210,68406,1,0
348,320,68693,1,2
389,223,68836,1,0
396,214,68907,1,0
404,205,68978,5,2
256,275,69264,1,0
90,146,69550,1,2
256,275,69835,2,0,B|256:176,1,93.3333333333333,0|0
320,210,70121,2,0,B|320:106,1,93.3333333333333,2|0
303,48,70407,2,0,B|191:48,1,93.3333333333333,2|0
192,116,70693,2,0,B|192:210,1,93.3333333333333,2|0
256,181,70978,2,0,B|256:275,1,93.3333333333333,2|0
256,345,71264,1,12
29,69,80406,6,0,B|76:48|127:65,1,93.3333333333333,8|0
166,144,80692,2,0,B|118:165|72:148,1,93.3333333333333,8|0
120,63,80977,2,0,B|166:43|217:60,1,93.3333333333333,8|0
256,139,81263,2,0,B|208:160|162:143,1,93.3333333333333,8|0
212,58,81549,2,0,B|258:38|309:55,1,93.3333333333333,8|0
349,133,81834,2,0,B|352:188|308:210,1,93.3333333333333,8|8
214,219,82120,1,0
121,62,82310,2,0,B|111:115,1,46.6666666666667,8|0
46,233,82691,5,8
53,260,82977,1,8
62,286,83263,1,8
142,332,83453,1,8
148,338,83548,1,8
226,286,83739,1,8
412,270,84120,5,0
412,270,84406,1,0
412,270,84691,1,0
483,69,84977,6,0,B|436:48|385:65,1,93.3333333333333,8|0
346,144,85263,2,0,B|394:165|440:148,1,93.3333333333333,8|0
392,63,85548,2,0,B|346:43|295:60,1,93.3333333333333,8|0
256,139,85834,2,0,B|304:160|350:143,1,93.3333333333333,8|0
300,58,86120,2,0,B|254:38|203:55,1,93.3333333333333,8|0
163,133,86405,2,0,B|160:188|204:210,1,93.3333333333333,8|8
298,219,86691,1,0
391,62,86881,2,0,B|401:115,1,46.6666666666667,8|0
466,233,87262,5,8
459,260,87548,1,8
450,286,87834,1,8
370,332,88024,1,8
364,338,88119,1,8
286,286,88310,1,8
100,270,88691,5,0
100,270,88977,1,0
100,270,89262,1,0
430,80,89548,6,0,B|382:77|340:100,1,93.3333333333333,8|0
265,134,89834,2,0,B|216:131|177:103,1,93.3333333333333,8|0
144,178,90119,2,0,B|179:210|230:216,1,93.3333333333333,10|0
310,221,90405,2,0,B|361:216|388:174,1,93.3333333333333,8|0
438,239,90691,2,0,B|430:292|375:298,1,93.3333333333333,8|0
300,328,90976,2,0,B|256:352|212:328,1,93.3333333333333,8|0
136,297,91262,2,0,B|82:292|74:239,1,93.3333333333333,10|0
59,158,91548,1,8
256,24,91833,5,8
256,52,92119,1,8
256,80,92405,1,8
256,173,92595,1,8
256,182,92690,1,8
256,275,92881,1,0
416,246,93262,5,0
416,246,93548,1,0
416,246,93833,1,0
305,49,94119,6,0,B|314:100|370:102,1,93.3333333333333,8|0
432,156,94405,2,0,B|446:205|417:245,1,93.3333333333333,8|0
336,241,94690,2,0,B|301:205|248:210,1,93.3333333333333,10|0
169,213,94976,2,0,B|143:260|158:304,1,93.3333333333333,8|0
79,329,95262,2,0,B|40:293|52:244,1,93.3333333333333,8|0
106,184,95547,2,0,B|126:134|181:139,1,93.3333333333333,8|0
236,198,95833,2,0,B|286:208|321:169,1,93.3333333333333,10|0
326,87,96119,1,8
83,45,96404,5,8
102,64,96690,1,8
121,83,96976,1,10
212,97,97166,1,8
212,106,97261,1,8
82,159,97452,1,8
279,293,97833,5,0
279,293,98118,1,2
279,293,98404,1,0
168,80,98690,21,8
62,171,98976,1,2
168,80,99261,1,8
259,59,99452,1,8
259,59,99547,1,10
259,152,99737,1,0
259,152,99833,1,8
396,126,100118,1,10
351,258,100404,1,8
396,126,100690,1,2
175,297,100975,5,8
94,182,101261,1,2
175,297,101547,1,8
258,256,101737,1,8
258,256,101832,1,10
258,162,102023,1,0
258,162,102118,1,8
341,274,102404,1,10
357,257,102499,1,8
372,239,102594,1,8
387,221,102689,1,8
341,274,102975,1,10
258,162,103261,5,8
155,66,103547,1,2
258,162,103832,1,8
327,99,104023,1,8
342,82,104118,1,10
327,164,104308,1,0
341,182,104403,1,8
484,126,104689,1,10
342,169,104975,1,8
266,80,105261,1,2
199,145,105451,1,8
189,152,105499,1,0
180,160,105546,5,8
259,277,105832,1,10
122,310,106118,1,8
224,215,106403,2,8,B|260:206|256:165|288:151,1,93.3333333333333,10|8
327,123,106689,1,8
336,132,106975,1,10
345,141,107260,1,8
354,150,107546,1,10
318,285,107832,5,2
297,296,107927,1,2
274,302,108022,1,2
250,303,108118,1,2
227,298,108213,1,2
204,290,108308,1,2
184,277,108403,1,2
168,259,108498,1,2
155,239,108594,1,2
148,216,108689,1,2
145,192,108784,1,2
148,168,108879,1,2
156,146,108975,1,2
168,126,109070,1,2
183,108,109165,1,2
202,95,109260,1,2
223,86,109356,1,2
245,81,109451,1,2
268,81,109546,1,2
290,87,109641,1,2
311,96,109736,1,2
329,110,109832,1,2
344,127,109927,1,2
356,146,110022,1,2
364,167,110117,5,14
297,366,110403,1,0
148,217,110689,1,8
355,243,110974,1,0
355,221,111117,1,8
170,133,111403,1,8
170,154,111546,1,0
313,294,111831,1,8
199,90,112117,1,8
256,192,112403,12,0,114688
