osu file format v9

[General]
AudioFilename: fall.mp3
AudioLeadIn: 1000
PreviewTime: 37605
Countdown: 0
SampleSet: Soft
StackLeniency: 0.5
Mode: 0
LetterboxInBreaks: 1

[Editor]
DistanceSpacing: 1
BeatDivisor: 3
GridSize: 16

[Metadata]
Title:Click Clock Wood
Artist:Grant Kirkhope
Creator:Odaril
Version:Fall
Source:Banjo-Kazooie
Tags:rare rareware seasons autumn N64 nintendo Banjo Kazooie

[Difficulty]
HPDrainRate:4
CircleSize:4
OverallDifficulty:3
ApproachRate:4
SliderMultiplier:1.12
SliderTickRate:1

[Events]
//Background and Video events
0,0,"fall.jpg"
//Break Periods
//Storyboard Layer 0 (Background)
//Storyboard Layer 1 (Fail)
//Storyboard Layer 2 (Pass)
//Storyboard Layer 3 (Foreground)
//Storyboard Sound Samples
//Background Colour Transformations
3,100,163,162,255

[TimingPoints]
1683,374.718960779415,4,2,2,30,1,0
14306,-100,4,1,1,40,0,0
14556,-100,4,2,2,30,0,0
15806,-100,4,1,1,40,0,0
16056,-100,4,2,2,30,0,0
16556,-100,4,1,1,40,0,0
16806,-100,4,2,2,30,0,0
18055,-100,4,1,1,40,0,0
18305,-100,4,2,2,30,0,0
19555,-100,4,1,1,40,0,0
19805,-100,4,2,2,30,0,0
21055,-100,4,1,1,40,0,0
21305,-100,4,2,2,30,0,0
21805,-100,4,2,2,20,0,0
22055,-100,4,2,2,25,0,0
22430,-100,4,2,2,30,0,0
23305,-100,4,1,1,40,0,0
23555,-100,4,2,2,30,0,0
24430,-100,4,2,2,25,0,0
24805,-100,4,2,2,20,0,0
25180,-100,4,1,1,30,0,0
25555,-100,4,2,2,30,0,0
26304,-100,4,1,1,40,0,0
26554,-100,4,2,2,30,0,0
27804,-100,4,1,1,40,0,0
28054,-100,4,2,2,30,0,0
29304,-100,4,1,1,40,0,0
29554,-100,4,2,2,30,0,0
32304,-100,4,1,1,40,0,0
32554,-100,4,2,2,30,0,0
33803,-100,4,1,1,40,0,0
34053,-100,4,2,2,30,0,0
36428,-100,4,2,2,25,0,0
36803,-100,4,2,2,20,0,0
37178,-100,4,2,2,15,0,0
37553,-100,4,2,2,40,0,0
38303,-100,4,2,1,35,0,0
38553,-100,4,2,2,40,0,0
39803,-100,4,2,1,35,0,0
40053,-100,4,2,2,40,0,0
41303,-100,4,2,1,35,0,0
41553,-100,4,2,2,40,0,0
42677,-100,4,2,1,35,0,0
43427,-100,4,2,2,40,0,0
44302,-100,4,2,1,35,0,0
44552,-100,4,2,2,40,0,0
45802,-100,4,2,1,35,0,0
46052,-100,4,2,2,40,0,0
47302,-100,4,2,1,35,0,0
47552,-100,4,2,2,40,0,0
48802,-100,4,2,1,35,0,0
49052,-100,4,2,2,40,0,0
49552,-100,4,1,1,30,0,0
61550,-100,4,2,2,30,0,0
70924,-100,4,2,2,70,0,0
71174,-100,4,2,2,30,0,0
74298,-100,4,2,1,40,0,0
74548,-100,4,2,2,30,0,0
75798,-100,4,2,1,40,0,0
76048,-100,4,2,2,30,0,0
76548,-100,4,2,1,40,0,0
76798,-100,4,2,2,30,0,0
78048,-100,4,2,1,40,0,0
78298,-100,4,2,2,30,0,0
79548,-100,4,2,1,40,0,0
79798,-100,4,2,2,30,0,0
81048,-100,4,2,1,40,0,0
81298,-100,4,2,2,30,0,0
81797,-100,4,2,2,20,0,0
82172,-100,4,2,2,25,0,0
82547,-100,4,2,2,30,0,0
83297,-100,4,2,1,40,0,0
83547,-100,4,2,2,30,0,0
84422,-100,4,2,2,25,0,0
84797,-100,4,2,2,20,0,0
85172,-100,4,2,2,15,0,0
85547,-100,4,2,2,30,0,0
99795,-100,4,1,1,40,0,0
100045,-100,4,2,2,30,0,0
105755,-100,4,1,1,40,0,0
106005,-100,4,2,2,30,0,0

[Colours]
Combo1 : 254,104,92
Combo2 : 138,17,0
Combo3 : 234,40,6

[HitObjects]
428,80,1683,2,0,B|377:108|316:88,1,112,0|0
211,117,2432,2,0,B|246:152|313:160,1,112
421,185,3181,1,0
318,230,3556,2,0,B|272:229|241:214,1,74.6666666666667
190,76,4306,1,0
36,73,4680,5,0
115,152,5055,1,0
35,231,5430,1,0
114,310,5804,1,0
61,362,6054,1,0
199,306,6554,5,0
247,205,6929,1,0
221,95,7303,1,0
113,64,7678,6,0,B|76:104|10:106,1,112
111,155,8427,2,0,B|64:183|4:179,1,112
95,244,9177,1,0
20,323,9552,2,0,B|49:353|90:348,1,74.6666666666667
222,284,10301,1,0
296,200,10676,5,0
296,200,11050,1,0
296,200,11425,1,0
246,300,11800,2,0,B|325:326,1,74.6666666666667
452,259,12549,5,0
382,171,12924,1,0
311,83,13299,1,0
216,23,13674,6,0,B|171:62|113:61,1,112,4|0
9,104,14423,2,0,B|64:144|131:140,1,112,2|0
218,178,15172,1,4
114,220,15547,2,0,B|52:234|1:198,1,112,0|2
69,294,16297,1,0
165,350,16671,5,2
234,262,17046,1,0
302,350,17421,1,4
373,263,17795,2,0,B|416:220|416:164,1,112,0|2
328,92,18545,6,0,B|275:72|218:88,2,112,0|4|0
256,178,19669,6,0,B|318:193|374:188,1,112,2|0
465,243,20418,2,0,B|423:277|356:273,1,112,4|0
248,261,21168,1,2
143,300,21543,2,0,B|121:241|159:192,1,112,0|4
217,98,22292,1,4
315,44,22667,5,4
394,123,23041,1,0
473,202,23416,1,2
314,360,24166,1,4
207,326,24540,1,4
257,225,24915,1,4
363,259,25290,1,2
404,155,25665,5,12
404,155,26039,1,2
351,56,26414,1,2
239,44,26789,1,6
135,86,27163,2,0,B|84:127|103:196,2,112,12|6|2
125,310,28662,5,4
125,310,29412,1,2
236,298,29786,1,4
327,233,30161,1,12
346,122,30536,2,8,B|238:89,1,112,2|2
126,89,31285,1,0
59,178,31660,5,12
59,178,32035,1,2
170,165,32409,1,2
263,226,32784,1,6
349,155,33159,2,0,B|405:126|462:141,2,112,12|4|2
156,40,34658,5,12
44,52,35032,1,0
132,120,35407,1,4
240,92,35782,1,0
349,114,36157,5,4
257,178,36531,1,4
365,207,36906,1,4
273,272,37281,1,4
167,238,37656,6,0,B|107:246|53:235,1,112,8|2
140,162,38405,2,0,B|197:174|251:157,1,112,8|2
166,82,39154,2,0,B|107:88|55:72,2,112,8|2|8
277,68,40279,1,2
394,89,40653,5,8
394,89,41028,1,2
394,89,41403,1,8
454,183,41777,2,0,B|471:237|451:296,1,112,2|8
266,268,42777,2,8,B|230:240,1,37.3333333333333
173,151,43276,1,8
266,88,43651,6,0,B|320:102|381:102,1,112,8|2
471,162,44400,2,0,B|417:176|356:176,1,112,8|2
266,237,45150,1,8
309,340,45525,1,2
420,338,45899,1,8
488,248,46274,1,2
464,138,46649,5,8
464,138,47023,1,2
464,138,47398,1,8
375,68,47773,2,0,B|319:57|261:75,1,112,2|8
164,125,48522,1,2
78,197,48897,1,8
157,276,49272,1,2
243,204,49647,5,10
472,192,50396,1,8
256,254,51145,1,10
40,192,51895,1,8
214,51,52644,5,8
411,157,53394,1,10
290,346,54143,1,8
92,239,54893,1,10
200,210,55267,1,8
256,113,55642,5,8
480,113,56391,1,10
480,337,57141,1,8
256,337,57890,1,8
170,264,58265,1,10
168,152,58640,5,10
392,152,59389,1,8
168,152,60139,1,10
268,202,60513,1,10
164,244,60888,1,8
268,284,61263,1,8
374,319,61638,6,0,B|431:289|450:239,1,112,8|0
452,127,62387,1,0
365,56,62762,1,2
253,60,63136,1,8
253,60,63511,1,0
253,60,63886,1,0
160,122,64261,1,2
74,194,64635,6,0,B|68:262|124:287,1,112
234,289,65385,1,0
335,242,65759,1,2
446,245,66134,1,8
473,137,66509,2,0,B|456:75|402:57,2,112,0|0|2
446,245,67633,5,0
227,196,68382,1,0
175,295,68757,1,2
175,295,69132,2,0,B|232:308|279:268,1,112,8|0
347,357,69881,2,0,B|405:335|412:271,1,112,0|2
452,168,70631,6,0,B|389:68|265:60,1,224,8|0
162,102,71755,1,0
50,114,72130,1,8
129,193,72504,1,2
208,272,72879,1,0
287,351,73254,1,2
369,274,73629,5,4
479,79,74378,1,2
256,81,75127,1,4
33,79,75877,1,2
143,274,76626,5,2
369,274,77376,1,4
369,49,78125,1,2
143,49,78875,1,4
356,117,79624,5,2
356,340,80373,1,4
131,340,81123,1,2
131,116,81872,1,4
236,79,82247,1,4
313,162,82622,5,4
88,159,83371,1,2
313,162,84121,2,0,B|374:160|421:188,1,112,4|4
410,299,84870,2,0,B|345:306|307:346,1,112,4|4
205,301,85620,6,0,B|143:288|123:229,1,112,10|2
228,191,86369,1,0
228,191,86744,1,0
252,81,87118,2,0,B|313:100|331:154,1,112,10|2
352,264,87868,1,0
352,264,88243,1,0
256,321,88617,5,2
72,192,89367,1,0
256,63,90116,1,2
440,192,90866,1,0
237,287,91615,6,0,B|177:261|167:205,1,112,10|2
201,94,92364,1,0
278,177,92739,1,0
340,84,93114,2,0,B|389:116|390:180,1,112,10|2
350,282,93863,1,0
237,288,94238,1,0
127,266,94613,5,10
252,80,95362,1,0
27,80,96112,1,10
106,159,96486,1,0
185,238,96861,1,0
264,317,97236,1,0
371,348,97611,6,0,B|392:224|295:148,1,224,12|0
195,109,98735,1,4
111,183,99109,2,0,B|80:234|78:292,2,112,12|0|2
255,354,100608,6,0,B|391:368|417:234,1,224,12|0
419,124,101732,1,4
336,48,102107,1,12
223,48,102482,2,0,B|115:104,1,112,2|2
148,209,103231,1,2
123,318,103606,6,0,B|45:296|10:207|63:137,1,224,12|0
148,68,104730,1,4
257,46,105105,2,0,B|314:29|366:62,2,112,12|0|2
426,192,106604,5,12
340,265,106979,1,0
256,192,107353,1,4
256,192,107728,12,8,109602
