osu file format v5

[General]
AudioFilename: 07_-_bubblegloop_swamp.mp3
AudioLeadIn: 0
PreviewTime: 28533
Countdown: 1
SampleSet: Normal
StackLeniency: 0.7
Mode: 0
LetterboxInBreaks: 1
EditorBookmarks: 13190,28533,42639,67741,81736,95953

[Metadata]
Title:Bubblegloop Swamp
Artist:Grant Kirkhope
Creator:kingcobra52
Version:Hard
Source:Banjo-Kazooie
Tags:banjo kazooie

[Difficulty]
HPDrainRate:5
CircleSize:4
OverallDifficulty:5
SliderMultiplier:1.8
SliderTickRate:1

[Events]
//Background and Video events
0,0,"gfs_41748_2_27_mid.jpg"
//Break Periods
2,57278,61360
//Storyboard Layer 0 (Background)
//Storyboard Layer 1 (Failing)
//Storyboard Layer 2 (Passing)
//Storyboard Layer 3 (Foreground)
//Storyboard Sound Samples
//Background Colour Transformations
3,100,163,162,255

[TimingPoints]
14432,444.279896334691,4,1,0,60,1

[Colours]
Combo1 : 128,128,64
Combo2 : 5,240,5
Combo3 : 0,149,0
Combo4 : 128,64,0

[HitObjects]
64,304,14432,1,0
200,303,14765,1,0
240,303,14876,1,8
327,303,15098,2,8,B|365:332|413:300,1,90
416,48,16209,6,0,B|352:88|288:40,1,135
248,40,16653,1,8
160,40,16875,1,8
72,40,17097,1,8
72,328,17986,5,0
72,192,18319,1,0
112,192,18430,2,0,B|152:240|200:216,1,90,0|2
272,184,18874,1,2
408,304,19319,2,0,B|464:352,4,45
432,216,19985,5,0
456,128,20207,1,0
416,48,20429,1,8
328,48,20651,2,0,B|232:48,1,90,0|8
232,136,21096,2,0,B|136:136,1,90,0|8
72,192,21540,6,0,B|80:240|112:280|168:288,1,135
200,288,21984,1,8
272,240,22206,1,8
344,288,22429,1,8
448,48,23317,5,0
312,48,23650,1,0
264,48,23761,2,0,B|225:30|185:78,1,90,0|2
136,152,24206,1,2
136,328,24650,2,0,B|200:328,4,45
256,264,25427,5,0
288,232,25538,1,0
352,168,25761,2,0,B|320:120|360:64,1,90
56,64,26871,6,0,B|160:64,1,90
232,64,27316,1,0
232,152,27538,1,0
144,152,27760,2,0,B|40:224,1,90,0|8
128,272,28204,2,0,B|184:352,1,90,0|8
272,344,28648,6,2,B|328:352|368:336|392:288,1,135
408,256,29093,1,2
440,168,29315,1,2
424,80,29537,1,2
344,32,29759,2,0,B|328:8|296:32,4,45
320,120,30426,6,2,B|336:184|304:216|248:224,1,135
216,240,30870,1,2
128,200,31092,1,2
80,120,31314,1,2
144,56,31536,2,0,B|168:38|184:62,4,45
232,64,32203,6,0,B|239:107|279:147|343:147,1,135
368,144,32647,1,2
432,200,32869,1,2
407,287,33091,2,0,B|320:320,1,90,0|8
232,320,33536,2,0,B|128:288,1,90,0|8
144,200,33980,6,0,B|112:128|8:144,1,135,0|0
32,96,34424,1,0
104,40,34646,1,0
176,95,34868,2,0,B|214:119|262:87,1,90,0|8
336,40,35313,1,8
416,88,35535,1,8
456,168,35757,6,0,B|488:248|400:288,1,135
368,296,36201,1,0
304,232,36423,1,0
240,168,36645,2,2,B|176:88,1,90
96,128,37090,2,2,B|168:216,1,90
120,280,37534,6,2,B|145:328|193:352|249:336,1,135
272,328,37978,1,2
344,272,38200,1,8
376,192,38423,2,2,B|312:112|192:160,1,180,2|10
160,328,39311,6,0,B|136:248|80:352|48:264,1,135
32,232,39755,1,0
96,168,39978,1,0
128,80,40200,1,0
208,32,40422,1,8
296,56,40644,1,0
352,128,40866,1,8
368,216,41088,6,4,B|320:320|192:272,1,180
112,136,41977,2,4,B|160:240|288:192,1,180
424,280,42865,5,0
288,280,43199,1,0
240,280,43310,1,8
240,192,43532,2,8,B|288:160|344:200,1,90
56,64,44643,6,0,B|80:112|128:120|168:80,1,135
208,56,45087,1,8
280,112,45309,1,8
352,56,45531,1,8
440,328,46420,5,0
312,280,46753,1,0
272,264,46864,2,0,B|232:216|176:240,1,90,0|2
104,208,47308,1,2
176,40,47752,2,0,B|128:16,4,45
256,72,48419,5,0
336,112,48641,1,0
368,192,48863,1,0
344,280,49085,2,0,B|264:328,1,90,0|8
176,328,49530,2,0,B|104:272,1,90,0|8
32,216,49974,6,0,B|0:176|0:120|56:80,1,135
72,72,50418,1,8
144,16,50640,1,8
216,72,50862,1,8
480,216,51751,6,0,B|512:176|512:120|456:80,1,135
440,72,52195,1,2
368,16,52417,1,2
296,72,52640,1,2
256,248,53084,2,0,B|256:304,4,45
136,304,53861,5,0
88,304,53972,1,0
88,216,54195,2,0,B|117:179|85:131,1,90
464,192,55305,6,0,B|368:192,1,90
304,248,55750,1,0
232,304,55972,1,0
160,248,56194,2,0,B|137:292|81:268,1,90,0|8
88,176,56638,2,0,B|48:136|0:160,1,90,0|8
8,64,57082,1,4
256,192,62414,12,4,67745
256,192,68078,5,0
216,192,68189,1,8
129,192,68412,2,8,B|91:163|43:195,1,90
168,336,69522,6,0,B|232:296|296:344,1,135
336,344,69966,1,8
408,288,70189,1,8
480,344,70411,1,8
480,40,71299,5,0
384,136,71633,1,0
384,88,71744,2,0,B|344:40|296:64,1,90,0|2
256,136,72188,1,2
96,56,72632,2,0,B|32:8,4,45
72,144,73299,5,0
48,232,73521,1,0
88,312,73743,1,8
176,336,73965,2,0,B|272:336,1,90,0|8
264,248,74409,2,0,B|174:248,1,90,0|8
176,160,74854,6,0,B|224:152|264:120|272:64,1,135
280,32,75298,1,8
368,56,75520,1,8
424,128,75742,1,8
112,312,76631,5,0
208,224,76964,1,0
208,264,77075,2,0,B|247:282|287:234,1,90,0|2
352,176,77519,1,2
208,72,77964,2,0,B|144:72,4,45
104,160,78741,5,0
56,160,78852,1,0
56,247,79074,2,0,B|94:276|142:244,1,90
456,296,80185,6,0,B|360:328,1,90
280,312,80629,1,0
224,240,80851,1,0
144,200,81073,2,0,B|32:248,1,90,0|8
56,144,81518,2,0,B|144:104,1,90,0|8
223,95,81962,6,2,B|244:55|284:39|340:47,1,135
384,64,82406,1,2
440,128,82628,1,2
424,216,82851,1,2
472,296,83073,2,0,B|488:320|520:296,4,45
407,359,83739,6,2,B|402:316|370:284|306:300,1,135
264,312,84183,1,2
176,280,84406,1,2
96,312,84628,1,2
16,263,84850,2,0,B|-1:287|21:301,4,45
80,200,85516,6,0,B|128:224|184:208|208:144,1,135
216,128,85961,1,2
280,72,86183,1,2
360,104,86405,2,0,B|384:56|447:71,1,90,0|8
456,152,86849,2,0,B|456:200|400:216,1,90,0|8
319,255,87293,6,0,B|312:336|232:344,1,135,0|0
192,336,87738,1,0
112,288,87960,1,0
80,200,88182,2,0,B|56:162|88:114,1,90,0|8
144,48,88626,1,8
232,32,88848,1,8
296,88,89071,6,0,B|264:168|352:208,1,135
384,200,89515,1,0
472,200,89737,1,0
424,280,89959,2,2,B|336:360,1,90
264,336,90403,2,2,B|192:272,1,90
256,208,90848,6,2,B|231:160|183:136|127:152,1,135
104,168,91292,1,2
32,104,91514,1,8
80,24,91736,2,2,B|144:104|264:56,1,180,2|10
360,192,92625,6,0,B|408:176|456:200|464:256,1,135
464,296,93069,1,0
376,296,93291,1,0
288,296,93513,1,0
224,360,93735,1,8
160,296,93958,1,0
96,360,94180,1,8
40,288,94402,6,4,B|88:184|216:232,1,180
368,224,95290,2,4,B|472:176|424:48,1,180
256,56,96179,5,4
