osu file format v6

[General]
AudioFilename: Grant Kirkhope - Angry Aztec.mp3
AudioLeadIn: 496
PreviewTime: 4652
Countdown: 0
SampleSet: Normal
StackLeniency: 0.7
Mode: 0
LetterboxInBreaks: 0

[Editor]
DistanceSpacing: 0.800000011920929
BeatDivisor: 4
GridSize: 8

[Metadata]
Title:Angry Aztec
Artist:Grant Kirkhope
Creator:James2250
Version:YOSHI Mix
Source:Donkey Kong 64
Tags:Starrodkirby86 YoshiKart

[Difficulty]
HPDrainRate:8
CircleSize:4
OverallDifficulty:5
SliderMultiplier:2.5
SliderTickRate:2

[Events]
//Background and Video events
0,0,"Angry Aztec.jpg"
//Break Periods
2,22656,30158
2,67166,74668
2,93872,101374
2,111537,119179
//Storyboard Layer 0 (Background)
//Storyboard Layer 1 (Fail)
//Storyboard Layer 2 (Pass)
//Storyboard Layer 3 (Foreground)
Sprite,Foreground,Centre,"Creators\YoshiKart.png",317,319 M,0,157,,317,319 F,0,157,,1 S,0,157,3012,0.3456,4 F,0,1380,3012,1,0
Sprite,Foreground,Centre,"Creators\YK Avatar.png",320,193 M,0,157,3012,350,222,290,222 S,0,157,3012,1,1.5 F,0,1380,3012,1,0
Sprite,Foreground,Centre,"DK64Textures\DKTV.png",43,54 F,0,3539,4652,0,1 M,1,22734,23290,43,54,43,17 M,1,29828,30384,43,17,43,54 M,1,67244,67801,43,54,43,17 M,1,74338,74894,43,17,43,54 M,1,93950,94507,43,54,43,17 M,1,101044,101601,43,17,43,54 M,1,111616,112172,43,54,43,17 M,1,118848,119405,43,17,43,54 F,0,138739,139852,1,0
Sprite,Foreground,Centre,"DK64Textures\DKTV.png",43,54 L,4652,61 F,1,0,1112,1,0 S,1,0,1112,1,1.5 F,0,1112,2225,0 M,1,22734,23290,43,54,43,17 M,1,29828,30384,43,17,43,54 M,1,67244,67801,43,54,43,17 M,1,74338,74894,43,17,43,54 M,1,93950,94507,43,54,43,17 M,1,101044,101601,43,17,43,54 M,1,111616,112172,43,54,43,17 M,1,118848,119405,43,17,43,54
Animation,Foreground,Centre,"Yoshi\walk.png",-30,240,4,200,LoopForever F,0,23568,,1 S,0,23568,,2 M,0,23568,29132,-30,240,670,240
Animation,Foreground,Centre,"Yoshi\walk.png",-30,240,4,200,LoopForever S,0,112589,,2 M,0,112589,114815,670,300,320,300 P,0,112589,114815,H
Animation,Foreground,Centre,"Yoshi\look.png",320,300,2,800,LoopForever S,0,114815,115927,2
Sprite,Foreground,Centre,"Yoshi\jump0.png",320,300 S,0,115927,,2 M,1,115927,117040,320,300,320,200
Sprite,Foreground,Centre,"Yoshi\jump1.png",320,300 S,0,117040,,2 M,2,117040,117597,320,200,320,225
Animation,Foreground,Centre,"Yoshi\flutter.png",320,300,2,150,LoopForever S,0,117597,,2 M,1,117597,118153,320,225,320,112 F,0,118569,,1 F,0,118570,,0 M,2,118153,119266,320,112,320,300
Sprite,Foreground,Centre,"Yoshi\land1.png",320,150 S,0,118153,,2 F,0,118569,,0 F,0,118570,,1 M,2,118153,119266,320,112,320,300
Animation,Foreground,Centre,"Yoshi\happy.png",320,300,17,300,LoopForever F,0,119266,,1 S,0,119266,,2 F,0,124273,,0
Animation,Foreground,Centre,"Yoshi\run.png",320,300,2,150,LoopForever S,0,124273,,2 M,2,124273,126499,320,300,670,300
Animation,Foreground,Centre,"Yoshi\run.png",-30,240,2,100,LoopForever M,2,68635,70304,670,240,-30,240 P,0,68635,70304,H S,0,70304,,2
Animation,Foreground,Centre,"Yoshi\jump.png",-30,240,2,700,LoopForever S,0,95898,,2 M,2,95898,97011,-60,240,320,190
Animation,Foreground,Centre,"Yoshi\land.png",-30,240,2,700,LoopForever S,0,97011,,2 M,1,97011,98124,320,190,700,240
Sprite,Foreground,BottomCentre,"Yoshi\banana.png",320,142 S,0,97011,,1.8 M,0,97011,98011,320,142,320,111 F,1,99792,100905,1,0 F,1,111616,112589,0,1 F,0,118153,,0
Sprite,Foreground,BottomCentre,"Yoshi\block.png",320,142 L,97011,1 M,0,0,100,320,142,320,138 M,0,100,200,320,138,320,142 F,1,94785,95898,0,1 F,1,99792,100905,1,0
//Storyboard Sound Samples
//Background Colour Transformations
3,100,163,162,255

[TimingPoints]
4652,556.379821958457,4,1,0,35,1,0
43042,-200,4,1,0,35,0,0
43598,-100,4,1,0,35,0,0
51944,-200,4,1,0,35,0,0
52500,-100,4,1,0,35,0,0
138183,-100,4,1,0,35,0,1
139295,-100,4,1,0,35,0,0

[Colours]
Combo1 : 0,255,0
Combo2 : 255,255,0
Combo3 : 255,0,0
Combo4 : 128,0,128
Combo5 : 0,0,255

[HitObjects]
64,64,4652,5,4
160,64,4930,1,0
256,64,5208,1,8
304,64,5347,1,0
352,64,5486,1,0
400,64,5625,1,0
448,64,5764,1,0
448,160,6042,1,0
448,256,6321,2,0,B|368:160|304:336|224:240,1,250,0|4
352,64,7155,5,0
256,64,7433,1,8
208,64,7572,1,0
160,64,7712,1,0
112,64,7851,1,0
64,64,7990,1,0
64,160,8268,2,0,B|96:208|64:288,2,125
256,192,9103,5,4
256,336,9381,5,0
352,320,9659,1,8
304,288,9798,1,0
256,272,9937,1,0
208,288,10076,1,0
160,320,10215,1,0
208,192,10493,1,0
304,192,10772,1,8
256,112,11328,5,2
144,176,11606,1,2
144,176,11745,1,0
144,176,11884,2,0,B|144:16|369:3|368:192,1,375
464,192,12997,2,0,B|464:272,3,62.5,0|0|0|0
448,320,13554,5,4
352,320,13832,1,0
256,320,14110,1,8
208,320,14249,1,0
160,320,14388,1,0
112,320,14527,1,0
64,320,14666,1,0
64,224,14945,1,0
64,128,15223,2,0,B|144:224|208:48|288:144,1,250,0|4
160,320,16057,5,0
256,320,16335,1,8
304,320,16474,1,0
352,320,16613,1,0
400,320,16753,1,0
448,320,16892,1,0
448,224,17170,2,0,B|416:176|448:96,2,125
256,192,18005,5,4
256,48,18283,5,0
160,64,18561,1,8
208,96,18700,1,0
256,112,18839,1,0
304,96,18978,1,0
352,64,19117,1,0
304,192,19396,1,0
208,192,19674,1,8
256,272,20230,5,2
368,208,20508,1,2
368,208,20647,1,0
368,208,20787,2,0,B|368:368|143:381|144:192,1,375
256,192,21899,2,0,B|256:112,3,62.5,0|0|0|0
256,80,22456,5,4
64,64,31358,5,4
160,64,31636,1,0
256,64,31914,1,8
304,64,32054,1,0
352,64,32193,1,0
400,64,32332,1,0
448,64,32471,1,0
448,160,32749,1,0
448,256,33027,2,0,B|368:160|304:336|224:240,1,250,0|4
352,64,33861,5,0
256,64,34140,1,8
208,64,34279,1,0
160,64,34418,1,0
112,64,34558,1,0
64,64,34697,1,0
64,160,34974,2,0,B|96:208|64:288,2,125
256,192,35809,5,4
256,336,36087,5,0
352,320,36365,1,8
304,288,36504,1,0
256,272,36643,1,0
208,288,36782,1,0
160,320,36922,1,0
208,192,37200,1,0
304,192,37478,1,8
256,112,38034,5,2
144,176,38313,1,2
144,176,38452,1,0
144,176,38591,2,0,B|144:16|369:3|368:192,1,375
256,192,39703,2,0,B|256:272,3,62.5,0|0|0|0
256,320,40260,5,4
352,320,40538,1,8
448,320,40816,1,0
464,272,40956,1,8
448,224,41095,1,8
464,176,41234,1,8
448,128,41373,1,0
352,160,41651,1,8
352,64,41929,1,0
352,160,42207,1,8
256,112,42485,5,4
256,208,42764,1,0
256,208,42903,1,0
256,208,43042,2,2,B|256:336,1,125
192,208,43876,5,2
192,208,44154,1,0
192,304,44433,1,0
64,320,44711,5,0
48,272,44850,1,8
64,224,44989,1,8
48,176,45129,1,8
64,128,45268,1,0
160,160,45545,1,8
176,64,45824,2,0,B|256:128|352:64,1,187.5
349,65,46380,1,8
448,64,46658,1,0
480,336,46936,6,2,B|400:336|400:240,1,125
328,256,47493,2,2,B|248:256|248:160,1,125
200,256,48049,2,2,B|120:256|120:160,1,125
112,304,48606,2,2,B|32:304|32:208,1,125
256,320,49162,5,4
160,320,49440,1,8
64,320,49718,1,0
48,272,49857,1,8
64,224,49996,1,8
48,176,50136,1,8
64,128,50275,1,0
160,160,50553,1,8
160,64,50831,1,0
160,160,51109,1,8
256,112,51387,5,4
256,208,51666,1,0
256,208,51805,1,0
256,208,51944,2,2,B|256:336,1,125
320,208,52778,5,2
320,208,53057,1,0
320,304,53335,1,0
448,320,53613,5,0
464,272,53752,1,8
448,224,53891,1,8
464,176,54031,1,8
448,128,54170,1,0
352,160,54447,1,8
336,64,54726,2,0,B|256:128|160:64,1,187.5
162,65,55282,1,8
64,64,55560,1,0
64,160,55838,2,0,B|144:224|240:160,1,187.5,4|0
237,161,56395,1,8
336,160,56673,1,0
336,256,56951,5,2
256,320,57229,1,2
176,256,57508,1,10
256,192,57786,1,2
64,64,58064,5,4
160,64,58342,1,0
256,64,58620,1,8
304,64,58760,1,0
352,64,58899,1,0
400,64,59038,1,0
448,64,59177,1,0
448,160,59455,1,0
448,256,59733,2,0,B|368:160|304:336|224:240,1,250,0|4
352,64,60568,5,0
256,64,60845,1,8
208,64,60984,1,0
160,64,61123,1,0
112,64,61262,1,0
64,64,61402,1,0
64,160,61680,2,0,B|96:208|64:288,2,125
256,192,62515,5,4
256,336,62793,5,0
352,320,63071,1,8
304,288,63211,1,0
256,272,63350,1,0
208,288,63489,1,0
160,320,63628,1,0
208,192,63906,1,0
304,192,64184,1,8
256,112,64741,5,2
144,176,65019,1,2
144,176,65158,1,0
144,176,65297,2,0,B|144:16|369:3|368:192,1,375
256,192,66410,1,0
256,240,66549,1,0
256,288,66688,1,0
256,336,66827,1,0
256,336,66966,5,4
0,368,75868,5,4
64,304,76146,1,0
96,256,76285,1,0
128,208,76425,1,8
160,160,76564,1,0
192,112,76703,1,0
224,64,76842,1,0
256,16,76981,1,10
288,64,77120,1,0
320,112,77259,1,0
352,160,77398,1,0
384,208,77537,1,8
416,256,77676,1,0
448,304,77815,1,0
480,352,77955,1,0
416,352,78094,5,0
328,256,78372,1,8
240,168,78650,1,2
152,256,78928,1,8
72,352,79206,1,0
152,256,79485,1,8
240,168,79763,1,2
328,256,80041,1,8
488,360,80319,5,4
440,280,80597,1,0
408,232,80736,1,0
376,184,80875,1,8
344,136,81015,1,0
312,88,81154,1,0
280,40,81293,1,0
248,88,81432,1,10
216,40,81571,1,0
160,40,81710,2,4,B|112:120|176:168,2,125
256,192,82545,12,0,84214
512,368,84770,5,4
448,304,85048,1,0
416,256,85187,1,0
384,208,85327,1,8
352,160,85466,1,0
320,112,85605,1,0
288,64,85744,1,0
256,16,85883,1,10
224,64,86022,1,0
192,112,86161,1,0
160,160,86300,1,0
128,208,86439,1,8
96,256,86578,1,0
64,304,86718,1,0
32,352,86857,1,0
96,352,86996,5,0
184,264,87274,1,8
280,184,87552,1,2
376,264,87830,1,8
464,352,88108,1,0
376,264,88387,1,8
280,184,88665,1,2
184,264,88943,1,8
0,368,89221,5,4
64,304,89499,1,0
96,256,89638,1,0
128,208,89777,1,8
160,160,89917,1,0
192,112,90056,1,0
224,64,90195,1,0
256,16,90334,1,10
288,64,90473,1,0
336,32,90612,2,0,B|368:80,8,41.6666666666667,0|0|0|0|0|0|0|0|0
256,192,91447,12,4,93672
448,112,102574,5,4
368,64,102853,1,0
272,64,103130,1,8
224,48,103269,1,0
176,64,103409,1,8
128,80,103548,1,0
80,64,103687,5,4
80,160,103965,1,0
176,160,104243,1,8
224,144,104382,1,0
272,160,104521,1,8
320,176,104660,1,0
368,160,104800,5,4
368,256,105078,1,0
272,256,105356,1,8
224,240,105495,1,0
176,256,105634,1,8
128,272,105773,1,0
80,256,105913,5,4
80,352,106191,1,0
176,352,106469,1,8
224,336,106608,1,0
272,352,106747,1,8
320,368,106886,1,0
368,352,107025,5,4
464,352,107304,1,0
448,256,107582,1,8
400,240,107721,1,0
352,224,107860,1,8
304,208,108000,1,0
256,192,108139,1,4
256,288,108416,5,0
64,256,108695,5,8
112,240,108834,1,0
160,224,108973,1,8
208,208,109112,1,0
256,192,109251,1,4
208,96,109529,5,2
256,80,109669,1,2
304,96,109808,1,2
160,336,110920,1,0
224,336,111059,1,0
288,336,111198,1,0
352,336,111337,1,0
64,64,120379,5,4
160,64,120657,1,0
256,64,120935,1,8
304,64,121074,1,0
352,64,121213,1,0
400,64,121353,1,0
448,64,121492,1,0
448,160,121769,1,0
448,256,122048,2,0,B|368:160|304:336|224:240,1,250,0|4
352,64,122882,5,0
256,64,123160,1,8
208,64,123300,1,0
160,64,123439,1,0
112,64,123578,1,0
64,64,123717,1,0
64,160,123995,2,0,B|96:208|64:288,2,125
256,192,124830,5,4
256,336,125108,5,0
352,320,125386,1,8
304,288,125525,1,0
256,272,125664,1,0
208,288,125804,1,0
160,320,125943,1,0
208,192,126220,1,0
304,192,126499,1,8
256,112,127055,5,2
144,176,127333,1,2
144,176,127472,1,0
144,176,127611,2,0,B|144:16|369:3|368:192,1,375
256,192,128723,1,0
224,240,128863,1,0
192,288,129002,1,0
160,336,129141,1,0
0,368,129281,5,4
56,304,129559,1,0
88,256,129698,1,0
120,208,129837,1,8
152,160,129976,1,0
184,112,130115,1,0
216,64,130255,1,0
248,16,130394,1,10
280,64,130533,1,0
312,112,130672,1,0
344,160,130811,1,0
376,208,130950,1,8
408,256,131089,1,0
440,304,131228,1,0
376,352,131367,5,0
280,304,131645,1,8
184,352,131923,1,2
88,304,132202,1,8
88,304,132480,1,0
184,352,132758,1,8
280,304,133036,1,2
376,352,133314,1,8
472,304,133593,1,8
512,368,133732,5,4
448,304,134010,1,0
416,256,134149,1,0
384,208,134288,1,8
352,160,134427,1,0
320,112,134566,1,0
288,64,134706,1,0
256,16,134845,1,10
224,64,134983,1,0
176,32,135123,2,0,B|128:96|176:144|208:176,2,125,0|8|0
80,48,135818,5,0
80,144,136096,1,8
80,240,136375,1,2
80,336,136653,1,8
176,336,136931,1,0
176,240,137209,1,8
176,144,137487,1,2
176,48,137765,1,0
256,192,138044,1,0
256,192,138183,5,4
