osu file format v6

[General]
AudioFilename: Grant Kirkhope - Angry Aztec1.mp3
AudioLeadIn: 474
PreviewTime: 4652
Countdown: 0
SampleSet: Normal
StackLeniency: 0.7
Mode: 0
LetterboxInBreaks: 0

[Editor]
DistanceSpacing: 1
BeatDivisor: 4
GridSize: 8

[Metadata]
Title:Angry Aztec
Artist:Grant Kirkhope
Creator:James2250
Version:Normal
Source:Donkey Kong 64
Tags:Starrodkirby86 YoshiKart

[Difficulty]
HPDrainRate:3
CircleSize:5
OverallDifficulty:4
SliderMultiplier:1.5
SliderTickRate:2

[Events]
//Background and Video events
0,0,"Angry Aztec.jpg"
//Break Periods
2,49114,51488
2,73316,74578
//Storyboard Layer 0 (Background)
//Storyboard Layer 1 (Fail)
//Storyboard Layer 2 (Pass)
//Storyboard Layer 3 (Foreground)
Sprite,Foreground,Centre,"Creators\James2250.png",317,319 M,0,157,,317,319 F,0,157,,1 S,0,157,3012,0.3456,4 F,0,1380,3012,1,0
Sprite,Foreground,Centre,"Creators\James Avatar.png",320,193 M,0,157,3012,320,233,320,193 F,0,1380,3012,1,0
Sprite,Foreground,Centre,"DK64Textures\DKTV.png",43,54 F,0,3539,4652,0,1 M,1,49162,49718,43,54,43,17 M,1,51387,51944,43,17,43,54 M,1,73364,73921,43,54,43,17 M,1,74477,75034,43,17,43,54 F,0,94229,95341,1,0
Sprite,Foreground,Centre,"DK64Textures\DKTV.png",43,54 L,4652,41 F,1,0,1112,1,0 S,1,0,1112,1,1.5 F,0,1112,2225,0 M,1,49162,49718,43,54,43,17 M,1,51387,51944,43,17,43,54 M,1,73364,73921,43,54,43,17 M,1,74477,75034,43,17,43,54
Animation,Foreground,Centre,"Toon Link\run.png",0,0,4,150,LoopForever S,0,49718,,2 M,2,49718,51944,-30,240,670,240
Animation,Foreground,Centre,"Toon Link\run.png",0,0,4,150,LoopForever S,0,73643,,2 M,2,73643,75312,670,240,-30,240 P,0,73643,75312,H
//Storyboard Sound Samples
//Background Colour Transformations
3,100,163,162,255

[TimingPoints]
4682,556.379821958457,4,1,0,34,1,0

[Colours]
Combo1 : 0,255,0
Combo2 : 255,255,0
Combo3 : 255,0,0
Combo4 : 128,0,255
Combo5 : 0,0,255

[HitObjects]
408,72,4682,1,8
328,72,4960,1,0
248,72,5238,1,2
168,72,5516,2,0,B|168:168,2,75,0|8|0
168,147,6351,1,2
328,304,7185,5,0
248,304,7463,2,0,B|248:152,1,150,8|2
248,155,8298,1,0
288,88,8576,1,0
328,152,8854,1,2
328,304,9411,5,0
248,304,9689,1,8
168,304,9967,1,0
88,304,10245,2,8,B|88:128|88:128,1,150,8|0
248,152,11358,1,0
248,72,11636,2,0,B|360:72,1,75,0|4
104,272,13027,2,0,B|104:368,2,75,8|0|8
176,272,13862,5,0
248,272,14140,2,0,B|248:328,2,37.5,2|0|0
320,272,14696,1,8
320,200,14975,1,0
392,200,15253,1,0
192,104,16087,5,0
112,104,16365,2,0,B|112:184,2,75,2|0|2
32,104,17200,1,0
32,176,17478,1,0
32,248,17756,1,2
192,248,18313,5,0
264,248,18591,2,8,B|288:224|288:224|304:256|304:256|336:224|336:224|360:256|360:256|384:224|384:224|408:256|408:256|432:224|432:224|464:264,1,300,0|0
448,96,20260,1,8
368,96,20538,2,0,B|368:168,2,37.5,0|0|4
208,352,21929,2,8,B|56:352|56:352|56:352,1,150
56,272,22764,5,0
128,272,23042,2,8,B|280:272,1,150,8|8
352,272,23877,1,0
352,200,24155,1,4
128,200,24989,5,0
128,128,25268,2,8,B|192:72|272:48|280:48|272:48,2,150,2|0|2
48,128,26659,1,0
48,288,27215,5,0
120,288,27493,2,8,B|280:288,1,150,2|0
272,208,28328,1,0
272,128,28606,1,4
416,128,29162,5,8
416,208,29440,1,0
416,288,29719,1,4
112,284,30831,2,0,B|112:180,2,75
112,208,31666,5,0
184,208,31944,2,8,B|184:376,1,150
256,360,32779,1,0
256,288,33057,1,4
416,112,33891,5,0
336,112,34170,2,8,B|336:256|336:264,1,150
256,264,35004,1,2
256,187,35282,1,10
256,112,35561,1,2
104,112,36117,5,0
32,112,36395,2,0,B|32:8,4,75,8|0|8|0|8
32,264,38064,1,2
32,336,38342,2,0,B|88:336,2,37.5,0|0|4
328,280,39733,2,0,B|328:384,2,75,8|0|8
328,200,40568,5,0
328,120,40846,2,8,B|408:160|472:184|472:184|472:184|472:184,2,150,2|8|2
248,120,42237,1,0
176,120,42515,1,8
176,192,42794,1,0
104,192,43072,1,4
295,294,43906,1,0
367,294,44184,1,8
367,217,44463,1,0
367,137,44741,6,0,B|415:137,4,37.5,2|0|0|0|10
367,62,45575,1,0
287,62,45854,1,0
136,64,46410,2,0,B|136:176,1,75,8|0
136,216,46966,5,2
208,216,47245,1,2
280,216,47523,2,0,B|280:312,1,75,8|2
352,288,48079,2,0,B|352:176,1,75,8|2
424,216,48636,2,0,B|424:328,1,75,8|2
136,88,52808,5,2
136,160,53087,1,0
208,160,53365,1,2
280,160,53643,6,0,B|280:88,4,37.5,0|0|0|0|8
280,232,54477,1,0
352,232,54756,1,0
480,312,55312,6,8,B|312:312,1,150,8|0
256,312,56147,1,0
179,311,56425,1,8
104,312,56703,1,0
104,232,56981,6,8,B|288:232,1,150,0|8
256,152,57816,1,0
328,152,58094,5,0
328,72,58372,1,0
248,72,58650,2,0,B|144:72,4,75,8|0|0|0|8
336,272,60598,5,0
408,272,60876,1,2
408,344,61154,1,0
336,344,61432,2,0,B|248:344,2,75,2|0|2
336,272,62267,1,0
336,120,62823,5,0
264,120,63101,1,8
264,192,63380,1,0
192,192,63658,2,8,B|8:192,1,150,8|0
40,344,64771,1,2
112,344,65049,1,0
184,344,65327,1,4
384,96,66440,6,0,B|488:96,2,75,0|0|0
384,168,67274,1,2
384,240,67552,1,0
304,240,67831,1,2
224,240,68109,2,8,B|184:272|184:272|232:312|232:312|184:344|184:344|184:344|184:344|184:344|184:344|184:344,1,150,0|0
112,128,69500,5,2
112,200,69778,1,0
184,200,70056,1,2
256,200,70334,2,0,B|232:176|232:176|256:160|256:160|224:136|224:136|256:120|256:120|224:96|224:96|248:80|248:80|224:64|224:64|224:64,1,225,0|0
384,72,71725,5,0
384,144,72003,1,8
384,216,72282,1,0
384,288,72560,2,8,B|312:256|216:344|224:344|224:344,1,150,8|4
256,208,75898,12,4,77567
64,112,78124,5,0
136,112,78402,1,0
208,112,78680,1,10
280,112,78958,1,0
352,112,79236,1,10
352,184,79515,2,0,B|256:184,2,75,0|10|0
256,208,80349,12,4,82018
168,56,82575,5,0
240,56,82853,1,0
320,56,83131,2,0,B|320:160,1,75,10|0
320,208,83687,1,10
248,208,83966,1,0
176,208,84244,2,0,B|176:296,1,75,10|0
256,208,84800,12,4,86469
360,288,87026,5,0
288,288,87304,1,0
288,216,87582,1,10
216,216,87860,1,0
216,288,88138,1,10
136,288,88417,1,0
136,216,88695,1,10
136,144,88973,1,0
208,144,89251,6,8,B|384:144,3,150,0|8|0|8
432,144,91199,1,2
432,72,91477,5,10
360,72,91755,2,0,B|264:72,1,75,0|8
208,72,92311,1,2
128,72,92590,1,10
56,72,92868,2,0,B|56:160,1,75,0|8
56,224,93424,1,2
56,296,93702,1,4
