osu file format v6

[General]
AudioFilename: Grant Kirkhope - Angry Aztec1.mp3
AudioLeadIn: 496
PreviewTime: 4652
Countdown: 0
SampleSet: Normal
StackLeniency: 0.7
Mode: 0
LetterboxInBreaks: 0

[Editor]
DistanceSpacing: 1
BeatDivisor: 4
GridSize: 8

[Metadata]
Title:Angry Aztec
Artist:Grant Kirkhope
Creator:James2250
Version:Hard
Source:Donkey Kong 64
Tags:Starrodkirby86 YoshiKart

[Difficulty]
HPDrainRate:7
CircleSize:5
OverallDifficulty:7
SliderMultiplier:1.8
SliderTickRate:2

[Events]
//Background and Video events
0,0,"Angry Aztec.jpg"
//Break Periods
2,65527,68600
//Storyboard Layer 0 (Background)
//Storyboard Layer 1 (Fail)
//Storyboard Layer 2 (Pass)
//Storyboard Layer 3 (Foreground)
Sprite,Foreground,Centre,"Creators\James2250.png",317,319 M,0,157,,317,319 F,0,157,,1 S,0,157,3012,0.3456,4 F,0,1380,3012,1,0
Sprite,Foreground,Centre,"Creators\James Avatar.png",320,193 M,0,157,3012,320,233,320,193 F,0,1380,3012,1,0
Sprite,Foreground,Centre,"DK64Textures\DKTV.png",43,54 F,0,3539,4652,0,1 M,1,65575,66131,43,54,43,17 M,1,68635,69192,43,17,43,54 F,0,94229,95341,1,0
Sprite,Foreground,Centre,"DK64Textures\DKTV.png",43,54 L,4652,41 F,1,0,1112,1,0 S,1,0,1112,1,1.5 F,0,1112,2225,0 M,1,65575,66131,43,54,43,17 M,1,68635,69192,43,17,43,54
Animation,Foreground,Centre,"Toon Link\triforce.png",330,250,2,100,LoopForever F,0,65853,66410,0,1 S,0,66410,,2 F,2,68635,69192,1,0
Sprite,Foreground,Centre,"Toon Link\diddy.png",355,265 L,65853,20 M,0,0,200,355,265 M,0,200,400,-100,-100 F,0,65853,66410,0,1 S,0,66410,,2 P,0,65853,69192,H F,2,68635,69192,1,0
Animation,Foreground,TopCentre,"Toon Link\final.png",310,235,14,100,LoopForever F,0,65853,66410,0,1 S,0,66410,,2 F,2,68635,69192,1,0
//Storyboard Sound Samples
//Background Colour Transformations
3,100,163,162,255

[TimingPoints]
4682,556.379821958457,4,1,0,35,1,0

[Colours]
Combo1 : 0,255,0
Combo2 : 255,255,0
Combo3 : 255,0,0
Combo4 : 128,0,255
Combo5 : 0,0,255

[HitObjects]
440,64,4682,1,8
440,152,4960,1,0
440,240,5238,1,8
392,240,5377,1,0
344,240,5516,1,0
296,240,5655,1,0
248,240,5794,1,8
248,152,6072,1,0
248,64,6351,1,8
160,64,6629,5,2
72,64,6907,1,2
72,152,7185,5,0
72,240,7463,1,8
96,280,7602,1,0
128,312,7742,1,0
160,280,7881,1,0
192,240,8020,1,8
280,240,8298,1,2
280,328,8576,1,10
368,328,8854,1,0
360,144,9411,5,0
448,144,9689,2,0,B|448:256,4,90,8|0|8|0|8
264,144,11358,1,0
176,96,11636,1,0
176,144,11775,1,0
136,120,11914,1,4
448,304,13027,2,0,B|448:360,4,45,0|0|0|0|0
360,304,13862,5,0
272,304,14140,1,2
240,336,14279,1,0
208,368,14418,1,0
160,368,14557,1,0
120,368,14696,1,2
88,336,14835,1,0
56,304,14975,1,0
56,216,15253,1,4
144,216,15531,5,8
144,128,15809,1,8
232,128,16087,5,0
320,128,16365,1,2
344,168,16505,1,0
368,200,16644,1,0
408,200,16783,1,0
440,168,16922,1,2
456,128,17061,1,0
464,88,17200,1,0
376,88,17478,1,8
288,88,17756,1,0
136,40,18313,5,0
48,40,18591,2,8,B|48:168,2,90,8|0|8
136,40,19426,1,0
136,128,19704,1,0
136,304,20260,1,0
224,304,20538,1,0
224,256,20677,1,0
264,280,20817,1,4
496,16,21929,2,8,B|496:208,1,180,0|8
496,288,22764,5,0
408,288,23042,1,8
360,288,23181,1,0
312,288,23320,1,0
312,240,23459,1,0
312,192,23598,1,8
224,192,23877,1,0
136,192,24155,1,8
352,32,24989,5,0
264,32,25268,1,8
232,64,25407,1,0
200,96,25546,1,0
168,64,25685,1,0
136,32,25824,1,8
48,32,26102,1,2
48,120,26380,1,10
48,208,26659,1,0
200,224,27215,5,0
288,224,27493,2,0,B|496:224,1,180,8|0
464,128,28328,1,2
464,40,28606,1,0
280,40,29162,1,0
192,40,29440,1,0
160,72,29579,1,0
128,40,29719,1,4
400,272,30831,2,0,B|400:352,4,45,0|0|0|0|0
320,272,31666,6,0,B|320:392,3,90,8|0|8|0
232,360,32779,1,0
232,272,33057,1,0
64,56,33891,5,0
152,56,34170,1,8
184,88,34309,1,0
216,56,34448,1,0
240,88,34587,1,0
272,56,34726,1,8
360,56,35004,1,2
360,144,35282,1,10
360,232,35561,1,0
200,312,36117,5,0
112,312,36395,2,0,B|-8:312,1,90,8|0
24,224,36952,1,2
112,224,37230,1,0
112,136,37508,1,2
288,136,38064,1,0
288,48,38342,2,0,B|400:48,1,90,0|4
8,40,39733,1,8
56,40,39873,1,0
104,40,40012,1,0
104,80,40151,1,0
104,128,40290,5,8
104,216,40568,1,0
192,216,40846,1,8
216,248,40985,1,0
240,280,41124,1,0
264,248,41263,1,0
288,216,41403,1,8
376,216,41681,1,0
376,128,41959,1,8
376,40,42237,1,0
288,40,42515,5,8
200,40,42794,1,0
200,88,42933,1,0
160,64,43072,1,4
320,280,43906,1,0
232,280,44184,1,0
144,280,44463,1,0
144,192,44741,6,0,B|224:192,4,45,8|0|0|0|8
144,104,45575,1,0
232,104,45854,1,8
368,104,46271,1,0
408,104,46410,1,0
408,192,46688,1,0
408,280,46966,5,2
320,280,47245,1,2
320,192,47523,1,2
232,192,47801,1,2
232,280,48079,1,2
144,280,48357,1,2
144,192,48636,1,2
56,192,48914,1,2
56,104,49192,5,8
144,104,49470,1,0
232,104,49748,1,8
264,72,49887,1,0
288,104,50026,1,0
312,136,50166,1,0
344,104,50305,1,8
432,104,50583,1,0
432,192,50861,1,8
432,280,51139,1,0
344,280,51417,1,8
256,280,51696,5,0
224,240,51835,1,0
192,280,51974,1,4
80,40,52808,5,0
80,128,53087,1,0
168,128,53365,1,0
256,128,53643,6,0,B|256:192,4,45,8|0|0|0|8
344,128,54477,1,0
432,128,54756,1,8
432,264,55173,5,0
384,264,55312,1,8
296,264,55590,1,0
208,264,55868,2,0,B|56:264,1,135,0|0
72,216,56425,1,8
72,128,56703,1,0
72,40,56981,1,0
160,40,57259,1,0
248,40,57538,1,8
248,128,57816,1,0
336,128,58094,5,0
424,128,58372,1,0
424,216,58650,2,8,B|392:264|224:280|240:224|272:240,2,180,8|0|8
496,272,60041,5,2
496,184,60319,1,2
408,184,60598,5,0
408,96,60876,2,8,B|320:56|232:48|184:96|200:88,2,180,8|0|8
408,184,62267,1,0
224,184,62823,5,0
136,184,63101,2,0,B|136:64,2,90,8|0|8
136,272,63936,1,0
136,360,64214,1,0
312,360,64771,1,0
400,360,65049,2,0,B|400:240,1,90,0|4
472,200,69500,5,0
384,200,69778,2,8,B|360:184|360:184|344:208|344:208|320:176|296:216|296:216|280:184|280:184|256:208|256:208|256:208,1,180,8|8
262,202,70613,5,2
176,200,70891,1,2
96,200,71169,1,2
96,24,71725,5,0
184,24,72003,2,8,B|312:88|264:160|192:144|168:136,2,180,8|0|8
184,200,73673,1,0
272,200,73951,2,0,B|336:200,2,45,0|0|4
272,344,75342,5,8
224,344,75481,1,0
176,344,75620,1,0
128,344,75759,1,0
128,296,75898,6,8,B|336:296,3,180,8|2|8|2
392,296,77845,1,0
392,208,78124,5,8
304,208,78402,1,2
304,160,78541,1,2
304,112,78680,1,10
216,112,78958,1,2
216,160,79097,1,2
216,208,79236,1,10
128,208,79515,1,2
128,160,79654,1,2
128,112,79793,1,10
40,112,80071,1,0
40,200,80349,6,8,B|40:400,2,180,8|2|8
128,200,81740,1,0
128,288,82018,1,8
216,288,82296,1,0
256,208,82575,12,0,84800
256,64,85078,5,0
256,152,85357,1,2
256,240,85635,2,0,B|360:240,4,90,0|2|0|2|0
256,328,87026,2,8,B|344:368|464:360|464:360,3,180,8|0|8|0
400,272,88973,1,0
400,184,89251,5,8
400,96,89529,1,2
368,128,89669,1,0
336,96,89808,1,10
248,96,90086,1,2
216,128,90225,1,0
192,96,90364,1,10
104,96,90642,1,2
80,136,90781,1,0
104,176,90920,1,10
104,264,91199,1,0
192,264,91477,6,0,B|304:264,1,90,8|0
368,264,92033,2,0,B|368:160,1,90,8|0
368,80,92590,2,0,B|496:80,1,90,8|0
456,176,93146,2,0,B|456:272,1,90,8|0
456,352,93702,1,4
