osu file format v13

[General]
AudioFilename: [EDM] - Grant Bowtie - Cloud Nine [Monstercat Release].mp3
AudioLeadIn: 0
PreviewTime: 7544
Countdown: 1
SampleSet: Soft
StackLeniency: 0.7
Mode: 0
LetterboxInBreaks: 1
WidescreenStoryboard: 0

[Editor]
Bookmarks: 7544,33044,45044,57044,81044,105231,117044,129044,141044,165044,201044
DistanceSpacing: 0.7
BeatDivisor: 4
GridSize: 4
TimelineZoom: 1

[Metadata]
Title:Cloud Nine
TitleUnicode:Cloud Nine
Artist:Grant Bowtie
ArtistUnicode:Grant Bowtie
Creator:Maxx
Version:Insane
Source:
Tags:
BeatmapID:591013
BeatmapSetID:258365

[Difficulty]
HPDrainRate:7
CircleSize:4
OverallDifficulty:8
ApproachRate:9
SliderMultiplier:2
SliderTickRate:1

[Events]
//Background and Video events
0,0,"ss+(2014-09-23+at+08.04.51).jpg",0,0
//Break Periods
2,69244,75194
//Storyboard Layer 0 (Background)
//Storyboard Layer 1 (Fail)
//Storyboard Layer 2 (Pass)
//Storyboard Layer 3 (Foreground)
//Storyboard Sound Samples

[TimingPoints]
3044,375,4,2,0,90,1,0
7544,-100,4,2,0,90,0,1
8481,-100,4,2,0,65,0,1
8669,-100,4,2,0,40,0,1
8856,-100,4,2,0,15,0,1
9044,-100,4,2,0,90,0,1
32669,-200,4,2,0,90,0,0
39044,-200,4,2,0,5,0,0
44669,-200,4,2,0,90,0,0
57794,-200,4,2,0,20,0,0
81044,-100,4,2,0,90,0,0
82169,-133.333333333333,4,2,0,90,0,0
83485,-100,4,2,0,90,0,0
85169,-133.333333333333,4,2,0,90,0,0
86294,-100,4,2,0,90,0,0
92294,-133.333333333333,4,2,0,90,0,0
93044,-100,4,2,0,90,0,0
93137,-133.333333333333,4,2,0,90,0,0
96606,-100,4,2,0,90,0,0
96981,-133.333333333333,4,2,0,90,0,0
99231,-100,4,2,0,90,0,0
100169,-133.333333333333,4,2,0,90,0,0
101294,-100,4,2,0,90,0,0
103169,-133.333333333333,4,2,0,90,0,0

[Colours]
Combo1 : 186,78,31
Combo2 : 34,181,30
Combo3 : 27,142,228
Combo4 : 217,4,4
Combo5 : 69,148,118
Combo6 : 103,176,231

[HitObjects]
256,192,3044,12,0,7169,0:0:0:0:
100,68,7544,21,0,0:0:0:0:
304,192,7731,2,0,L|344:216,3,37.5,0|0|0|0,0:0|0:0|0:0|0:0,0:0:0:0:
220,276,8106,1,0,0:0:0:0:
248,92,8294,1,0,0:0:0:0:
256,80,8481,1,0,0:0:0:0:
256,68,8669,1,0,0:0:0:0:
264,60,8856,1,0,0:0:0:0:
304,188,9044,6,0,P|296:268|200:328,1,200
140,192,9606,1,0,0:0:0:0:
60,64,9794,1,0,0:0:0:0:
120,264,9981,1,0,0:0:0:0:
152,116,10169,2,0,P|184:76|220:60,1,50
228,136,10356,2,0,P|268:172|400:196,1,150
372,272,10731,2,0,L|372:316,3,37.5,0|0|0|0,0:0|0:0|0:0|0:0,0:0:0:0:
360,200,11106,1,0,0:0:0:0:
244,296,11294,2,0,P|192:344|156:352,1,100
248,176,11669,2,0,P|300:128|336:120,1,100
212,268,12044,6,0,P|156:212|180:112,1,150
108,128,12419,1,0,0:0:0:0:
248,176,12606,2,0,L|380:240,1,100
212,268,12981,2,0,L|122:224,1,100
308,304,13356,2,0,L|428:348,2,100,0|0|0,0:0|0:0|0:0,0:0:0:0:
212,268,13919,1,0,0:0:0:0:
91,95,14106,1,0,0:0:0:0:
290,164,14294,1,0,0:0:0:0:
89,225,14481,1,0,0:0:0:0:
215,57,14669,1,0,0:0:0:0:
212,268,14856,1,0,0:0:0:0:
212,280,14950,1,0,0:0:0:0:
212,292,15044,6,0,P|248:348|376:328,1,200
416,196,15606,1,0,0:0:0:0:
344,64,15794,2,0,B|304:84|288:40|240:56,1,100
272,196,16169,1,0,0:0:0:0:
272,212,16262,1,0,0:0:0:0:
272,228,16356,2,0,P|260:288|160:324,1,150
88,324,16731,2,0,L|65:361,3,37.5,0|0|0|0,0:0|0:0|0:0|0:0,0:0:0:0:
192,244,17106,1,0,0:0:0:0:
140,104,17294,2,0,P|107:66|61:48,1,100,0|0,0:0|0:0,2:0:0:0:
192,244,17669,2,0,P|224:281|270:299,1,100,0|0,0:0|0:0,2:0:0:0:
280,200,18044,6,0,P|278:126|225:77,1,150
244,32,18419,1,0,0:0:0:0:
376,104,18606,1,0,0:0:0:0:
244,32,18794,1,0,0:0:0:0:
280,200,18981,2,0,L|338:284,1,100
364,188,19356,2,0,P|312:124|232:128,1,150
244,32,19731,6,0,L|263:0,3,37.5,0|0|0|0,0:0|0:0|0:0|0:0,0:0:0:0:
164,120,20106,1,0,0:0:0:0:
162,250,20294,1,0,0:0:0:0:
285,293,20481,1,0,0:0:0:0:
146,151,20669,1,0,0:0:0:0:
184,276,20857,1,0,0:0:0:0:
312,280,21044,6,0,P|402:269|470:229,1,150
504,260,21419,1,0,0:0:0:0:
376,184,21606,1,0,0:0:0:0:
508,112,21794,1,0,0:0:0:0:
460,188,21981,1,0,0:0:0:0:
380,320,22169,2,0,P|348:348|324:356,1,50
312,280,22356,2,0,P|253:233|180:248,1,150
232,328,22731,2,0,L|132:344,1,100
312,280,23106,1,0,0:0:0:0:
176,224,23294,2,0,P|147:159|151:122,1,100
336,160,23669,2,0,P|364:224|360:261,1,100
176,224,24044,6,0,P|120:168|144:68,1,150
80,76,24419,1,0,0:0:0:0:
208,140,24606,2,0,L|340:204,1,100
356,324,24981,1,0,0:0:0:0:
336,160,25169,1,0,0:0:0:0:
288,300,25356,2,0,P|228:344|168:336,1,100
80,264,25731,2,0,L|38:248,3,37.5,0|0|0|0,0:0|0:0|0:0|0:0,0:0:0:0:
164,256,26106,1,0,0:0:0:0:
280,100,26293,1,0,0:0:0:0:
196,208,26481,1,0,0:0:0:0:
320,40,26669,1,0,0:0:0:0:
240,156,26856,1,0,0:0:0:0:
236,172,26950,1,0,0:0:0:0:
232,188,27044,6,0,P|257:267|327:300,1,150
360,288,27419,2,0,B|412:264|412:264|436:216,1,100
408,64,27794,1,0,0:0:0:0:
356,200,27981,1,0,0:0:0:0:
256,88,28169,1,0,0:0:0:0:
356,200,28356,2,0,P|304:256|212:256,1,150
212,296,28731,1,0,0:0:0:0:
164,152,28919,1,0,0:0:0:0:
192,300,29106,1,0,0:0:0:0:
192,148,29294,2,0,P|189:77|196:40,1,100,0|0,0:0|0:0,2:0:0:0:
284,220,29669,2,0,P|286:290|280:328,1,100,0|0,0:0|0:0,2:0:0:0:
376,224,30044,6,0,P|344:144|248:136,1,150
240,132,30419,1,0,0:0:0:0:
284,220,30606,2,0,L|356:316,1,100
200,256,30981,1,0,0:0:0:0:
312,156,31169,1,0,0:0:0:0:
168,120,31356,2,0,B|124:124|104:76|68:64,1,100
92,228,31731,2,0,L|71:268,3,37.5,0|0|0|0,0:0|0:0|0:0|0:0,0:0:0:0:
91,95,32106,1,0,0:0:0:0:
290,164,32294,1,0,0:0:0:0:
92,228,32481,1,0,0:0:0:0:
215,57,32669,6,0,P|264:28|316:28,1,100,0|4,0:0|0:0,0:0:0:0:
256,192,33137,12,0,38950,0:0:0:0:
256,192,39044,12,0,44669,0:0:0:0:
128,72,45044,5,0,0:0:0:0:
184,168,45325,1,0,0:0:0:0:
248,76,45606,1,0,0:0:0:0:
184,168,45887,1,0,0:0:0:0:
292,300,46169,2,0,L|340:352,2,50,0|0|0,0:0|0:0|0:0,0:0:0:0:
180,308,46825,5,0,0:0:0:0:
112,216,47106,1,0,0:0:0:0:
64,316,47387,1,0,0:0:0:0:
212,148,47669,1,0,0:0:0:0:
224,136,47856,1,0,0:0:0:0:
240,124,48044,1,0,0:0:0:0:
300,220,48325,6,0,P|328:280|344:300,2,75,0|0|0,0:0|0:0|0:0,0:0:0:0:
404,176,49169,1,0,0:0:0:0:
404,176,49356,1,0,0:0:0:0:
404,176,49544,1,0,0:0:0:0:
356,76,49825,2,0,P|288:48|272:48,1,75
287,48,50387,1,0,0:0:0:0:
288,160,50669,6,0,L|276:216,1,50
308,280,51044,1,0,0:0:0:0:
216,216,51325,1,0,0:0:0:0:
328,232,51606,1,0,0:0:0:0:
220,268,51887,1,0,0:0:0:0:
108,244,52169,5,0,0:0:0:0:
140,312,52356,1,0,0:0:0:0:
108,244,52544,1,0,0:0:0:0:
216,216,52825,2,0,P|260:182|280:176,2,75,0|0|0,0:0|0:0|0:0,0:0:0:0:
297,293,53669,6,0,L|345:325,2,50,0|0|0,0:0|0:0|0:0,0:0:0:0:
184,296,54325,1,0,0:0:0:0:
296,292,54606,1,0,0:0:0:0:
364,204,54887,1,0,0:0:0:0:
320,100,55169,5,0,0:0:0:0:
256,60,55356,1,0,0:0:0:0:
192,100,55544,1,0,0:0:0:0:
344,112,55731,5,0,0:0:0:0:
256,72,55918,1,0,0:0:0:0:
168,112,56106,1,0,0:0:0:0:
368,124,56294,5,0,0:0:0:0:
256,84,56481,1,0,0:0:0:0:
144,124,56669,1,0,0:0:0:0:
64,28,57044,6,0,P|107:72|148:152,1,150
160,240,57793,5,0,0:0:0:0:
172,264,57887,1,0,0:0:0:0:
188,284,57981,1,0,0:0:0:0:
208,296,58074,1,0,0:0:0:0:
232,308,58168,1,0,0:0:0:0:
252,312,58262,1,0,0:0:0:0:
276,312,58356,1,0,0:0:0:0:
300,300,58450,1,0,0:0:0:0:
324,288,58543,5,0,0:0:0:0:
340,268,58637,1,0,0:0:0:0:
352,244,58731,1,0,0:0:0:0:
360,220,58825,1,0,0:0:0:0:
364,196,58919,1,0,0:0:0:0:
364,172,59012,1,0,0:0:0:0:
368,148,59106,1,0,0:0:0:0:
380,124,59200,1,0,0:0:0:0:
400,112,59294,5,0,0:0:0:0:
424,100,59388,1,0,0:0:0:0:
448,100,59481,1,0,0:0:0:0:
472,108,59575,1,0,0:0:0:0:
456,88,59669,1,0,0:0:0:0:
436,72,59763,1,0,0:0:0:0:
416,56,59857,1,0,0:0:0:0:
396,44,59950,1,0,0:0:0:0:
320,40,60044,6,0,L|296:12,3,25,0|0|0|0,0:0|0:0|0:0|0:0,0:0:0:0:
296,112,60419,2,0,L|279:130,3,25,0|0|0|0,0:0|0:0|0:0|0:0,0:0:0:0:
252,60,60794,2,0,L|228:32,3,25,0|0|0|0,0:0|0:0|0:0|0:0,0:0:0:0:
212,116,61169,2,0,L|195:134,3,25,0|0|0|0,0:0|0:0|0:0|0:0,0:0:0:0:
176,120,61544,1,0,0:0:0:0:
156,104,61638,5,0,0:0:0:0:
132,92,61731,1,0,0:0:0:0:
108,84,61825,1,0,0:0:0:0:
84,92,61919,1,0,0:0:0:0:
64,108,62013,1,0,0:0:0:0:
52,132,62107,1,0,0:0:0:0:
56,156,62200,1,0,0:0:0:0:
68,176,62294,5,0,0:0:0:0:
88,192,62387,1,0,0:0:0:0:
108,208,62481,1,0,0:0:0:0:
128,224,62575,1,0,0:0:0:0:
148,240,62668,1,0,0:0:0:0:
164,260,62762,1,0,0:0:0:0:
176,284,62856,1,0,0:0:0:0:
188,308,62950,1,0,0:0:0:0:
208,320,63044,6,0,P|284:356|336:360,1,125
440,260,63794,5,0,0:0:0:0:
448,236,63887,1,0,0:0:0:0:
452,212,63981,1,0,0:0:0:0:
453,186,64075,1,0,0:0:0:0:
450,161,64169,1,0,0:0:0:0:
439,138,64262,1,0,0:0:0:0:
428,115,64356,1,0,0:0:0:0:
414,93,64450,1,0,0:0:0:0:
396,74,64544,5,0,0:0:0:0:
375,60,64637,1,0,0:0:0:0:
352,49,64731,1,0,0:0:0:0:
328,40,64825,1,0,0:0:0:0:
302,38,64919,1,0,0:0:0:0:
277,41,65012,1,0,0:0:0:0:
253,49,65106,1,0,0:0:0:0:
231,62,65200,1,0,0:0:0:0:
212,79,65294,5,0,0:0:0:0:
195,97,65387,1,0,0:0:0:0:
217,107,65481,1,0,0:0:0:0:
233,125,65575,1,0,0:0:0:0:
244,147,65669,1,0,0:0:0:0:
248,171,65762,1,0,0:0:0:0:
243,195,65856,1,0,0:0:0:0:
228,215,65950,1,0,0:0:0:0:
187,265,66044,6,0,L|170:283,3,25,0|0|0|0,0:0|0:0|0:0|0:0,0:0:0:0:
250,297,66419,2,0,L|267:315,3,25,0|0|0|0,0:0|0:0|0:0|0:0,0:0:0:0:
297,239,66794,2,0,L|314:221,3,25,0|0|0|0,0:0|0:0|0:0|0:0,0:0:0:0:
319,309,67169,2,0,L|336:327,3,25,0|0|0|0,0:0|0:0|0:0|0:0,0:0:0:0:
359,319,67544,5,0,0:0:0:0:
381,308,67637,1,0,0:0:0:0:
400,292,67731,1,0,0:0:0:0:
415,272,67825,1,0,0:0:0:0:
421,247,67919,1,0,0:0:0:0:
415,222,68012,1,0,0:0:0:0:
410,197,68106,1,0,0:0:0:0:
411,171,68200,1,0,0:0:0:0:
425,150,68294,5,0,0:0:0:0:
442,132,68387,1,0,0:0:0:0:
463,118,68481,1,0,0:0:0:0:
449,96,68575,1,0,0:0:0:0:
427,82,68669,1,0,0:0:0:0:
404,70,68762,1,0,0:0:0:0:
379,66,68856,1,0,0:0:0:0:
354,67,68950,1,0,0:0:0:0:
329,73,69044,5,0,0:0:0:0:
256,192,75794,12,0,80669,0:0:0:0:
84,152,81044,6,0,P|108:196|200:252,1,150
236,228,81419,1,0,0:0:0:0:
392,296,81606,2,0,L|427:309,3,37.5,0|0|0|0,0:0|0:0|0:0|0:0,0:0:0:0:
384,192,81981,1,0,0:0:0:0:
376,168,82075,1,0,0:0:0:0:
360,140,82169,2,0,P|324:88|164:76,2,225.000008583069,0|0|0,0:0|0:0|0:0,0:0:0:0:
376,212,83481,1,0,0:0:0:0:
348,308,83669,1,0,0:0:0:0:
246,204,83856,1,0,0:0:0:0:
229,184,83950,1,0,0:0:0:0:
208,162,84044,6,0,P|128:112|60:88,1,150
32,112,84419,1,0,0:0:0:0:
349,308,84606,2,0,L|384:321,3,37.5,0|0|0|0,0:0|0:0|0:0|0:0,0:0:0:0:
244,204,84981,2,0,L|152:188,1,50
236,280,85169,2,0,P|144:260|96:180,1,187.500007152558
56,84,85731,2,0,P|148:104|196:184,1,187.500007152558
293,143,86294,2,0,L|296:192,1,50
340,168,86482,2,0,L|328:216,1,50
377,208,86669,2,0,L|348:249,1,50
400,256,86857,2,0,L|316:316,1,100
256,236,87231,1,0,0:0:0:0:
148,340,87419,6,0,B|116:336|92:304|40:320,1,100
116,188,87794,1,0,0:0:0:0:
72,332,87981,2,0,L|20:376,2,50,0|0|0,0:0|0:0|0:0,0:0:0:0:
184,256,88356,1,0,0:0:0:0:
300,312,88544,1,0,0:0:0:0:
284,184,88731,1,0,0:0:0:0:
300,312,88919,1,0,0:0:0:0:
184,256,89106,1,0,0:0:0:0:
72,180,89294,1,0,0:0:0:0:
192,228,89481,1,0,0:0:0:0:
64,208,89669,1,0,0:0:0:0:
192,196,89856,5,0,0:0:0:0:
216,184,89950,1,0,0:0:0:0:
240,172,90044,2,0,B|276:124|328:144|368:88,1,150
300,56,90419,1,0,0:0:0:0:
356,172,90606,2,0,L|372:205,3,37.5,0|0|0|0,0:0|0:0|0:0|0:0,0:0:0:0:
308,300,90981,1,0,0:0:0:0:
288,320,91075,1,0,0:0:0:0:
260,332,91169,2,0,P|168:354|16:312,1,250
64,208,91731,2,0,P|155:185|308:228,1,250
344,264,92294,6,0,L|338:287,1,18.7500007152558
356,272,92387,2,0,L|353:290,1,18.7500007152558,0|0,0:0|0:0,0:0:0:0:
372,280,92481,2,0,L|369:298,1,18.7500007152558,0|0,0:0|0:0,0:0:0:0:
388,288,92575,2,0,L|385:306,1,18.7500007152558,0|0,0:0|0:0,0:0:0:0:
400,296,92669,2,0,L|397:314,1,18.7500007152558,0|0,0:0|0:0,0:0:0:0:
416,308,92762,2,0,L|413:326,1,18.7500007152558,0|0,0:0|0:0,0:0:0:0:
428,312,92856,2,0,L|425:330,1,18.7500007152558,0|0,0:0|0:0,0:0:0:0:
444,328,92950,2,0,L|441:346,1,18.7500007152558,0|0,0:0|0:0,0:0:0:0:
392,172,93419,6,0,P|366:145|350:111,1,75.0000028610231
336,92,93700,1,0,0:0:0:0:
324,76,93794,1,0,0:0:0:0:
188,76,93981,1,0,0:0:0:0:
176,92,94075,1,0,0:0:0:0:
168,112,94169,2,0,P|150:194|162:338,2,225.000008583069,0|0|0,0:0|0:0|0:0,0:0:0:0:
344,128,95481,1,0,0:0:0:0:
344,256,95669,1,0,0:0:0:0:
460,192,95856,1,0,0:0:0:0:
344,127,96044,6,0,P|257:91|176:80,1,150.000005722046
168,88,96512,1,0,0:0:0:0:
144,116,96606,2,0,L|113:136,3,37.5,0|0|0|0,0:0|0:0|0:0|0:0,0:0:0:0:
224,160,96981,2,0,L|268:176,1,37.5000014305115
344,256,97169,2,0,P|432:232|477:152,1,187.500007152558
376,152,97731,2,0,P|326:75|236:57,1,187.500007152558
256,192,98223,12,0,99044,0:0:0:0:
256,192,99231,5,0,0:0:0:0:
168,72,99419,1,0,0:0:0:0:
84,196,99606,2,0,L|64:227,3,37.5,0|0|0|0,0:0|0:0|0:0|0:0,0:0:0:0:
192,264,99981,2,0,L|260:280,1,50
256,192,100169,2,0,P|300:112|396:96,1,187.500007152558
360,200,100731,2,0,P|316:280|220:296,1,187.500007152558
156,328,101294,1,0,0:0:0:0:
100,188,101481,1,0,0:0:0:0:
68,336,101669,1,0,0:0:0:0:
180,236,101856,5,0,0:0:0:0:
192,220,101950,1,0,0:0:0:0:
200,208,102044,2,0,B|240:172|280:168|344:144,1,150
352,120,102419,1,0,0:0:0:0:
208,56,102606,2,0,L|188:25,3,37.5,0|0|0|0,0:0|0:0|0:0|0:0,0:0:0:0:
200,208,102981,1,0,0:0:0:0:
202,228,103075,1,0,0:0:0:0:
210,248,103169,2,0,P|242:316|352:335,1,187.500007152558
309,244,103731,2,0,L|259:63,1,187.500007152558
304,80,104294,6,0,L|328:103,1,28.1250010728836
326,132,104419,2,0,L|350:155,1,28.1250010728836
345,184,104544,2,0,L|369:207,1,28.1250010728836
363,236,104669,2,0,L|387:259,1,28.1250010728836
386,288,104794,2,0,L|410:311,1,28.1250010728836
406,340,104919,2,0,L|430:363,1,28.1250010728836
456,345,105044,2,0,P|482:280|481:233,1,112.500004291535
436,204,105419,6,0,P|444:124|488:76,1,112.500004291535
420,60,105794,1,0,0:0:0:0:
256,44,105981,1,0,0:0:0:0:
104,304,106356,1,0,0:0:0:0:
120,108,106731,2,0,P|108:64|88:12,2,75.0000028610231,0|0|0,0:0|0:0|0:0,0:0:0:0:
184,200,107294,1,0,0:0:0:0:
192,216,107387,1,0,0:0:0:0:
204,232,107481,1,0,0:0:0:0:
216,248,107575,1,0,0:0:0:0:
232,260,107669,1,0,0:0:0:0:
392,312,107950,2,0,L|436:340,1,37.5000014305115
365,116,108419,6,0,P|316:64|250:69,1,112.500004291535
286,141,108794,2,0,P|274:185|294:253,1,112.500004291535
372,191,109169,1,0,0:0:0:0:
286,141,109356,2,0,P|226:119|124:103,1,150.000005722046,0|0,0:0|0:0,0:0:0:0:
109,173,109825,2,0,P|86:209|78:266,1,75.0000028610231
165,240,110106,1,0,0:0:0:0:
265,291,110294,5,0,0:0:0:0:
283,288,110387,1,0,0:0:0:0:
301,283,110481,1,0,0:0:0:0:
318,276,110575,1,0,0:0:0:0:
335,268,110669,1,0,0:0:0:0:
352,260,110762,1,0,0:0:0:0:
368,251,110856,1,0,0:0:0:0:
459,188,111044,1,0,0:0:0:0:
383,85,111419,6,0,P|308:66|254:63,1,112.500004291535
235,119,111794,1,0,0:0:0:0:
150,39,111981,1,0,0:0:0:0:
24,192,112356,1,0,0:0:0:0:
24,192,112731,1,0,0:0:0:0:
168,308,113106,1,0,0:0:0:0:
184,316,113200,1,0,0:0:0:0:
204,320,113294,1,0,0:0:0:0:
376,320,113481,1,0,0:0:0:0:
460,188,113669,1,0,0:0:0:0:
288,168,113856,2,0,P|219:164|190:178,1,75.0000028610231
72,344,114419,5,0,0:0:0:0:
204,320,114606,1,0,0:0:0:0:
288,168,114981,1,0,0:0:0:0:
296,152,115075,1,0,0:0:0:0:
304,136,115169,2,0,P|348:84|468:72,1,187.500007152558
408,172,115731,2,0,P|364:224|244:236,1,187.500007152558
200,192,116294,6,0,L|193:169,1,18.7500007152558
176,196,116387,2,0,L|163:182,1,18.7500007152558,0|0,0:0|0:0,0:0:0:0:
156,208,116481,2,0,L|138:202,1,18.7500007152558,0|0,0:0|0:0,0:0:0:0:
152,228,116575,2,0,L|135:234,1,18.7500007152558,0|0,0:0|0:0,0:0:0:0:
156,264,116669,2,0,L|143:277,1,18.7500007152558,0|0,0:0|0:0,0:0:0:0:
172,292,116762,2,0,L|166:309,1,18.7500007152558,0|0,0:0|0:0,0:0:0:0:
196,320,116856,2,0,L|200:337,1,18.7500007152558,0|0,0:0|0:0,0:0:0:0:
232,344,116950,2,0,L|240:359,1,18.7500007152558,0|0,0:0|0:0,0:0:0:0:
