osu file format v5

[General]
AudioFilename: modern strange cowboy (TV Size).mp3
AudioLeadIn: 0
PreviewTime: 63076
Countdown: 0
SampleSet: Normal
StackLeniency: 0.7
Mode: 0
LetterboxInBreaks: 1

[Editor]
DistanceSpacing: 0.800000011920929
BeatDivisor: 4
GridSize: 8

[Metadata]
Title:Modern Strange Cowboy
Artist:Granrodeo
Creator:lesjuh
Version:Normal
Source:My Trashcan
Tags:LESBIAN HENTAI GIRLS MAKING OUT AT MOONLIGHT

[Difficulty]
HPDrainRate:3
CircleSize:3
OverallDifficulty:5
SliderMultiplier:1.2
SliderTickRate:2

[Events]
//Background and Video events
0,0,"needless01_041.jpg"
Video,192,"modern strange cowboy (TV Size) Video.avi"
//Break Periods
//Storyboard Layer 0 (Background)
//Storyboard Layer 1 (Fail)
//Storyboard Layer 2 (Pass)
//Storyboard Layer 3 (Foreground)
//Storyboard Sound Samples
//Background Colour Transformations
3,100,0,0,0

[TimingPoints]
550,315.789473684211,4,1,0,70,1,0
5455,-100,4,1,0,80,0,0
16271,-100,4,1,0,20,0,0
17929,-100,4,1,0,80,0,0
18955,-100,4,1,0,50,0,0
20613,-100,4,1,0,80,0,0
21087,-100,4,1,0,50,0,0
23140,-100,4,1,0,80,0,0
23613,-100,4,1,0,50,0,0
24403,-100,4,1,0,80,0,0
25192,-100,4,1,0,50,0,0
25666,-100,4,1,0,80,0,0
26297,-100,4,1,0,30,0,0
28192,-100,4,1,0,80,0,0
28824,-100,4,1,0,50,0,0
30718,-100,4,1,0,80,0,0
31350,-100,4,1,0,50,0,0
33087,-100,4,1,0,80,0,0
33876,-100,4,1,0,50,0,0
34508,-100,4,1,0,80,0,0
35140,-100,4,1,0,50,0,0
35771,-100,4,1,0,80,0,0
36087,-100,4,2,0,50,0,0
37982,-100,4,1,0,50,0,0
38297,-100,4,1,0,80,0,0
48718,-100,4,1,0,50,0,0
52204,-100,4,1,0,50,0,0
53297,-100,4,1,0,80,0,0
58903,-100,4,1,0,50,0,0
62376,-100,4,1,0,80,0,0
62929,-100,4,2,0,50,0,0
63718,-100,4,1,0,100,0,0
88429,-100,4,1,0,0,0,0

[HitObjects]
176,328,4339,1,2
336,288,4655,1,2
200,200,4971,1,2
200,200,5128,1,4
312,56,5602,6,2,B|440:96|480:224,1,240
400,272,6549,2,0,B|384:360,1,60,2|0
352,360,6865,6,2,B|240:304|88:336,1,240,4|2
56,256,7813,1,2
56,256,8128,6,2,B|96:128|248:104,1,240,6|2
272,192,9076,2,0,B|280:280,1,60,2|0
320,272,9392,6,2,B|384:296|432:352,3,120,6|0|6|0
464,256,10655,6,2,B|504:168|504:64,1,180,6|0
472,48,11286,1,2
376,64,11602,2,0,B|296:48,1,60,2|0
272,72,11918,6,2,B|184:160|40:136,1,240,4|2
32,232,12865,1,2
32,232,13181,6,4,B|128:224|144:328|272:312,1,240,4|2
304,232,14128,2,0,B|240:232,2,60,0|0|6
256,192,14523,12,0,16023
368,320,17918,5,8
368,320,18076,2,0,B|416:240|424:136,1,180,4|0
368,64,18865,1,0
320,72,19023,1,0
272,64,19181,2,0,B|184:64,1,60
168,88,19497,2,0,B|144:176|64:256,1,180,0|0
120,328,20286,1,0
168,336,20444,1,0
216,344,20602,6,0,B|304:304|408:320,1,180,4|0
456,248,21392,1,0
440,152,21707,1,0
392,168,21865,2,0,B|312:176,1,60
288,152,22181,2,0,B|224:136|144:136,1,120
72,160,22813,1,0
56,256,23128,6,0,B|192:256,1,120,4|0
176,256,23602,1,0
272,280,23918,1,0
360,256,24234,1,0
360,256,24392,6,0,B|360:128,1,120,4|0
360,136,24865,1,0
272,104,25181,1,0
176,128,25497,1,0
176,128,25655,6,0,B|40:128,1,120,4|0
56,128,26128,1,0
48,224,26444,6,0,B|56:304,3,60
96,272,27076,2,0,B|104:344,3,60
152,328,27707,2,0,B|248:352|360:320,1,180,0|4
424,296,28497,5,0
424,296,28655,1,0
456,208,28971,5,0
384,136,29286,1,0
384,136,29444,1,0
384,136,29602,2,0,B|320:200|208:232,1,180
136,248,30392,1,0
56,192,30707,6,0,B|80:120|128:64,1,120,4|0
110,85,31181,1,0
200,48,31497,1,0
200,48,31655,2,0,B|264:56,1,60
304,80,31971,2,0,B|320:144|304:224,2,120
400,80,32918,1,0
440,168,33234,6,0,B|440:304,1,120,4|0
440,288,33707,1,0
352,320,34023,1,0
256,352,34339,1,0
256,352,34497,6,0,B|256:216,1,120,4|0
256,232,34971,1,0
184,168,35286,2,0,B|184:64|336:64|336:176,1,240
288,208,37971,5,8
272,256,38128,1,0
256,304,38286,6,0,B|160:280|96:176,1,180,4|0
80,112,39076,1,0
80,112,39234,1,0
80,112,39392,1,0
152,48,39707,2,0,B|288:40,1,120
320,56,40181,2,0,B|320:128|360:192,1,120
400,248,40813,6,0,B|360:336|240:368,1,180,4|0
176,320,41602,1,0
168,272,41760,1,0
160,224,41918,1,0
136,128,42234,2,0,B|96:80|33:56,2,120
176,104,43023,2,0,B|240:112,1,60
279,88,43339,6,0,B|320:137|376:160,1,120,4|0
374,159,43813,1,0
472,144,44128,1,0
496,232,44444,1,0
488,280,44602,1,0
480,328,44760,2,0,B|408:368|288:360,1,180,4|0
240,288,45550,1,0
176,216,45865,6,0,B|128:176|56:160,1,120,4|0
69,163,46339,1,0
24,72,46655,1,0
112,32,46971,1,0
160,112,47286,2,0,B|232:176|336:192,1,180,4|0
408,152,48076,1,0
416,200,48234,1,0
424,248,48392,1,0
432,296,48550,5,4
352,352,48865,2,0,B|288:352,1,60
248,320,49181,2,0,B|168:320,1,60
144,288,49497,2,0,B|64:288,1,60
32,288,49813,1,4
16,192,50128,6,0,B|96:192,1,60
112,160,50444,2,0,B|184:160,1,60
208,128,50760,2,0,B|288:128,1,60
312,128,51076,1,4
400,96,51392,5,0
400,96,51550,2,4,B|440:176|448:280,1,180,0|0
376,336,52339,1,0
376,336,52497,2,0,B|320:304|248:296,1,120,4|0
216,312,52971,1,0
120,336,53286,1,0
32,288,53602,6,0,B|128:0|440:152,1,480,4|4
472,320,55497,2,0,B|336:336,1,120,4|0
256,312,56128,6,0,B|288:256|296:184,2,120
216,336,56918,2,0,B|152:264|56:256,1,180,4|4
16,168,57707,1,0
56,80,58023,2,0,B|136:64,1,60
152,96,58339,2,0,B|168:160,1,60
144,200,58655,6,4,B|200:240|272:248,1,120
352,256,59286,5,0
440,216,59602,1,0
456,120,59918,2,0,B|392:56|288:32,2,180,4|0|0
368,152,61181,2,0,B|280:112|176:112,2,180,4|0|0
256,232,62444,5,0
256,232,62602,1,0
256,232,62760,1,0
296,320,63076,6,0,B|216:352|104:352,1,180
80,328,63707,6,4,B|64:240,1,60,4|0
32,232,64023,1,0
32,232,64181,2,0,B|64:168|64:96,1,120
160,128,64813,5,0
160,128,64971,2,0,B|216:96|296:96,2,120
128,216,65918,2,0,B|136:288,1,60
176,304,66234,2,0,B|328:352|384:192,1,240,4|0
232,184,67339,5,0
232,184,67497,2,0,B|256:120,1,60
304,128,67813,2,0,B|336:56,1,60
376,64,68128,2,0,B|464:168|392:304,1,240,0|4
304,280,69076,5,0
216,328,69392,2,0,B|160:296|80:288,1,120
48,208,70023,2,0,B|104:176|184:168,1,120,4|0
208,160,70497,2,0,B|264:192|344:200,1,120,4|0
392,136,71128,6,0,B|400:64,2,60
304,96,71760,2,0,B|304:8,2,60
208,80,72392,2,0,B|200:0,2,60,0|0|0
168,112,72865,6,0,B|160:176|120:248,1,120,4|0
104,264,73339,1,0
104,264,73497,2,0,B|112:336,1,60
144,352,73813,6,0,B|248:288|384:312,1,240,4|0
464,264,74760,1,0
496,176,75076,1,0
480,128,75234,1,0
464,80,75392,1,0
376,40,75707,2,0,B|336:88|320:168,1,120
296,240,76339,6,0,B|152:256,1,120,4|0
136,280,76813,2,4,B|112:224|56:168,1,120
104,88,77444,6,0,B|176:80|232:32,2,120
72,120,78234,2,0,B|8:264|152:344,1,240,0|4
176,312,79023,1,0
272,288,79339,1,0
368,304,79655,1,0
464,288,79971,1,0
472,240,80128,6,0,B|464:168,1,60,4|0
376,136,80602,1,0
280,160,80918,1,0
184,144,81234,6,0,B|176:232,2,60
88,160,81865,2,0,B|80:96,2,60
48,248,82497,1,0
48,248,82655,2,0,B|104:320|208:336,1,180,4|4
296,320,83444,5,0
304,272,83602,1,0
312,224,83760,1,0
320,176,83918,6,0,B|456:176,1,120,4|0
400,88,84550,2,0,B|264:88,1,120
184,88,85181,5,0
176,136,85339,1,0
168,184,85497,1,0
336,344,86444,6,0,B|336:264,1,60,4|0
256,232,86918,2,0,B|256:312,1,60
176,344,87392,2,0,B|176:280,1,60,0|4
