osu file format v5

[General]
AudioFilename: Doukoku No Ame - MAD Version.mp3
AudioLeadIn: 0
AudioHash: a3218e1953a2d491b5d185bc30a15157
PreviewTime: -1
Countdown: 1
SampleSet: Normal

[Metadata]
Title:Doukoku No Ame - MAD Version
Artist:Granrodeo
Creator:AuRevoir
Version:Hard

[Difficulty]
HPDrainRate:6
CircleSize:5
OverallDifficulty:5
SliderMultiplier: 1.4
SliderTickRate: 2

[Events]
//Background and Video events
//Break Periods
//Storyboard Layer 0 (Background)
//Storyboard Layer 1 (Failing)
//Storyboard Layer 2 (Passing)
//Storyboard Layer 3 (Foreground)
//Storyboard Sound Samples
//Background Colour Transformations
3,100,163,162,255

[TimingPoints]
6040,300.0600120024,4,1,0,100

[HitObjects]
96,96,7200,1,0
160,96,7500,1,0
224,96,7800,1,0
288,96,8100,1,0
352,96,8400,2,0,L|352:96|448:192,3,140
416,288,9600,5,0
352,288,9900,1,0
288,288,10200,1,0
224,288,10500,1,0
160,288,10800,2,0,L|160:288|64:192,3,140
128,320,12000,5,0
128,256,12300,1,0
128,192,12600,1,0
128,128,12900,1,0
128,64,13200,2,0,L|128:64|288:64,3,140
384,64,14400,5,0
384,128,14700,1,0
384,192,15000,1,0
384,256,15300,1,0
384,320,15600,5,0
384,320,15750,1,0
384,320,15900,1,0
384,320,16050,1,4
288,288,18001,5,0
224,288,18301,1,0
320,96,20401,5,0
256,96,20701,1,6
192,96,21001,1,6
256,192,22501,5,0
96,288,23401,5,0
96,192,23701,1,0
96,96,24001,1,0
192,128,24451,1,0
192,256,24901,1,0
116,192,25201,6,0,L|116:192|384:192,3,140
224,288,27602,5,0
288,288,27902,1,0
192,96,30002,5,0
256,96,30302,1,6
320,96,30602,1,6
256,192,32102,5,0
416,288,33002,5,0
416,192,33302,1,0
416,96,33602,1,0
320,128,34052,1,0
320,256,34502,1,0
396,192,34802,6,0,L|396:192|128:192,3,140
32,96,36602,5,0
224,96,37202,1,0
128,288,37802,1,4
480,96,39002,5,0
288,96,39602,1,0
384,288,40202,1,4
372,194,40802,6,0,L|372:194|244:98,1,140
252,110,41403,2,0,L|252:110|140:194,1,140
140,190,42003,2,0,L|140:190|268:286,1,140
260,274,42604,2,0,L|260:274|372:190,1,140
352,128,43203,5,0
256,128,43503,1,0
160,128,43803,1,0
192,256,44103,1,0
320,256,44403,1,0
384,224,44703,2,0,B|384:224|416:64|49:67|128:256,1,420
448,224,46203,5,0
448,192,46353,1,0
448,160,46503,1,0
448,128,46653,1,0
256,256,47103,6,0,B|256:256|256:160|256:128,1,140
256,64,47703,1,0
160,96,48003,2,0,B|160:96|64:192,1,140
61,194,48603,2,0,B|61:194|160:288,1,140
256,192,49503,12,0,54004
64,64,55204,5,0
192,64,55654,1,0
192,192,56104,2,0,B|192:192|32:192,4,140
192,320,57604,5,0
64,320,58054,1,0
52,192,58504,2,0,B|52:192|192:192,4,140
192,160,60304,5,0
224,128,60454,1,0
256,160,60604,1,0
224,192,60754,1,0
224,224,61204,2,0,B|224:224|256:256|288:288|256:320,2,140
160,288,62404,5,2
160,192,62704,1,2
256,128,63004,1,2
352,128,63304,1,2
416,192,63604,1,4
416,192,63904,2,0,B|416:192|456:32|400:29|192:64,1,280
448,64,64805,5,0
320,64,65255,1,0
320,192,65705,2,0,B|320:192|480:192,4,140
320,320,67205,5,0
448,320,67655,1,0
460,192,68105,2,0,B|460:192|320:192,4,140
320,160,69905,5,0
288,128,70055,1,0
256,160,70205,1,0
288,192,70355,1,0
288,224,70805,2,0,B|288:224|256:256|224:288|256:320,2,140
352,288,72005,5,2
352,192,72305,1,2
256,128,72605,1,2
160,128,72905,1,2
96,192,73205,1,4
96,192,73505,2,0,B|96:192|56:32|112:29|320:64,1,280
320,128,74405,5,0
256,128,74705,1,0
192,128,75005,2,0,B|192:128|146:105|161:215|44:192,5,140
192,256,76806,5,0
256,256,77106,1,0
320,256,77406,2,0,B|320:256|366:279|351:169|468:192,5,140
320,128,79806,5,0
320,128,79956,1,0
352,128,80106,1,0
352,128,80256,1,0
384,128,80406,2,0,B|384:128|262:19|128:128,1,280
192,224,81606,5,0
256,192,81906,1,0
288,192,82094,1,0
352,224,82394,1,0
416,288,82694,2,0,B|416:288|288:320|284:246|353:36|128:64,1,420
96,288,84006,5,0
160,288,84306,1,0
224,288,84606,1,0
288,288,84906,1,0
352,288,85206,2,0,L|352:288|448:192,3,140
416,96,86406,5,0
352,96,86706,1,0
288,96,87006,1,0
224,96,87306,1,0
160,96,87606,2,0,L|160:96|64:192,3,140
128,64,88806,5,0
128,128,89106,1,0
128,192,89406,1,0
128,256,89706,1,0
128,320,90006,2,0,L|128:320|288:320,3,140
384,320,91206,5,0
384,256,91506,1,0
384,192,91806,1,0
384,128,92106,1,0
384,64,92407,1,0
