osu file format v5

[General]
AudioFilename: trackn.mp3
AudioLeadIn: 0
PreviewTime: -1
Countdown: 0
SampleSet: Normal
StackLeniency: 0.7
Mode: 0
LetterboxInBreaks: 1
EditorBookmarks: 38400,66300,103350,122400
EditorDistanceSpacing: 0.800000011920929

[Metadata]
Title:Trackn
Artist:Grand Chase
Creator:perfectpoio
Version:Hard
Source:
Tags:

[Difficulty]
HPDrainRate:8
CircleSize:6
OverallDifficulty:6
SliderMultiplier:1.4
SliderTickRate:0.5

[Events]
//Background and Video events
0,0,"gc.jpg"
//Break Periods
//Storyboard Layer 0 (Background)
//Storyboard Layer 1 (Fail)
//Storyboard Layer 2 (Pass)
//Storyboard Layer 3 (Foreground)
//Storyboard Sound Samples
//Background Colour Transformations
3,100,0,0,0

[TimingPoints]
0,600,4,1,0,100,1,0

[Colours]
Combo1 : 35,35,35
Combo2 : 65,0,130

[HitObjects]
64,320,1200,2,0,C|256:320,1,175
320,320,2550,1,0
320,288,2700,1,0
320,256,2850,1,0
320,192,3150,1,0
256,192,3450,1,0
192,192,3750,2,0,C|32:192,1,140
192,64,4950,5,0
192,96,5100,1,0
192,128,5250,1,0
192,192,5550,1,0
256,192,5850,1,0
320,192,6150,2,0,C|480:192,1,140
480,160,7350,5,0
448,192,7500,1,0
416,224,7650,1,0
384,192,7950,1,0
320,192,8250,1,0
256,192,8550,2,0,C|96:192,1,140
64,64,9600,5,0
96,64,9750,1,0
128,64,9900,1,0
192,64,10200,1,0
256,64,10500,1,0
256,64,10800,2,0,C|96:64,1,140
448,320,12000,5,0
416,320,12150,1,0
384,320,12300,1,0
320,320,12600,1,0
256,320,12900,1,0
192,320,13200,2,0,C|64:224,1,140
448,64,14250,5,0
416,96,14400,1,0
448,128,14550,1,0
384,160,14850,1,0
512,160,15150,1,0
512,224,15450,2,0,C|352:224,1,140
256,320,16650,5,0
256,288,16800,1,0
256,256,16950,1,0
288,224,17250,1,0
224,224,17550,1,0
320,192,17850,2,0,C|160:192,1,140
256,256,18900,5,0
256,224,19050,1,0
256,192,19200,1,4
64,288,19800,5,0
64,288,20250,2,0,C|192:288,1,105
224,256,21300,5,0
288,224,21600,1,0
224,192,21900,1,0
288,160,22200,1,0
288,160,22650,2,0,C|416:160,1,105
288,288,23550,5,0
256,256,23850,1,0
224,224,24150,1,0
192,192,24450,1,0
192,192,24900,2,0,C|192:64,1,105
64,64,25950,5,0
96,96,26250,1,0
128,128,26550,1,0
160,160,26850,1,0
160,160,27300,2,0,C|288:160,1,105
448,64,28200,5,0
416,96,28500,1,0
384,128,28800,1,0
352,160,29100,1,0
352,160,29550,2,0,C|352:288,1,105
64,64,30600,5,0
96,96,30900,1,0
128,128,31200,1,0
160,160,31500,1,0
160,160,31950,2,0,C|160:288,1,105
256,64,33000,5,0
256,96,33300,1,0
256,128,33600,1,0
256,160,33900,1,0
256,160,34350,2,0,C|256:288,1,105
480,32,35200,5,0
448,64,35600,1,0
416,96,35800,1,0
384,128,36200,1,0
352,160,36600,1,0
320,192,37000,1,0
256,192,37400,12,0,38000
64,224,38550,6,0,C|64:160,1,46.6666666666667
64,128,39000,1,8
160,224,39600,6,0,C|160:128,1,70
160,128,40200,1,8
256,224,40800,6,0,C|256:128,1,70
256,128,41400,1,8
256,224,42000,5,0
256,160,42450,1,0
256,96,42900,1,0
448,224,43200,6,0,C|448:128,1,70
448,128,43700,1,8
352,224,44250,6,0,C|352:128,1,70
352,128,44850,1,8
256,224,45450,6,0,C|256:128,1,70
256,128,46050,1,8
224,224,46650,5,0
256,224,47100,1,0
288,224,47550,1,0
64,64,47850,6,0,C|160:64,1,70
134,65,48400,1,8
224,64,49000,6,0,C|307:64,1,70
294,64,49600,1,8
384,64,50100,6,0,C|480:64,1,70
453,64,50700,1,8
256,96,51300,5,0
256,128,51750,1,0
256,160,52200,1,0
64,320,52500,6,0,C|160:320,1,70
224,320,53100,1,8
448,320,53600,6,0,C|352:320,1,70
288,320,54200,1,8
256,96,54750,6,0,C|256:192,1,70
256,256,55350,1,8
256,96,55950,5,0
256,128,56400,1,0
256,160,56850,1,0
256,192,57150,12,0,65325
64,64,66450,5,0
96,96,66750,1,0
128,128,67050,1,0
160,160,67350,1,0
160,160,67800,1,0
160,160,67950,1,0
160,160,68100,1,0
160,160,68400,1,0
448,64,68700,5,0
416,96,69000,1,0
384,128,69300,1,0
352,160,69600,1,0
352,160,70200,1,0
352,160,70350,1,0
352,160,70500,1,0
352,160,70800,1,0
256,64,71100,5,0
256,96,71400,1,0
256,128,71700,1,0
256,160,72000,1,0
256,160,72500,1,0
256,160,72650,1,0
256,160,72800,1,0
256,160,73100,1,0
256,224,73350,5,0
224,192,73650,1,0
256,160,73950,1,0
288,192,74250,1,0
256,192,74850,1,0
256,160,75000,1,0
256,128,75150,1,0
256,64,75450,1,0
64,64,75750,5,0
96,96,76050,1,0
128,128,76350,1,0
160,160,76650,1,0
160,160,77100,1,0
160,160,77250,1,0
160,160,77400,1,0
160,160,77700,1,0
256,224,78000,5,0
224,192,78300,1,0
256,160,78600,1,0
288,192,78900,1,0
256,192,79500,1,0
256,160,79650,1,0
256,128,79800,1,0
256,64,80100,1,0
256,224,80400,5,0
224,192,80700,1,0
256,160,81000,1,0
288,192,81300,1,0
256,192,81900,1,0
256,160,82050,1,0
256,128,82200,1,0
256,64,82500,1,0
256,224,82800,5,0
224,192,83100,1,0
256,160,83400,1,0
288,192,83700,1,0
256,64,84150,1,0
256,192,84300,1,0
256,128,84450,1,0
64,288,85050,5,0
64,288,85500,2,0,C|192:288,1,105
224,256,86550,5,0
288,224,86850,1,0
224,192,87150,1,0
288,160,87450,1,0
288,160,87900,2,0,C|416:160,1,105
288,256,88800,5,0
224,224,89100,1,0
288,192,89400,1,0
224,160,89700,1,0
224,160,90150,2,0,C|352:160,1,105
256,288,91200,5,0
256,256,91500,1,0
256,224,91800,1,0
256,192,92100,1,8
256,192,92550,1,8
256,192,93000,1,8
256,192,93300,1,8
256,192,93600,12,0,94050
288,256,94500,5,0
256,224,94900,1,0
224,192,95250,1,0
320,256,95850,5,0
192,224,96150,1,0
320,192,96450,1,0
192,160,96750,1,0
224,96,97200,2,0,C|352:96,1,105
192,256,98100,5,0
320,224,98400,1,0
192,192,98700,1,0
320,160,99000,1,0
192,128,99450,2,0,C|320:128,1,105
320,256,100500,5,0
192,224,100800,1,0
320,192,101100,1,0
192,160,101400,1,0
256,192,101850,1,0
256,192,102300,1,0
256,192,102450,1,4
256,192,102750,12,0,103200
64,224,103800,6,0,C|64:160,1,46.6666666666667
64,128,104250,1,8
160,224,104850,6,0,C|160:128,1,70
160,128,105450,1,8
256,224,106050,6,0,C|256:128,1,70
256,128,106650,1,8
256,224,107250,5,0
256,160,107700,1,0
256,96,108150,1,0
448,224,108450,6,0,C|448:128,1,70
448,128,108950,1,8
352,224,109500,6,0,C|352:128,1,70
352,128,110100,1,8
256,224,110700,6,0,C|256:128,1,70
256,128,111300,1,8
224,224,111900,5,0
256,224,112350,1,0
288,224,112800,1,0
64,64,113100,6,0,C|160:64,1,70
134,65,113650,1,8
224,64,114250,6,0,C|307:64,1,70
294,64,114850,1,8
384,64,115350,6,0,C|480:64,1,70
453,64,115950,1,8
256,96,116550,5,0
256,128,117000,1,0
256,160,117450,1,0
64,320,117750,6,0,C|160:320,1,70
224,320,118350,1,8
448,320,118850,6,0,C|352:320,1,70
288,320,119450,1,8
256,96,120000,6,0,C|256:192,1,70
256,256,120600,1,8
256,96,121200,5,0
256,128,121650,1,0
256,160,122100,1,0
256,192,122400,5,0
