osu file format v10

[General]
AudioFilename: Togainu no Chi Opening ~ Rose Hip Bullet by GranRodeo TV SIZE.mp3
AudioLeadIn: 0
PreviewTime: 18388
Countdown: 1
SampleSet: None
StackLeniency: 0.7
Mode: 0
LetterboxInBreaks: 1

[Editor]
DistanceSpacing: 0.8
BeatDivisor: 4
GridSize: 8

[Metadata]
Title:Rose-Hip Bullet (TV SIZE)
TitleUnicode:
Artist:GranRodeo
ArtistUnicode:
Creator:Max300
Version:Hard+
Source:Togainu no Chi
Tags:
BeatmapID:183087
BeatmapSetID:33514

[Difficulty]
HPDrainRate:7
CircleSize:4
OverallDifficulty:6
ApproachRate:8
SliderMultiplier:1.49999990463257
SliderTickRate:1

[Events]
//Background and Video events
0,0,"017 (1).jpg"
//Break Periods
//Storyboard Layer 0 (Background)
//Storyboard Layer 1 (Fail)
//Storyboard Layer 2 (Pass)
//Storyboard Layer 3 (Foreground)
//Storyboard Sound Samples
//Background Colour Transformations
3,100,163,162,255

[TimingPoints]
103,285.714285714286,4,1,1,77,1,0

[HitObjects]
80,176,4674,1,8,0:0:0
16,104,4817,2,0,B|64:48|64:48|144:48,1,149.999990463257
312,0,5388,1,8,0:0:0
440,128,5674,1,8,0:0:0
264,160,5960,1,8,0:0:0
96,224,6245,1,0,0:0:0
256,280,6388,6,0,B|224:336,1,37.4999976158143,0|8,0:0|0:0,0:0:0
376,272,6674,2,0,B|400:304,1,37.4999976158143,8|8,0:0|0:0,0:0:0
400,160,6960,2,0,B|432:136,1,37.4999976158143,0|8,0:0|0:0,0:0:0
256,96,7245,1,0,0:0:0
136,128,7388,1,8,0:0:0
88,304,7674,1,0,0:0:0
264,280,7960,1,0,0:0:0
424,192,8245,1,0,0:0:0
296,168,8674,5,0,0:0:0
280,144,8745,1,0,0:0:0
264,120,8817,1,0,0:0:0
248,96,8888,1,0,0:0:0
144,144,9245,6,0,B|64:144,1,74.9999952316285,0|0,0:0|0:0,0:0:0
192,216,9531,2,0,B|136:272,1,74.9999952316285,0|0,0:0|0:0,0:0:0
288,216,9817,2,0,B|288:296,1,74.9999952316285,0|0,0:0|0:0,0:0:0
384,216,10103,6,0,B|440:272,1,74.9999952316285,0|0,0:0|0:0,0:0:0
424,144,10388,2,0,B|504:144,1,74.9999952316285,0|0,0:0|0:0,0:0:0
384,72,10674,2,0,B|440:8,1,74.9999952316285,0|0,0:0|0:0,0:0:0
288,72,10960,2,0,B|288:-8,1,74.9999952316285,0|0,0:0|0:0,0:0:0
192,72,11245,2,0,B|136:16,1,74.9999952316285,8|0,0:0|0:0,0:0:0
240,144,11531,6,0,B|208:216,1,74.9999952316285
352,144,11817,2,0,B|384:216,1,74.9999952316285
296,240,12103,2,0,B|296:328,1,74.9999952316285
296,144,12388,2,0,B|296:64,1,74.9999952316285
376,192,12674,2,0,B|480:192,1,74.9999952316285
216,192,12960,2,0,B|136:192,1,74.9999952316285
32,112,13245,6,0,B|72:48|72:48|160:48,1,149.999990463257
336,0,13817,1,0,0:0:0
456,72,13960,1,0,0:0:0
296,248,14531,2,0,B|328:232|328:232|368:248,1,74.9999952316285
488,288,14960,2,0,B|432:336|432:336|280:336,1,224.999985694886
192,328,15531,1,8,0:0:0
224,240,15674,1,8,0:0:0
184,160,15817,1,8,0:0:0
48,176,16103,5,0,0:0:0
16,80,16245,1,0,0:0:0
80,168,16674,1,0,0:0:0
80,64,16817,1,0,0:0:0
104,176,17245,1,0,0:0:0
144,80,17388,1,0,0:0:0
64,120,18674,5,8,0:0:0
136,64,18817,1,0,0:0:0
200,120,18960,1,0,0:0:0
256,48,19103,2,0,B|336:104|336:104|336:232,1,224.999985694886
480,344,19817,1,8,0:0:0
296,344,20103,1,0,0:0:0
416,208,20388,2,0,B|360:160|360:160|280:160,1,149.999990463257
216,224,20817,1,0,0:0:0
136,184,20960,1,0,0:0:0
184,104,21103,1,8,0:0:0
352,40,21388,5,8,0:0:0
416,104,21531,1,0,0:0:0
416,192,21674,1,0,0:0:0
352,256,21817,1,0,0:0:0
328,168,21960,2,0,B|272:96|272:96|208:96,1,149.999990463257
56,40,22531,6,0,B|56:128|56:128|104:184,1,149.999990463257
72,264,22960,1,0,0:0:0
168,280,23102,1,0,0:0:0
216,200,23245,1,8,0:0:0
280,264,23388,1,0,0:0:0
328,192,23531,1,0,0:0:0
272,128,23674,1,8,0:0:0
192,88,23817,2,0,B|240:32|240:32|344:32,1,149.999990463257
424,120,24388,6,0,B|424:200|424:200|376:288,1,149.999990463257
456,320,24817,1,0,0:0:0
368,336,24960,1,0,0:0:0
296,280,25103,1,8,0:0:0
216,320,25245,1,0,0:0:0
208,232,25388,1,0,0:0:0
128,288,25531,2,0,B|80:232|80:232|80:144,1,149.999990463257
24,88,25960,1,0,0:0:0
168,72,26388,6,0,B|192:40|192:40|248:40,1,74.9999952316285
248,128,26674,1,8,0:0:0
312,72,26817,1,0,0:0:0
400,72,26960,1,0,0:0:0
456,144,27103,1,0,0:0:0
432,224,27245,1,8,0:0:0
408,248,27317,1,8,0:0:0
384,272,27388,1,8,0:0:0
360,296,27460,1,8,0:0:0
128,296,27817,6,0,B|80:248|80:248|80:152,1,149.999990463257
8,112,28245,1,8,0:0:0
80,56,28388,1,0,0:0:0
160,104,28531,1,0,0:0:0
168,192,28674,1,0,0:0:0
224,264,28817,1,0,0:0:0
264,184,28960,2,0,B|304:160|304:160|304:48,1,149.999990463257
440,176,29531,5,8,0:0:0
464,264,29674,1,0,0:0:0
376,240,29817,2,0,B|344:256|344:256|304:232,1,74.9999952316285
248,304,30103,1,0,0:0:0
176,248,30245,1,8,0:0:0
104,304,30388,1,0,0:0:0
88,216,30531,1,0,0:0:0
144,144,30674,2,0,B|224:144|224:144|256:80,1,149.999990463257
344,56,31103,5,0,0:0:0
384,136,31245,1,8,0:0:0
336,216,31388,1,0,0:0:0
248,184,31531,1,0,0:0:0
176,128,31674,1,0,0:0:0
224,48,31817,1,0,0:0:0
224,48,31888,1,0,0:0:0
224,48,31960,1,0,0:0:0
224,48,32031,1,0,0:0:0
224,48,32103,1,8,0:0:0
120,32,32388,6,0,B|80:80|80:80|80:200,1,149.999990463257
16,232,32817,1,8,0:0:0
80,296,32960,1,0,0:0:0
136,224,33103,1,0,0:0:0
216,264,33245,1,0,0:0:0
256,184,33388,1,0,0:0:0
328,232,33531,1,8,0:0:0
344,144,33674,6,0,B|392:112|392:112|392:16,1,149.999990463257
312,64,34103,2,0,B|280:32|280:32|160:32,1,149.999990463257
88,40,34531,2,0,B|88:96|88:96|152:176,1,149.999990463257
96,248,34960,1,0,0:0:0
184,248,35103,1,0,0:0:0
136,168,35245,2,0,B|184:112|184:112|280:112,1,149.999990463257
344,72,35674,1,0,0:0:0
360,160,35817,2,0,B|360:248|360:248|304:296,1,149.999990463257
112,280,36674,5,0,0:0:0
112,280,36745,1,0,0:0:0
112,280,36817,1,0,0:0:0
112,280,36888,1,0,0:0:0
112,280,36960,1,0,0:0:0
184,352,37245,2,0,B|224:272|224:272|224:136,1,224.999985694886
312,80,37817,5,0,0:0:0
312,80,37888,1,0,0:0:0
312,80,37960,1,0,0:0:0
312,80,38031,1,0,0:0:0
312,80,38103,1,0,0:0:0
384,16,38388,2,0,B|424:88|424:88|424:256,1,224.999985694886
344,304,38960,5,0,0:0:0
344,304,39031,1,0,0:0:0
344,304,39103,1,0,0:0:0
344,304,39174,1,0,0:0:0
344,304,39245,1,0,0:0:0
440,288,39531,2,0,B|392:224|392:224|224:224,1,224.999985694886
184,152,40102,5,0,0:0:0
184,152,40173,1,0,0:0:0
184,152,40245,1,0,0:0:0
184,152,40316,1,0,0:0:0
184,152,40388,1,0,0:0:0
88,128,40674,2,0,B|136:72|136:72|296:72,1,224.999985694886
304,152,41245,5,0,0:0:0
304,152,41317,1,0,0:0:0
304,152,41388,1,0,0:0:0
304,152,41460,1,0,0:0:0
304,152,41531,1,0,0:0:0
320,64,41817,2,0,B|384:112|384:112|384:272,1,224.999985694886
304,256,42388,5,0,0:0:0
304,256,42460,1,0,0:0:0
304,256,42531,1,0,0:0:0
304,256,42603,1,0,0:0:0
304,256,42674,1,0,0:0:0
296,352,42960,2,0,B|224:296|224:296|224:144,1,224.999985694886
304,144,43531,5,0,0:0:0
304,144,43603,1,0,0:0:0
304,144,43674,1,0,0:0:0
304,144,43745,1,0,0:0:0
304,144,43817,1,0,0:0:0
288,56,44103,2,0,B|224:104|224:104|224:248,1,224.999985694886
144,272,44674,5,0,0:0:0
144,272,44745,1,0,0:0:0
144,272,44817,1,0,0:0:0
144,272,44888,1,0,0:0:0
144,272,44960,1,0,0:0:0
136,360,45245,2,0,B|64:312|64:312|64:160,1,224.999985694886
136,56,45960,6,0,B|192:112|192:112|264:112,1,149.999990463257
328,48,46388,1,0,0:0:0
400,104,46531,1,0,0:0:0
448,184,46674,2,0,B|448:272|448:272|392:328,1,149.999990463257
360,240,47103,1,0,0:0:0
272,240,47245,1,0,0:0:0
312,160,47388,2,0,B|256:96|256:96|192:96,1,149.999990463257
152,176,47817,5,0,0:0:0
72,136,47960,1,0,0:0:0
72,224,48103,2,0,B|112:288|112:288|272:288,1,224.999985694886
448,240,48960,2,0,B|448:160|448:160|344:48,1,224.999985694886
280,112,49531,1,0,0:0:0
192,112,49674,1,0,0:0:0
240,192,49817,1,0,0:0:0
64,200,50103,6,0,B|120:264,1,74.9999952316285
200,256,50388,2,0,B|280:296,1,74.9999952316285
352,264,50674,2,0,B|432:264,1,74.9999952316285
432,176,50960,2,0,B|392:112|392:112|240:112,1,224.999985694886
280,192,51531,2,0,B|200:192|200:192|120:56,1,224.999985694886
80,144,52103,2,0,B|144:264|144:264|256:264,1,224.999985694886
288,336,52674,1,0,0:0:0
352,272,52817,1,0,0:0:0
376,184,52960,1,0,0:0:0
376,184,53031,1,0,0:0:0
376,184,53103,1,0,0:0:0
344,96,54103,6,0,B|240:96,1,74.9999952316285
192,48,54388,1,0,0:0:0
120,104,54531,1,0,0:0:0
120,192,54674,2,0,B|80:264,1,74.9999952316285
168,288,54960,2,0,B|184:368,1,74.9999952316285
264,320,55245,1,8,0:0:0
240,232,55388,1,0,0:0:0
328,256,55531,2,0,B|392:192,1,74.9999952316285
312,144,55817,5,0,0:0:0
360,64,55960,1,0,0:0:0
272,64,56103,2,0,B|200:32,1,74.9999952316285
144,104,56388,2,0,B|64:104,1,74.9999952316285
88,192,56674,2,0,B|16:248,1,74.9999952316285
96,280,56960,1,0,0:0:0
176,240,57103,1,0,0:0:0
264,240,57245,1,0,0:0:0
344,200,57388,1,0,0:0:0
344,112,57531,1,0,0:0:0
264,152,57674,6,0,B|216:72,1,74.9999952316285
136,88,57960,2,0,B|96:160,1,74.9999952316285
184,184,58245,2,0,B|184:264,1,74.9999952316285
272,224,58531,1,0,0:0:0
352,264,58674,2,0,B|352:184,1,74.9999952316285
432,224,58960,1,0,0:0:0
432,312,59103,1,0,0:0:0
352,344,59245,1,0,0:0:0
272,312,59388,1,0,0:0:0
272,224,59531,1,0,0:0:0
352,184,59674,6,0,B|352:88,1,74.9999952316285
264,144,59960,2,0,B|344:144,1,74.9999952316285
432,144,60245,2,0,B|344:144,1,74.9999952316285
352,56,60531,2,0,B|352:152,1,74.9999952316285
352,224,60817,2,0,B|352:136,1,74.9999952316285
416,88,61103,1,0,0:0:0
344,40,61245,1,0,0:0:0
256,40,61388,1,0,0:0:0
168,40,61531,1,0,0:0:0
96,112,61674,6,0,B|40:192,1,74.9999952316285
144,192,61960,2,0,B|144:288,1,74.9999952316285
232,248,62245,2,0,B|280:328,1,74.9999952316285
328,248,62531,1,0,0:0:0
416,232,62674,2,0,B|368:152,1,74.9999952316285
288,152,62960,1,0,0:0:0
224,88,63103,1,0,0:0:0
152,136,63245,1,0,0:0:0
216,200,63388,1,0,0:0:0
168,272,63531,5,0,0:0:0
256,272,63674,1,0,0:0:0
344,272,63817,1,0,0:0:0
400,200,63960,1,0,0:0:0
400,112,64103,1,0,0:0:0
320,152,64245,2,0,B|256:88,1,74.9999952316285
200,160,64531,2,0,B|256:224,1,74.9999952316285
336,248,64817,1,0,0:0:0
272,184,64960,2,0,B|208:112,1,74.9999952316285
136,96,65245,5,0,0:0:0
72,160,65388,1,0,0:0:0
72,248,65531,1,0,0:0:0
152,208,65674,2,0,B|216:144,1,74.9999952316285
280,208,65960,2,0,B|224:264,1,74.9999952316285
288,328,66245,2,0,B|360:264,1,74.9999952316285
376,192,66531,1,0,0:0:0
312,128,66674,1,0,0:0:0
232,88,66817,6,0,B|168:48,1,74.9999952316285
152,136,67103,2,0,B|64:160,1,74.9999952316285
144,224,67388,2,0,B|88:296,1,74.9999952316285
184,320,67674,1,0,0:0:0
232,240,67817,1,0,0:0:0
280,320,67960,1,0,0:0:0
368,304,68103,2,0,B|408:240,1,74.9999952316285
328,200,68388,2,0,B|328:112,1,74.9999952316285
248,80,68674,5,0,0:0:0
160,48,68817,1,0,0:0:0
96,112,68960,1,0,0:0:0
96,200,69103,2,0,B|128:272,1,74.9999952316285
184,200,69388,2,0,B|216:272,1,74.9999952316285
272,200,69674,2,0,B|312:288,1,74.9999952316285
376,216,69960,1,0,0:0:0
336,136,70103,1,0,0:0:0
248,112,70245,5,0,0:0:0
200,40,70388,1,0,0:0:0
120,80,70531,1,0,0:0:0
160,160,70674,2,0,B|120:240,1,74.9999952316285
216,248,70960,2,0,B|216:344,1,74.9999952316285
304,304,71245,6,0,B|384:304,1,74.9999952316285
384,304,71603,1,0,0:0:0
384,304,71745,1,0,0:0:0
384,216,71960,2,0,B|296:216,1,74.9999952316285
309,216,72317,1,0,0:0:0
309,216,72460,1,0,0:0:0
336,80,72817,5,0,0:0:0
248,48,72960,1,0,0:0:0
184,112,73103,2,0,B|96:112,1,74.9999952316285
144,192,73388,1,0,0:0:0
64,240,73531,1,0,0:0:0
144,280,73674,1,0,0:0:0
224,240,73817,2,0,B|248:272|248:272|296:248,1,74.9999952316285
336,328,74103,5,0,0:0:0
376,248,74245,1,0,0:0:0
440,184,74388,2,0,B|408:160|408:160|352:160,1,74.9999952316285
328,80,74674,1,0,0:0:0
152,48,74960,1,0,0:0:0
64,208,75245,1,0,0:0:0
104,288,75388,1,0,0:0:0
176,232,75531,5,8,0:0:0
216,312,75674,2,0,B|272:280|272:280|272:160,1,149.999990463257
392,64,76245,1,0,0:0:0
216,40,76531,1,0,0:0:0
80,160,76817,1,0,0:0:0
328,272,77245,1,8,0:0:0
344,248,77317,1,8,0:0:0
360,224,77388,1,8,0:0:0
376,200,77460,1,8,0:0:0
256,192,77674,12,0,78388,0:0:0
