osu file format v14

[General]
AudioFilename: Sigmund.mp3
AudioLeadIn: 0
PreviewTime: 98481
Countdown: 0
SampleSet: Soft
StackLeniency: 0.7
Mode: 3
LetterboxInBreaks: 0
SpecialStyle: 0
WidescreenStoryboard: 0

[Editor]
Bookmarks: 12081,21681,40881,60081,69681,79281,98481
DistanceSpacing: 1
BeatDivisor: 8
GridSize: 8
TimelineZoom: 2.399999

[Metadata]
Title:Sigmund
TitleUnicode:Sigmund
Artist:Gram
ArtistUnicode:Gram
Creator:Sakura Kyoko
Version:Last Breath
Source:beatmania IIDX 21 SPADA
Tags:DJ Genki REQUIEM PSY BEMANI
BeatmapID:1017787
BeatmapSetID:476509

[Difficulty]
HPDrainRate:8.5
CircleSize:4
OverallDifficulty:8.5
ApproachRate:5
SliderMultiplier:1.4
SliderTickRate:1

[Events]
//Background and Video events
0,0,"SigmundBG.png",0,0
//Break Periods
//Storyboard Layer 0 (Background)
//Storyboard Layer 1 (Fail)
//Storyboard Layer 2 (Pass)
//Storyboard Layer 3 (Foreground)
//Storyboard Sound Samples

[TimingPoints]
381,300,4,2,0,30,1,0
40881,-100,4,2,0,30,0,1
60081,-100,4,2,0,30,0,0
98481,-100,4,2,0,30,0,1
117681,-100,4,2,0,30,0,0

[HitObjects]
320,192,2481,5,0,0:0:0:0:
448,192,2481,1,0,0:0:0:0:
64,192,2481,128,0,3681:0:0:0:0:
448,192,3081,1,0,0:0:0:0:
320,192,3531,1,0,0:0:0:0:
192,192,3681,128,0,4281:0:0:0:0:
448,192,3831,1,0,0:0:0:0:
64,192,3981,1,0,0:0:0:0:
320,192,4281,128,0,4881:0:0:0:0:
64,192,4281,1,0,0:0:0:0:
192,192,4581,1,0,0:0:0:0:
448,192,4581,1,0,0:0:0:0:
448,192,4881,128,0,6081:0:0:0:0:
64,192,4881,1,0,0:0:0:0:
192,192,4881,1,0,0:0:0:0:
192,192,5331,1,0,0:0:0:0:
64,192,5781,1,0,0:0:0:0:
320,192,6081,128,0,6681:0:0:0:0:
64,192,6231,1,0,0:0:0:0:
448,192,6381,1,0,0:0:0:0:
192,192,6681,128,0,7281:0:0:0:0:
64,192,6681,1,0,0:0:0:0:
448,192,6981,1,0,0:0:0:0:
64,192,7281,128,0,8481:0:0:0:0:
448,192,7281,1,0,0:0:0:0:
320,192,7281,1,0,0:0:0:0:
320,192,7881,1,0,0:0:0:0:
192,192,8331,1,0,0:0:0:0:
320,192,8481,128,0,9081:0:0:0:0:
64,192,8631,1,0,0:0:0:0:
448,192,8781,1,0,0:0:0:0:
192,192,9081,128,0,9681:0:0:0:0:
448,192,9081,1,0,0:0:0:0:
64,192,9381,1,0,0:0:0:0:
320,192,9381,1,0,0:0:0:0:
448,192,9681,128,0,10881:0:0:0:0:
64,192,9681,1,0,0:0:0:0:
320,192,9681,1,0,0:0:0:0:
192,192,9781,1,0,0:0:0:0:
320,192,9881,1,0,0:0:0:0:
64,192,9981,1,0,0:0:0:0:
320,192,10081,1,0,0:0:0:0:
192,192,10181,1,0,0:0:0:0:
64,192,10281,1,0,0:0:0:0:
192,192,10381,1,0,0:0:0:0:
320,192,10481,1,0,0:0:0:0:
64,192,10581,1,0,0:0:0:0:
320,192,10681,1,0,0:0:0:0:
192,192,10781,1,0,0:0:0:0:
320,192,10881,128,0,12081:0:0:0:0:
64,192,10881,1,0,0:0:0:0:
192,192,10981,1,0,0:0:0:0:
448,192,11081,1,0,0:0:0:0:
64,192,11181,1,0,0:0:0:0:
448,192,11281,1,0,0:0:0:0:
192,192,11381,1,0,0:0:0:0:
64,192,11481,1,0,0:0:0:0:
192,192,11581,1,0,0:0:0:0:
448,192,11681,1,0,0:0:0:0:
64,192,11781,1,0,0:0:0:0:
448,192,11881,1,0,0:0:0:0:
192,192,11981,1,0,0:0:0:0:
64,192,12081,5,0,0:0:0:0:
448,192,12081,1,0,0:0:0:0:
192,192,12181,1,0,0:0:0:0:
320,192,12281,1,0,0:0:0:0:
64,192,12381,1,0,0:0:0:0:
448,192,12481,1,0,0:0:0:0:
320,192,12581,1,0,0:0:0:0:
192,192,12681,1,0,0:0:0:0:
448,192,12781,1,0,0:0:0:0:
192,192,12881,1,0,0:0:0:0:
320,192,12981,1,0,0:0:0:0:
64,192,13081,1,0,0:0:0:0:
320,192,13181,1,0,0:0:0:0:
192,192,13281,1,0,0:0:0:0:
448,192,13381,1,0,0:0:0:0:
192,192,13481,1,0,0:0:0:0:
320,192,13581,1,0,0:0:0:0:
64,192,13681,1,0,0:0:0:0:
448,192,13781,1,0,0:0:0:0:
320,192,13881,1,0,0:0:0:0:
192,192,13981,1,0,0:0:0:0:
448,192,14081,1,0,0:0:0:0:
64,192,14181,1,0,0:0:0:0:
192,192,14281,1,0,0:0:0:0:
320,192,14381,1,0,0:0:0:0:
64,192,14481,1,0,0:0:0:0:
448,192,14481,1,0,0:0:0:0:
320,192,14581,1,0,0:0:0:0:
192,192,14681,1,0,0:0:0:0:
448,192,14781,1,0,0:0:0:0:
64,192,14881,1,0,0:0:0:0:
192,192,14981,1,0,0:0:0:0:
320,192,15081,1,0,0:0:0:0:
64,192,15181,1,0,0:0:0:0:
320,192,15281,1,0,0:0:0:0:
192,192,15381,1,0,0:0:0:0:
448,192,15481,1,0,0:0:0:0:
192,192,15581,1,0,0:0:0:0:
320,192,15681,1,0,0:0:0:0:
64,192,15781,1,0,0:0:0:0:
320,192,15881,1,0,0:0:0:0:
192,192,15981,1,0,0:0:0:0:
448,192,16081,1,0,0:0:0:0:
64,192,16181,1,0,0:0:0:0:
192,192,16281,1,0,0:0:0:0:
320,192,16381,1,0,0:0:0:0:
64,192,16481,1,0,0:0:0:0:
448,192,16581,1,0,0:0:0:0:
320,192,16681,1,0,0:0:0:0:
192,192,16781,1,0,0:0:0:0:
64,192,16881,1,0,0:0:0:0:
448,192,16881,1,0,0:0:0:0:
192,192,16981,1,0,0:0:0:0:
320,192,17081,1,0,0:0:0:0:
64,192,17181,1,0,0:0:0:0:
448,192,17281,1,0,0:0:0:0:
320,192,17381,1,0,0:0:0:0:
192,192,17481,1,0,0:0:0:0:
448,192,17581,1,0,0:0:0:0:
192,192,17681,1,0,0:0:0:0:
320,192,17781,1,0,0:0:0:0:
64,192,17881,1,0,0:0:0:0:
320,192,17981,1,0,0:0:0:0:
192,192,18081,1,0,0:0:0:0:
448,192,18181,1,0,0:0:0:0:
192,192,18281,1,0,0:0:0:0:
320,192,18381,1,0,0:0:0:0:
64,192,18481,1,0,0:0:0:0:
448,192,18581,1,0,0:0:0:0:
320,192,18681,1,0,0:0:0:0:
192,192,18781,1,0,0:0:0:0:
448,192,18881,1,0,0:0:0:0:
64,192,18981,1,0,0:0:0:0:
192,192,19081,1,0,0:0:0:0:
320,192,19181,1,0,0:0:0:0:
64,192,19281,1,0,0:0:0:0:
448,192,19281,1,0,0:0:0:0:
320,192,19381,1,0,0:0:0:0:
192,192,19481,1,0,0:0:0:0:
448,192,19581,1,0,0:0:0:0:
64,192,19681,1,0,0:0:0:0:
192,192,19781,1,0,0:0:0:0:
448,192,19881,1,0,0:0:0:0:
64,192,19881,1,0,0:0:0:0:
192,192,19981,1,0,0:0:0:0:
320,192,19981,1,0,0:0:0:0:
448,192,20081,1,0,0:0:0:0:
64,192,20081,1,0,0:0:0:0:
192,192,20181,1,0,0:0:0:0:
320,192,20181,1,0,0:0:0:0:
448,192,20281,1,0,0:0:0:0:
64,192,20281,1,0,0:0:0:0:
320,192,20381,1,0,0:0:0:0:
192,192,20481,1,0,0:0:0:0:
448,192,20481,1,0,0:0:0:0:
64,192,20481,1,0,0:0:0:0:
320,192,20581,1,0,0:0:0:0:
192,192,20681,1,0,0:0:0:0:
64,192,20781,1,0,0:0:0:0:
192,192,20881,1,0,0:0:0:0:
320,192,20981,1,0,0:0:0:0:
448,192,21081,1,0,0:0:0:0:
320,192,21181,1,0,0:0:0:0:
192,192,21281,1,0,0:0:0:0:
64,192,21381,1,0,0:0:0:0:
192,192,21418,1,0,0:0:0:0:
448,192,21456,1,0,0:0:0:0:
320,192,21493,1,0,0:0:0:0:
64,192,21531,1,0,0:0:0:0:
192,192,21568,1,0,0:0:0:0:
448,192,21606,1,0,0:0:0:0:
320,192,21643,1,0,0:0:0:0:
64,192,21681,1,0,0:0:0:0:
448,192,21681,1,0,0:0:0:0:
192,192,21681,1,0,0:0:0:0:
320,192,21756,1,0,0:0:0:0:
192,192,21831,1,0,0:0:0:0:
320,192,21906,1,0,0:0:0:0:
448,192,21981,1,0,0:0:0:0:
64,192,21981,1,0,0:0:0:0:
192,192,22056,1,0,0:0:0:0:
320,192,22131,1,0,0:0:0:0:
448,192,22206,1,0,0:0:0:0:
64,192,22281,1,0,0:0:0:0:
320,192,22281,1,0,0:0:0:0:
192,192,22356,1,0,0:0:0:0:
64,192,22431,1,0,0:0:0:0:
192,192,22506,1,0,0:0:0:0:
320,192,22581,1,0,0:0:0:0:
448,192,22581,1,0,0:0:0:0:
64,192,22656,1,0,0:0:0:0:
192,192,22731,1,0,0:0:0:0:
320,192,22806,1,0,0:0:0:0:
192,192,22881,1,0,0:0:0:0:
64,192,22881,1,0,0:0:0:0:
448,192,22956,1,0,0:0:0:0:
320,192,23031,1,0,0:0:0:0:
192,192,23106,1,0,0:0:0:0:
64,192,23181,1,0,0:0:0:0:
448,192,23181,1,0,0:0:0:0:
320,192,23256,1,0,0:0:0:0:
192,192,23331,1,0,0:0:0:0:
64,192,23406,1,0,0:0:0:0:
448,192,23481,1,0,0:0:0:0:
192,192,23481,1,0,0:0:0:0:
320,192,23556,1,0,0:0:0:0:
448,192,23631,1,0,0:0:0:0:
320,192,23706,1,0,0:0:0:0:
192,192,23781,1,0,0:0:0:0:
64,192,23781,1,0,0:0:0:0:
448,192,23856,1,0,0:0:0:0:
320,192,23931,1,0,0:0:0:0:
192,192,24006,1,0,0:0:0:0:
320,192,24081,1,0,0:0:0:0:
448,192,24081,1,0,0:0:0:0:
64,192,24156,1,0,0:0:0:0:
320,192,24231,1,0,0:0:0:0:
192,192,24306,1,0,0:0:0:0:
448,192,24381,1,0,0:0:0:0:
64,192,24381,1,0,0:0:0:0:
320,192,24456,1,0,0:0:0:0:
192,192,24531,1,0,0:0:0:0:
320,192,24606,1,0,0:0:0:0:
64,192,24681,1,0,0:0:0:0:
192,192,24681,1,0,0:0:0:0:
448,192,24756,1,0,0:0:0:0:
192,192,24831,1,0,0:0:0:0:
320,192,24906,1,0,0:0:0:0:
448,192,24981,1,0,0:0:0:0:
64,192,24981,1,0,0:0:0:0:
192,192,25056,1,0,0:0:0:0:
320,192,25131,1,0,0:0:0:0:
192,192,25206,1,0,0:0:0:0:
320,192,25281,1,0,0:0:0:0:
448,192,25281,1,0,0:0:0:0:
64,192,25356,1,0,0:0:0:0:
192,192,25431,1,0,0:0:0:0:
320,192,25506,1,0,0:0:0:0:
448,192,25581,1,0,0:0:0:0:
64,192,25581,1,0,0:0:0:0:
192,192,25656,1,0,0:0:0:0:
320,192,25731,1,0,0:0:0:0:
192,192,25806,1,0,0:0:0:0:
320,192,25881,1,0,0:0:0:0:
64,192,25881,1,0,0:0:0:0:
448,192,25956,1,0,0:0:0:0:
320,192,26031,1,0,0:0:0:0:
192,192,26106,1,0,0:0:0:0:
64,192,26181,1,0,0:0:0:0:
448,192,26181,1,0,0:0:0:0:
320,192,26256,1,0,0:0:0:0:
192,192,26331,1,0,0:0:0:0:
320,192,26406,1,0,0:0:0:0:
64,192,26481,1,0,0:0:0:0:
192,192,26481,1,0,0:0:0:0:
448,192,26481,1,0,0:0:0:0:
320,192,26556,1,0,0:0:0:0:
192,192,26631,1,0,0:0:0:0:
64,192,26706,1,0,0:0:0:0:
192,192,26781,1,0,0:0:0:0:
448,192,26781,1,0,0:0:0:0:
64,192,26856,1,0,0:0:0:0:
192,192,26931,1,0,0:0:0:0:
320,192,27006,1,0,0:0:0:0:
64,192,27081,1,0,0:0:0:0:
448,192,27081,1,0,0:0:0:0:
192,192,27156,1,0,0:0:0:0:
320,192,27231,1,0,0:0:0:0:
192,192,27306,1,0,0:0:0:0:
320,192,27381,1,0,0:0:0:0:
448,192,27381,1,0,0:0:0:0:
64,192,27456,1,0,0:0:0:0:
192,192,27531,1,0,0:0:0:0:
320,192,27606,1,0,0:0:0:0:
192,192,27681,1,0,0:0:0:0:
64,192,27681,1,0,0:0:0:0:
448,192,27756,1,0,0:0:0:0:
192,192,27831,1,0,0:0:0:0:
320,192,27906,1,0,0:0:0:0:
64,192,27981,1,0,0:0:0:0:
448,192,27981,1,0,0:0:0:0:
192,192,28056,1,0,0:0:0:0:
320,192,28131,1,0,0:0:0:0:
192,192,28206,1,0,0:0:0:0:
320,192,28281,1,0,0:0:0:0:
448,192,28281,1,0,0:0:0:0:
64,192,28356,1,0,0:0:0:0:
320,192,28431,1,0,0:0:0:0:
192,192,28506,1,0,0:0:0:0:
64,192,28581,1,0,0:0:0:0:
448,192,28581,1,0,0:0:0:0:
320,192,28656,1,0,0:0:0:0:
192,192,28731,1,0,0:0:0:0:
320,192,28806,1,0,0:0:0:0:
192,192,28881,1,0,0:0:0:0:
64,192,28881,1,0,0:0:0:0:
448,192,28956,1,0,0:0:0:0:
320,192,29031,1,0,0:0:0:0:
192,192,29106,1,0,0:0:0:0:
64,192,29181,1,0,0:0:0:0:
448,192,29181,1,0,0:0:0:0:
320,192,29256,1,0,0:0:0:0:
192,192,29331,1,0,0:0:0:0:
320,192,29406,1,0,0:0:0:0:
64,192,29481,1,0,0:0:0:0:
192,192,29481,1,0,0:0:0:0:
448,192,29556,1,0,0:0:0:0:
192,192,29631,1,0,0:0:0:0:
320,192,29706,1,0,0:0:0:0:
64,192,29781,1,0,0:0:0:0:
448,192,29781,1,0,0:0:0:0:
192,192,29856,1,0,0:0:0:0:
320,192,29931,1,0,0:0:0:0:
192,192,30006,1,0,0:0:0:0:
320,192,30081,1,0,0:0:0:0:
448,192,30081,1,0,0:0:0:0:
64,192,30081,1,0,0:0:0:0:
64,192,30306,1,0,0:0:0:0:
192,192,30306,1,0,0:0:0:0:
448,192,30306,1,0,0:0:0:0:
320,192,30531,1,0,0:0:0:0:
448,192,30531,1,0,0:0:0:0:
192,192,30531,1,0,0:0:0:0:
64,192,30681,1,0,0:0:0:0:
192,192,30681,1,0,0:0:0:0:
320,192,30681,1,0,0:0:0:0:
448,192,30831,1,0,0:0:0:0:
320,192,30868,1,0,0:0:0:0:
192,192,30906,1,0,0:0:0:0:
64,192,30943,1,0,0:0:0:0:
320,192,30981,1,0,0:0:0:0:
448,192,30981,1,0,0:0:0:0:
64,192,31056,1,0,0:0:0:0:
192,192,31056,1,0,0:0:0:0:
320,192,31131,1,0,0:0:0:0:
448,192,31131,1,0,0:0:0:0:
192,192,31206,1,0,0:0:0:0:
64,192,31281,1,0,0:0:0:0:
320,192,31281,1,0,0:0:0:0:
448,192,31281,1,0,0:0:0:0:
192,192,31356,1,0,0:0:0:0:
448,192,31431,1,0,0:0:0:0:
320,192,31506,1,0,0:0:0:0:
64,192,31581,1,0,0:0:0:0:
192,192,31581,1,0,0:0:0:0:
448,192,31581,1,0,0:0:0:0:
320,192,31656,1,0,0:0:0:0:
192,192,31731,1,0,0:0:0:0:
64,192,31806,1,0,0:0:0:0:
448,192,31881,1,0,0:0:0:0:
192,192,31881,1,0,0:0:0:0:
320,192,31956,1,0,0:0:0:0:
448,192,32031,1,0,0:0:0:0:
64,192,32106,1,0,0:0:0:0:
192,192,32181,1,0,0:0:0:0:
320,192,32181,1,0,0:0:0:0:
448,192,32181,1,0,0:0:0:0:
64,192,32256,1,0,0:0:0:0:
448,192,32331,1,0,0:0:0:0:
320,192,32406,1,0,0:0:0:0:
64,192,32481,1,0,0:0:0:0:
192,192,32481,1,0,0:0:0:0:
448,192,32556,1,0,0:0:0:0:
320,192,32631,1,0,0:0:0:0:
192,192,32706,1,0,0:0:0:0:
64,192,32781,1,0,0:0:0:0:
448,192,32781,1,0,0:0:0:0:
320,192,32781,1,0,0:0:0:0:
192,192,32856,1,0,0:0:0:0:
64,192,32931,1,0,0:0:0:0:
448,192,33006,1,0,0:0:0:0:
192,192,33081,1,0,0:0:0:0:
320,192,33081,1,0,0:0:0:0:
64,192,33156,1,0,0:0:0:0:
192,192,33231,1,0,0:0:0:0:
320,192,33306,1,0,0:0:0:0:
64,192,33381,1,0,0:0:0:0:
192,192,33381,1,0,0:0:0:0:
448,192,33381,1,0,0:0:0:0:
320,192,33456,1,0,0:0:0:0:
192,192,33531,1,0,0:0:0:0:
448,192,33606,1,0,0:0:0:0:
64,192,33681,1,0,0:0:0:0:
320,192,33681,1,0,0:0:0:0:
192,192,33756,1,0,0:0:0:0:
320,192,33831,1,0,0:0:0:0:
448,192,33906,1,0,0:0:0:0:
64,192,33981,1,0,0:0:0:0:
192,192,33981,1,0,0:0:0:0:
320,192,33981,1,0,0:0:0:0:
448,192,34056,1,0,0:0:0:0:
64,192,34131,1,0,0:0:0:0:
192,192,34206,1,0,0:0:0:0:
320,192,34281,1,0,0:0:0:0:
448,192,34281,1,0,0:0:0:0:
64,192,34356,1,0,0:0:0:0:
192,192,34431,1,0,0:0:0:0:
320,192,34506,1,0,0:0:0:0:
64,192,34581,1,0,0:0:0:0:
448,192,34581,1,0,0:0:0:0:
192,192,34581,1,0,0:0:0:0:
320,192,34656,1,0,0:0:0:0:
64,192,34731,1,0,0:0:0:0:
192,192,34806,1,0,0:0:0:0:
448,192,34881,1,0,0:0:0:0:
320,192,34918,1,0,0:0:0:0:
192,192,34956,1,0,0:0:0:0:
64,192,34993,1,0,0:0:0:0:
320,192,35031,1,0,0:0:0:0:
448,192,35031,1,0,0:0:0:0:
192,192,35106,1,0,0:0:0:0:
320,192,35181,1,0,0:0:0:0:
448,192,35181,1,0,0:0:0:0:
64,192,35181,1,0,0:0:0:0:
192,192,35256,1,0,0:0:0:0:
320,192,35331,1,0,0:0:0:0:
192,192,35406,1,0,0:0:0:0:
64,192,35481,1,0,0:0:0:0:
448,192,35481,1,0,0:0:0:0:
320,192,35556,1,0,0:0:0:0:
192,192,35631,1,0,0:0:0:0:
320,192,35706,1,0,0:0:0:0:
192,192,35781,1,0,0:0:0:0:
64,192,35781,1,0,0:0:0:0:
448,192,35856,1,0,0:0:0:0:
320,192,35856,1,0,0:0:0:0:
192,192,35931,1,0,0:0:0:0:
64,192,35931,1,0,0:0:0:0:
320,192,36006,1,0,0:0:0:0:
448,192,36081,1,0,0:0:0:0:
192,192,36081,1,0,0:0:0:0:
64,192,36081,1,0,0:0:0:0:
320,192,36156,1,0,0:0:0:0:
448,192,36231,1,0,0:0:0:0:
64,192,36306,1,0,0:0:0:0:
192,192,36381,1,0,0:0:0:0:
320,192,36381,1,0,0:0:0:0:
448,192,36381,1,0,0:0:0:0:
64,192,36456,1,0,0:0:0:0:
192,192,36531,1,0,0:0:0:0:
320,192,36606,1,0,0:0:0:0:
64,192,36681,1,0,0:0:0:0:
448,192,36681,1,0,0:0:0:0:
192,192,36756,1,0,0:0:0:0:
320,192,36831,1,0,0:0:0:0:
192,192,36906,1,0,0:0:0:0:
64,192,36981,1,0,0:0:0:0:
448,192,36981,1,0,0:0:0:0:
320,192,36981,1,0,0:0:0:0:
192,192,37056,1,0,0:0:0:0:
320,192,37131,1,0,0:0:0:0:
448,192,37206,1,0,0:0:0:0:
64,192,37281,1,0,0:0:0:0:
320,192,37281,1,0,0:0:0:0:
192,192,37356,1,0,0:0:0:0:
64,192,37431,1,0,0:0:0:0:
448,192,37506,1,0,0:0:0:0:
320,192,37581,1,0,0:0:0:0:
64,192,37581,1,0,0:0:0:0:
192,192,37581,1,0,0:0:0:0:
448,192,37656,1,0,0:0:0:0:
320,192,37731,1,0,0:0:0:0:
192,192,37806,1,0,0:0:0:0:
64,192,37881,1,0,0:0:0:0:
448,192,37881,1,0,0:0:0:0:
320,192,37956,1,0,0:0:0:0:
192,192,38031,1,0,0:0:0:0:
64,192,38031,1,0,0:0:0:0:
320,192,38106,1,0,0:0:0:0:
448,192,38181,1,0,0:0:0:0:
64,192,38181,1,0,0:0:0:0:
192,192,38256,1,0,0:0:0:0:
448,192,38331,1,0,0:0:0:0:
320,192,38331,1,0,0:0:0:0:
192,192,38406,1,0,0:0:0:0:
448,192,38481,1,0,0:0:0:0:
64,192,38481,1,0,0:0:0:0:
320,192,38481,1,0,0:0:0:0:
64,192,38706,1,0,0:0:0:0:
192,192,38706,1,0,0:0:0:0:
448,192,38706,1,0,0:0:0:0:
448,192,38931,1,0,0:0:0:0:
192,192,38931,1,0,0:0:0:0:
320,192,38931,1,0,0:0:0:0:
64,192,39081,1,0,0:0:0:0:
320,192,39081,1,0,0:0:0:0:
192,192,39081,1,0,0:0:0:0:
64,192,39231,1,0,0:0:0:0:
320,192,39231,1,0,0:0:0:0:
448,192,39231,1,0,0:0:0:0:
448,192,39381,1,0,0:0:0:0:
320,192,39381,1,0,0:0:0:0:
192,192,39456,1,0,0:0:0:0:
64,192,39456,1,0,0:0:0:0:
448,192,39531,1,0,0:0:0:0:
320,192,39531,1,0,0:0:0:0:
192,192,39606,1,0,0:0:0:0:
448,192,39681,1,0,0:0:0:0:
320,192,39681,1,0,0:0:0:0:
64,192,39681,1,0,0:0:0:0:
192,192,39831,5,0,0:0:0:0:
64,192,39981,1,0,0:0:0:0:
448,192,40056,1,0,0:0:0:0:
448,192,40206,1,0,0:0:0:0:
64,192,40356,1,0,0:0:0:0:
448,192,40506,1,0,0:0:0:0:
64,192,40581,1,0,0:0:0:0:
192,192,40618,1,0,0:0:0:0:
448,192,40656,1,0,0:0:0:0:
320,192,40693,1,0,0:0:0:0:
64,192,40731,1,0,0:0:0:0:
192,192,40768,1,0,0:0:0:0:
448,192,40806,1,0,0:0:0:0:
320,192,40843,1,0,0:0:0:0:
64,192,40881,5,0,0:0:0:0:
192,192,40881,1,0,0:0:0:0:
448,192,40881,1,0,0:0:0:0:
192,192,41031,1,0,0:0:0:0:
320,192,41031,1,0,0:0:0:0:
448,192,41181,1,0,0:0:0:0:
64,192,41181,1,0,0:0:0:0:
320,192,41181,1,0,0:0:0:0:
320,192,41331,1,0,0:0:0:0:
192,192,41331,1,0,0:0:0:0:
64,192,41481,1,0,0:0:0:0:
192,192,41481,1,0,0:0:0:0:
448,192,41481,1,0,0:0:0:0:
64,192,41631,1,0,0:0:0:0:
320,192,41631,1,0,0:0:0:0:
192,192,41706,1,0,0:0:0:0:
320,192,41781,1,0,0:0:0:0:
448,192,41781,1,0,0:0:0:0:
64,192,41781,1,0,0:0:0:0:
192,192,41931,1,0,0:0:0:0:
448,192,41931,1,0,0:0:0:0:
320,192,42006,1,0,0:0:0:0:
64,192,42081,1,0,0:0:0:0:
192,192,42081,1,0,0:0:0:0:
448,192,42081,1,0,0:0:0:0:
192,192,42231,1,0,0:0:0:0:
448,192,42231,1,0,0:0:0:0:
448,192,42381,1,0,0:0:0:0:
320,192,42381,1,0,0:0:0:0:
64,192,42381,1,0,0:0:0:0:
64,192,42531,1,0,0:0:0:0:
320,192,42531,1,0,0:0:0:0:
192,192,42681,1,0,0:0:0:0:
320,192,42681,1,0,0:0:0:0:
448,192,42681,1,0,0:0:0:0:
320,192,42831,1,0,0:0:0:0:
448,192,42831,1,0,0:0:0:0:
192,192,42906,1,0,0:0:0:0:
64,192,42981,1,0,0:0:0:0:
320,192,42981,1,0,0:0:0:0:
448,192,42981,1,0,0:0:0:0:
64,192,43131,1,0,0:0:0:0:
192,192,43131,1,0,0:0:0:0:
320,192,43206,1,0,0:0:0:0:
64,192,43281,1,0,0:0:0:0:
192,192,43281,1,0,0:0:0:0:
448,192,43281,1,0,0:0:0:0:
192,192,43431,1,0,0:0:0:0:
320,192,43431,1,0,0:0:0:0:
64,192,43581,1,0,0:0:0:0:
320,192,43581,1,0,0:0:0:0:
448,192,43581,1,0,0:0:0:0:
64,192,43731,1,0,0:0:0:0:
192,192,43731,1,0,0:0:0:0:
64,192,43881,1,0,0:0:0:0:
320,192,43881,1,0,0:0:0:0:
448,192,43881,1,0,0:0:0:0:
448,192,44031,1,0,0:0:0:0:
192,192,44031,1,0,0:0:0:0:
320,192,44106,1,0,0:0:0:0:
64,192,44181,1,0,0:0:0:0:
192,192,44181,1,0,0:0:0:0:
448,192,44181,1,0,0:0:0:0:
320,192,44331,1,0,0:0:0:0:
64,192,44331,1,0,0:0:0:0:
192,192,44406,1,0,0:0:0:0:
448,192,44481,1,0,0:0:0:0:
320,192,44481,1,0,0:0:0:0:
64,192,44481,1,0,0:0:0:0:
192,192,44631,1,0,0:0:0:0:
64,192,44631,1,0,0:0:0:0:
192,192,44781,1,0,0:0:0:0:
320,192,44781,1,0,0:0:0:0:
448,192,44781,1,0,0:0:0:0:
448,192,44931,1,0,0:0:0:0:
320,192,44931,1,0,0:0:0:0:
192,192,45081,1,0,0:0:0:0:
320,192,45081,1,0,0:0:0:0:
64,192,45081,1,0,0:0:0:0:
64,192,45231,1,0,0:0:0:0:
448,192,45231,1,0,0:0:0:0:
192,192,45306,1,0,0:0:0:0:
320,192,45381,1,0,0:0:0:0:
448,192,45381,1,0,0:0:0:0:
64,192,45456,1,0,0:0:0:0:
192,192,45456,1,0,0:0:0:0:
320,192,45531,1,0,0:0:0:0:
448,192,45531,1,0,0:0:0:0:
192,192,45606,1,0,0:0:0:0:
64,192,45681,1,0,0:0:0:0:
320,192,45681,1,0,0:0:0:0:
448,192,45681,1,0,0:0:0:0:
192,192,45831,1,0,0:0:0:0:
448,192,45831,1,0,0:0:0:0:
64,192,45981,1,0,0:0:0:0:
192,192,45981,1,0,0:0:0:0:
320,192,45981,1,0,0:0:0:0:
64,192,46131,1,0,0:0:0:0:
320,192,46131,1,0,0:0:0:0:
192,192,46281,1,0,0:0:0:0:
320,192,46281,1,0,0:0:0:0:
448,192,46281,1,0,0:0:0:0:
64,192,46431,1,0,0:0:0:0:
192,192,46431,1,0,0:0:0:0:
320,192,46506,1,0,0:0:0:0:
64,192,46581,1,0,0:0:0:0:
192,192,46581,1,0,0:0:0:0:
448,192,46581,1,0,0:0:0:0:
448,192,46731,1,0,0:0:0:0:
320,192,46731,1,0,0:0:0:0:
192,192,46806,1,0,0:0:0:0:
64,192,46881,1,0,0:0:0:0:
320,192,46881,1,0,0:0:0:0:
448,192,46881,1,0,0:0:0:0:
192,192,47031,1,0,0:0:0:0:
64,192,47031,1,0,0:0:0:0:
64,192,47181,1,0,0:0:0:0:
192,192,47181,1,0,0:0:0:0:
448,192,47181,1,0,0:0:0:0:
448,192,47331,1,0,0:0:0:0:
320,192,47331,1,0,0:0:0:0:
64,192,47481,1,0,0:0:0:0:
320,192,47481,1,0,0:0:0:0:
448,192,47481,1,0,0:0:0:0:
192,192,47631,1,0,0:0:0:0:
448,192,47631,1,0,0:0:0:0:
320,192,47706,1,0,0:0:0:0:
64,192,47781,1,0,0:0:0:0:
192,192,47781,1,0,0:0:0:0:
448,192,47781,1,0,0:0:0:0:
64,192,47931,1,0,0:0:0:0:
320,192,47931,1,0,0:0:0:0:
192,192,48006,1,0,0:0:0:0:
64,192,48081,1,0,0:0:0:0:
320,192,48081,1,0,0:0:0:0:
448,192,48081,1,0,0:0:0:0:
64,192,48231,1,0,0:0:0:0:
320,192,48231,1,0,0:0:0:0:
448,192,48231,1,0,0:0:0:0:
192,192,48381,1,0,0:0:0:0:
320,192,48381,1,0,0:0:0:0:
64,192,48531,1,0,0:0:0:0:
320,192,48531,1,0,0:0:0:0:
448,192,48531,1,0,0:0:0:0:
64,192,48681,1,0,0:0:0:0:
320,192,48681,1,0,0:0:0:0:
448,192,48681,1,0,0:0:0:0:
320,192,48831,1,0,0:0:0:0:
64,192,48831,1,0,0:0:0:0:
192,192,48906,1,0,0:0:0:0:
64,192,48981,1,0,0:0:0:0:
320,192,48981,1,0,0:0:0:0:
448,192,48981,1,0,0:0:0:0:
192,192,49131,1,0,0:0:0:0:
448,192,49131,1,0,0:0:0:0:
320,192,49206,1,0,0:0:0:0:
64,192,49281,1,0,0:0:0:0:
192,192,49281,1,0,0:0:0:0:
448,192,49281,1,0,0:0:0:0:
64,192,49431,1,0,0:0:0:0:
192,192,49431,1,0,0:0:0:0:
448,192,49431,1,0,0:0:0:0:
192,192,49581,1,0,0:0:0:0:
320,192,49581,1,0,0:0:0:0:
64,192,49731,1,0,0:0:0:0:
192,192,49731,1,0,0:0:0:0:
448,192,49731,1,0,0:0:0:0:
64,192,49881,1,0,0:0:0:0:
192,192,49881,1,0,0:0:0:0:
448,192,49881,1,0,0:0:0:0:
448,192,50031,1,0,0:0:0:0:
64,192,50031,1,0,0:0:0:0:
192,192,50106,1,0,0:0:0:0:
320,192,50181,1,0,0:0:0:0:
448,192,50181,1,0,0:0:0:0:
64,192,50256,1,0,0:0:0:0:
192,192,50256,1,0,0:0:0:0:
320,192,50331,1,0,0:0:0:0:
448,192,50331,1,0,0:0:0:0:
192,192,50406,1,0,0:0:0:0:
64,192,50481,1,0,0:0:0:0:
448,192,50481,1,0,0:0:0:0:
320,192,50481,1,0,0:0:0:0:
64,192,50631,1,0,0:0:0:0:
320,192,50631,1,0,0:0:0:0:
192,192,50781,1,0,0:0:0:0:
448,192,50781,1,0,0:0:0:0:
64,192,50781,1,0,0:0:0:0:
448,192,50931,1,0,0:0:0:0:
192,192,50931,1,0,0:0:0:0:
64,192,51081,1,0,0:0:0:0:
320,192,51081,1,0,0:0:0:0:
448,192,51081,1,0,0:0:0:0:
192,192,51231,1,0,0:0:0:0:
64,192,51231,1,0,0:0:0:0:
320,192,51306,1,0,0:0:0:0:
64,192,51381,1,0,0:0:0:0:
192,192,51381,1,0,0:0:0:0:
448,192,51381,1,0,0:0:0:0:
320,192,51531,1,0,0:0:0:0:
448,192,51531,1,0,0:0:0:0:
192,192,51606,1,0,0:0:0:0:
64,192,51681,1,0,0:0:0:0:
320,192,51681,1,0,0:0:0:0:
448,192,51681,1,0,0:0:0:0:
192,192,51831,1,0,0:0:0:0:
320,192,51831,1,0,0:0:0:0:
192,192,51981,1,0,0:0:0:0:
448,192,51981,1,0,0:0:0:0:
64,192,51981,1,0,0:0:0:0:
192,192,52131,1,0,0:0:0:0:
320,192,52131,1,0,0:0:0:0:
64,192,52281,1,0,0:0:0:0:
320,192,52281,1,0,0:0:0:0:
448,192,52281,1,0,0:0:0:0:
192,192,52431,1,0,0:0:0:0:
448,192,52431,1,0,0:0:0:0:
320,192,52506,1,0,0:0:0:0:
192,192,52581,1,0,0:0:0:0:
64,192,52581,1,0,0:0:0:0:
448,192,52581,1,0,0:0:0:0:
64,192,52731,1,0,0:0:0:0:
320,192,52731,1,0,0:0:0:0:
192,192,52806,1,0,0:0:0:0:
64,192,52881,1,0,0:0:0:0:
320,192,52881,1,0,0:0:0:0:
448,192,52881,1,0,0:0:0:0:
64,192,53031,1,0,0:0:0:0:
192,192,53031,1,0,0:0:0:0:
192,192,53181,1,0,0:0:0:0:
320,192,53181,1,0,0:0:0:0:
448,192,53181,1,0,0:0:0:0:
64,192,53331,1,0,0:0:0:0:
448,192,53331,1,0,0:0:0:0:
64,192,53481,1,0,0:0:0:0:
192,192,53481,1,0,0:0:0:0:
320,192,53481,1,0,0:0:0:0:
320,192,53631,1,0,0:0:0:0:
448,192,53631,1,0,0:0:0:0:
192,192,53706,1,0,0:0:0:0:
64,192,53781,1,0,0:0:0:0:
320,192,53781,1,0,0:0:0:0:
448,192,53781,1,0,0:0:0:0:
64,192,53931,1,0,0:0:0:0:
192,192,53931,1,0,0:0:0:0:
448,192,54081,1,0,0:0:0:0:
320,192,54118,1,0,0:0:0:0:
192,192,54156,1,0,0:0:0:0:
64,192,54193,1,0,0:0:0:0:
320,192,54231,1,0,0:0:0:0:
448,192,54231,1,0,0:0:0:0:
64,192,54306,1,0,0:0:0:0:
192,192,54306,1,0,0:0:0:0:
320,192,54381,1,0,0:0:0:0:
448,192,54381,1,0,0:0:0:0:
192,192,54531,1,0,0:0:0:0:
320,192,54531,1,0,0:0:0:0:
448,192,54681,1,0,0:0:0:0:
64,192,54681,1,0,0:0:0:0:
192,192,54681,1,0,0:0:0:0:
320,192,54831,1,0,0:0:0:0:
192,192,54831,1,0,0:0:0:0:
320,192,54981,1,0,0:0:0:0:
448,192,54981,1,0,0:0:0:0:
192,192,55056,1,0,0:0:0:0:
64,192,55056,1,0,0:0:0:0:
448,192,55131,1,0,0:0:0:0:
320,192,55131,1,0,0:0:0:0:
192,192,55206,1,0,0:0:0:0:
448,192,55281,1,0,0:0:0:0:
320,192,55281,1,0,0:0:0:0:
64,192,55281,1,0,0:0:0:0:
448,192,55431,1,0,0:0:0:0:
192,192,55431,1,0,0:0:0:0:
64,192,55581,1,0,0:0:0:0:
192,192,55581,1,0,0:0:0:0:
320,192,55581,1,0,0:0:0:0:
64,192,55731,1,0,0:0:0:0:
448,192,55731,1,0,0:0:0:0:
192,192,55881,1,0,0:0:0:0:
320,192,55881,1,0,0:0:0:0:
448,192,55881,1,0,0:0:0:0:
64,192,56031,1,0,0:0:0:0:
320,192,56031,1,0,0:0:0:0:
192,192,56106,1,0,0:0:0:0:
64,192,56181,1,0,0:0:0:0:
320,192,56181,1,0,0:0:0:0:
448,192,56181,1,0,0:0:0:0:
192,192,56331,1,0,0:0:0:0:
448,192,56331,1,0,0:0:0:0:
320,192,56406,1,0,0:0:0:0:
64,192,56481,1,0,0:0:0:0:
192,192,56481,1,0,0:0:0:0:
448,192,56481,1,0,0:0:0:0:
192,192,56631,1,0,0:0:0:0:
320,192,56631,1,0,0:0:0:0:
64,192,56781,1,0,0:0:0:0:
448,192,56781,1,0,0:0:0:0:
320,192,56781,1,0,0:0:0:0:
192,192,56931,1,0,0:0:0:0:
320,192,56931,1,0,0:0:0:0:
64,192,57081,1,0,0:0:0:0:
448,192,57081,1,0,0:0:0:0:
192,192,57081,1,0,0:0:0:0:
320,192,57231,1,0,0:0:0:0:
448,192,57231,1,0,0:0:0:0:
192,192,57306,1,0,0:0:0:0:
448,192,57381,1,0,0:0:0:0:
320,192,57381,1,0,0:0:0:0:
64,192,57381,1,0,0:0:0:0:
64,192,57531,1,0,0:0:0:0:
192,192,57531,1,0,0:0:0:0:
320,192,57606,1,0,0:0:0:0:
64,192,57681,1,0,0:0:0:0:
192,192,57681,1,0,0:0:0:0:
448,192,57681,1,0,0:0:0:0:
64,192,57831,1,0,0:0:0:0:
192,192,57831,1,0,0:0:0:0:
448,192,57831,1,0,0:0:0:0:
320,192,57906,1,0,0:0:0:0:
192,192,57981,1,0,0:0:0:0:
448,192,57981,1,0,0:0:0:0:
64,192,58131,1,0,0:0:0:0:
448,192,58131,1,0,0:0:0:0:
192,192,58131,1,0,0:0:0:0:
64,192,58281,1,0,0:0:0:0:
448,192,58281,1,0,0:0:0:0:
192,192,58281,1,0,0:0:0:0:
192,192,58431,1,0,0:0:0:0:
448,192,58431,1,0,0:0:0:0:
320,192,58506,1,0,0:0:0:0:
64,192,58581,1,0,0:0:0:0:
448,192,58581,1,0,0:0:0:0:
192,192,58581,1,0,0:0:0:0:
320,192,58656,1,0,0:0:0:0:
64,192,58731,1,0,0:0:0:0:
448,192,58731,1,0,0:0:0:0:
192,192,58806,1,0,0:0:0:0:
64,192,58881,1,0,0:0:0:0:
320,192,58881,1,0,0:0:0:0:
448,192,58881,1,0,0:0:0:0:
64,192,59031,1,0,0:0:0:0:
320,192,59031,1,0,0:0:0:0:
448,192,59031,1,0,0:0:0:0:
64,192,59331,1,0,0:0:0:0:
320,192,59331,1,0,0:0:0:0:
448,192,59331,1,0,0:0:0:0:
64,192,59481,1,0,0:0:0:0:
320,192,59481,1,0,0:0:0:0:
448,192,59481,1,0,0:0:0:0:
64,192,59781,1,0,0:0:0:0:
320,192,59781,1,0,0:0:0:0:
448,192,59781,1,0,0:0:0:0:
64,192,60081,1,0,0:0:0:0:
192,192,60081,1,0,0:0:0:0:
448,192,60081,1,0,0:0:0:0:
320,192,60181,1,0,0:0:0:0:
192,192,60281,1,0,0:0:0:0:
448,192,60381,1,0,0:0:0:0:
64,192,60481,1,0,0:0:0:0:
192,192,60581,1,0,0:0:0:0:
320,192,60681,1,0,0:0:0:0:
448,192,60681,1,0,0:0:0:0:
64,192,60781,1,0,0:0:0:0:
320,192,60881,1,0,0:0:0:0:
192,192,60981,1,0,0:0:0:0:
448,192,61081,1,0,0:0:0:0:
192,192,61181,1,0,0:0:0:0:
320,192,61281,1,0,0:0:0:0:
64,192,61381,1,0,0:0:0:0:
320,192,61481,1,0,0:0:0:0:
192,192,61581,1,0,0:0:0:0:
448,192,61681,1,0,0:0:0:0:
64,192,61781,1,0,0:0:0:0:
192,192,61881,1,0,0:0:0:0:
320,192,61981,1,0,0:0:0:0:
64,192,62081,1,0,0:0:0:0:
448,192,62181,1,0,0:0:0:0:
192,192,62181,1,0,0:0:0:0:
320,192,62281,1,0,0:0:0:0:
192,192,62381,1,0,0:0:0:0:
64,192,62481,1,0,0:0:0:0:
448,192,62481,1,0,0:0:0:0:
320,192,62481,1,0,0:0:0:0:
192,192,62581,1,0,0:0:0:0:
320,192,62681,1,0,0:0:0:0:
64,192,62781,1,0,0:0:0:0:
448,192,62881,1,0,0:0:0:0:
320,192,62981,1,0,0:0:0:0:
192,192,63081,1,0,0:0:0:0:
64,192,63081,1,0,0:0:0:0:
448,192,63181,1,0,0:0:0:0:
192,192,63281,1,0,0:0:0:0:
320,192,63381,1,0,0:0:0:0:
64,192,63481,1,0,0:0:0:0:
320,192,63581,1,0,0:0:0:0:
192,192,63681,1,0,0:0:0:0:
448,192,63781,1,0,0:0:0:0:
192,192,63881,1,0,0:0:0:0:
320,192,63981,1,0,0:0:0:0:
64,192,64081,1,0,0:0:0:0:
448,192,64181,1,0,0:0:0:0:
320,192,64281,1,0,0:0:0:0:
192,192,64381,1,0,0:0:0:0:
448,192,64481,1,0,0:0:0:0:
64,192,64581,1,0,0:0:0:0:
320,192,64581,1,0,0:0:0:0:
192,192,64681,1,0,0:0:0:0:
320,192,64781,1,0,0:0:0:0:
64,192,64881,1,0,0:0:0:0:
448,192,64881,1,0,0:0:0:0:
192,192,64881,1,0,0:0:0:0:
320,192,64981,1,0,0:0:0:0:
192,192,65081,1,0,0:0:0:0:
448,192,65181,1,0,0:0:0:0:
64,192,65281,1,0,0:0:0:0:
192,192,65381,1,0,0:0:0:0:
320,192,65481,1,0,0:0:0:0:
448,192,65481,1,0,0:0:0:0:
64,192,65581,1,0,0:0:0:0:
320,192,65681,1,0,0:0:0:0:
192,192,65781,1,0,0:0:0:0:
448,192,65881,1,0,0:0:0:0:
192,192,65981,1,0,0:0:0:0:
320,192,66081,1,0,0:0:0:0:
64,192,66181,1,0,0:0:0:0:
320,192,66281,1,0,0:0:0:0:
192,192,66381,1,0,0:0:0:0:
448,192,66481,1,0,0:0:0:0:
64,192,66581,1,0,0:0:0:0:
192,192,66681,1,0,0:0:0:0:
320,192,66781,1,0,0:0:0:0:
64,192,66881,1,0,0:0:0:0:
448,192,66981,1,0,0:0:0:0:
192,192,66981,1,0,0:0:0:0:
320,192,67081,1,0,0:0:0:0:
192,192,67181,1,0,0:0:0:0:
448,192,67281,1,0,0:0:0:0:
64,192,67281,1,0,0:0:0:0:
320,192,67281,1,0,0:0:0:0:
192,192,67381,1,0,0:0:0:0:
320,192,67481,1,0,0:0:0:0:
64,192,67581,1,0,0:0:0:0:
448,192,67681,1,0,0:0:0:0:
320,192,67781,1,0,0:0:0:0:
192,192,67881,1,0,0:0:0:0:
64,192,67881,1,0,0:0:0:0:
448,192,67981,1,0,0:0:0:0:
192,192,68081,1,0,0:0:0:0:
320,192,68181,1,0,0:0:0:0:
64,192,68281,1,0,0:0:0:0:
320,192,68381,1,0,0:0:0:0:
192,192,68481,1,0,0:0:0:0:
448,192,68581,5,0,0:0:0:0:
192,192,68681,1,0,0:0:0:0:
320,192,68781,1,0,0:0:0:0:
64,192,68881,1,0,0:0:0:0:
448,192,68981,1,0,0:0:0:0:
320,192,69081,1,0,0:0:0:0:
192,192,69181,1,0,0:0:0:0:
448,192,69281,1,0,0:0:0:0:
64,192,69381,1,0,0:0:0:0:
192,192,69481,1,0,0:0:0:0:
320,192,69581,1,0,0:0:0:0:
64,192,69681,5,0,0:0:0:0:
448,192,69681,1,0,0:0:0:0:
192,192,69681,1,0,0:0:0:0:
320,192,69781,1,0,0:0:0:0:
192,192,69881,1,0,0:0:0:0:
448,192,69881,1,0,0:0:0:0:
64,192,69981,1,0,0:0:0:0:
320,192,69981,1,0,0:0:0:0:
192,192,70081,1,0,0:0:0:0:
320,192,70181,1,0,0:0:0:0:
448,192,70181,1,0,0:0:0:0:
64,192,70281,1,0,0:0:0:0:
192,192,70281,1,0,0:0:0:0:
320,192,70381,1,0,0:0:0:0:
448,192,70381,1,0,0:0:0:0:
64,192,70481,1,0,0:0:0:0:
192,192,70481,1,0,0:0:0:0:
320,192,70581,1,0,0:0:0:0:
448,192,70581,1,0,0:0:0:0:
64,192,70681,1,0,0:0:0:0:
192,192,70681,1,0,0:0:0:0:
320,192,70781,1,0,0:0:0:0:
448,192,70781,1,0,0:0:0:0:
64,192,70881,1,0,0:0:0:0:
192,192,70881,1,0,0:0:0:0:
320,192,70981,1,0,0:0:0:0:
192,192,71081,1,0,0:0:0:0:
448,192,71081,1,0,0:0:0:0:
64,192,71181,1,0,0:0:0:0:
320,192,71181,1,0,0:0:0:0:
192,192,71281,1,0,0:0:0:0:
64,192,71381,1,0,0:0:0:0:
448,192,71381,1,0,0:0:0:0:
320,192,71481,1,0,0:0:0:0:
192,192,71481,1,0,0:0:0:0:
64,192,71581,1,0,0:0:0:0:
448,192,71581,1,0,0:0:0:0:
320,192,71681,1,0,0:0:0:0:
192,192,71681,1,0,0:0:0:0:
448,192,71781,1,0,0:0:0:0:
320,192,71831,1,0,0:0:0:0:
64,192,71881,1,0,0:0:0:0:
192,192,71931,1,0,0:0:0:0:
448,192,71981,1,0,0:0:0:0:
320,192,72031,1,0,0:0:0:0:
64,192,72081,1,0,0:0:0:0:
192,192,72081,1,0,0:0:0:0:
448,192,72081,1,0,0:0:0:0:
320,192,72181,1,0,0:0:0:0:
192,192,72281,1,0,0:0:0:0:
448,192,72281,1,0,0:0:0:0:
64,192,72381,1,0,0:0:0:0:
320,192,72381,1,0,0:0:0:0:
192,192,72481,1,0,0:0:0:0:
320,192,72581,1,0,0:0:0:0:
448,192,72581,1,0,0:0:0:0:
192,192,72681,1,0,0:0:0:0:
64,192,72681,1,0,0:0:0:0:
320,192,72781,1,0,0:0:0:0:
448,192,72781,1,0,0:0:0:0:
192,192,72881,1,0,0:0:0:0:
64,192,72881,1,0,0:0:0:0:
320,192,72981,1,0,0:0:0:0:
448,192,72981,1,0,0:0:0:0:
192,192,73081,1,0,0:0:0:0:
64,192,73081,1,0,0:0:0:0:
320,192,73181,1,0,0:0:0:0:
448,192,73181,1,0,0:0:0:0:
192,192,73281,1,0,0:0:0:0:
64,192,73281,1,0,0:0:0:0:
320,192,73381,1,0,0:0:0:0:
64,192,73481,1,0,0:0:0:0:
448,192,73481,1,0,0:0:0:0:
192,192,73581,1,0,0:0:0:0:
320,192,73581,1,0,0:0:0:0:
64,192,73681,1,0,0:0:0:0:
448,192,73781,1,0,0:0:0:0:
192,192,73781,1,0,0:0:0:0:
64,192,73881,1,0,0:0:0:0:
320,192,73881,1,0,0:0:0:0:
448,192,73981,1,0,0:0:0:0:
192,192,73981,1,0,0:0:0:0:
64,192,74081,1,0,0:0:0:0:
320,192,74081,1,0,0:0:0:0:
448,192,74181,1,0,0:0:0:0:
320,192,74231,1,0,0:0:0:0:
64,192,74281,1,0,0:0:0:0:
192,192,74331,1,0,0:0:0:0:
448,192,74381,1,0,0:0:0:0:
320,192,74431,1,0,0:0:0:0:
64,192,74481,1,0,0:0:0:0:
192,192,74481,1,0,0:0:0:0:
320,192,74581,1,0,0:0:0:0:
448,192,74581,1,0,0:0:0:0:
64,192,74681,1,0,0:0:0:0:
192,192,74681,1,0,0:0:0:0:
448,192,74781,1,0,0:0:0:0:
192,192,74831,1,0,0:0:0:0:
320,192,74881,1,0,0:0:0:0:
64,192,74931,1,0,0:0:0:0:
448,192,74981,1,0,0:0:0:0:
192,192,75031,1,0,0:0:0:0:
64,192,75081,1,0,0:0:0:0:
320,192,75081,1,0,0:0:0:0:
192,192,75181,1,0,0:0:0:0:
448,192,75181,1,0,0:0:0:0:
64,192,75281,1,0,0:0:0:0:
320,192,75281,1,0,0:0:0:0:
192,192,75381,1,0,0:0:0:0:
64,192,75431,1,0,0:0:0:0:
320,192,75481,1,0,0:0:0:0:
448,192,75531,1,0,0:0:0:0:
192,192,75581,1,0,0:0:0:0:
64,192,75631,1,0,0:0:0:0:
448,192,75681,1,0,0:0:0:0:
320,192,75681,1,0,0:0:0:0:
192,192,75781,1,0,0:0:0:0:
64,192,75781,1,0,0:0:0:0:
320,192,75881,1,0,0:0:0:0:
448,192,75881,1,0,0:0:0:0:
64,192,75981,1,0,0:0:0:0:
320,192,76031,1,0,0:0:0:0:
192,192,76081,1,0,0:0:0:0:
448,192,76131,1,0,0:0:0:0:
64,192,76181,1,0,0:0:0:0:
320,192,76231,1,0,0:0:0:0:
448,192,76281,1,0,0:0:0:0:
192,192,76281,1,0,0:0:0:0:
64,192,76381,1,0,0:0:0:0:
320,192,76381,1,0,0:0:0:0:
448,192,76481,1,0,0:0:0:0:
192,192,76481,1,0,0:0:0:0:
64,192,76581,1,0,0:0:0:0:
192,192,76631,1,0,0:0:0:0:
320,192,76681,1,0,0:0:0:0:
448,192,76731,1,0,0:0:0:0:
64,192,76781,1,0,0:0:0:0:
192,192,76831,1,0,0:0:0:0:
448,192,76881,1,0,0:0:0:0:
320,192,76931,1,0,0:0:0:0:
192,192,76981,1,0,0:0:0:0:
64,192,77031,1,0,0:0:0:0:
448,192,77081,1,0,0:0:0:0:
320,192,77131,1,0,0:0:0:0:
64,192,77181,1,0,0:0:0:0:
192,192,77231,1,0,0:0:0:0:
320,192,77281,1,0,0:0:0:0:
448,192,77331,1,0,0:0:0:0:
64,192,77381,1,0,0:0:0:0:
192,192,77431,1,0,0:0:0:0:
448,192,77481,1,0,0:0:0:0:
320,192,77531,1,0,0:0:0:0:
192,192,77581,1,0,0:0:0:0:
64,192,77631,1,0,0:0:0:0:
448,192,77681,1,0,0:0:0:0:
320,192,77731,1,0,0:0:0:0:
64,192,77781,1,0,0:0:0:0:
192,192,77831,1,0,0:0:0:0:
320,192,77881,1,0,0:0:0:0:
448,192,77931,1,0,0:0:0:0:
64,192,77981,1,0,0:0:0:0:
192,192,78031,1,0,0:0:0:0:
448,192,78081,1,0,0:0:0:0:
320,192,78081,1,0,0:0:0:0:
64,192,78081,1,0,0:0:0:0:
192,192,78181,1,0,0:0:0:0:
64,192,78281,1,0,0:0:0:0:
448,192,78381,1,0,0:0:0:0:
320,192,78481,1,0,0:0:0:0:
192,192,78581,1,0,0:0:0:0:
64,192,78681,1,0,0:0:0:0:
448,192,78781,1,0,0:0:0:0:
320,192,78881,1,0,0:0:0:0:
64,192,78981,1,0,0:0:0:0:
192,192,79018,1,0,0:0:0:0:
448,192,79056,1,0,0:0:0:0:
320,192,79093,1,0,0:0:0:0:
64,192,79131,1,0,0:0:0:0:
192,192,79168,1,0,0:0:0:0:
448,192,79206,1,0,0:0:0:0:
320,192,79243,1,0,0:0:0:0:
448,192,79281,1,0,0:0:0:0:
64,192,79281,1,0,0:0:0:0:
192,192,79281,1,0,0:0:0:0:
320,192,79381,1,0,0:0:0:0:
192,192,79481,1,0,0:0:0:0:
64,192,79581,1,0,0:0:0:0:
448,192,79581,1,0,0:0:0:0:
320,192,79681,1,0,0:0:0:0:
192,192,79781,1,0,0:0:0:0:
320,192,79881,1,0,0:0:0:0:
448,192,79881,1,0,0:0:0:0:
64,192,79981,1,0,0:0:0:0:
192,192,80081,1,0,0:0:0:0:
64,192,80181,1,0,0:0:0:0:
320,192,80181,1,0,0:0:0:0:
448,192,80281,1,0,0:0:0:0:
320,192,80381,1,0,0:0:0:0:
192,192,80481,1,0,0:0:0:0:
64,192,80481,1,0,0:0:0:0:
448,192,80581,1,0,0:0:0:0:
320,192,80681,1,0,0:0:0:0:
192,192,80781,1,0,0:0:0:0:
448,192,80781,1,0,0:0:0:0:
64,192,80881,1,0,0:0:0:0:
320,192,80981,1,0,0:0:0:0:
64,192,81081,1,0,0:0:0:0:
448,192,81081,1,0,0:0:0:0:
192,192,81181,1,0,0:0:0:0:
320,192,81281,1,0,0:0:0:0:
448,192,81281,1,0,0:0:0:0:
64,192,81381,1,0,0:0:0:0:
192,192,81381,1,0,0:0:0:0:
448,192,81481,1,0,0:0:0:0:
64,192,81581,1,0,0:0:0:0:
192,192,81581,1,0,0:0:0:0:
320,192,81681,1,0,0:0:0:0:
448,192,81681,1,0,0:0:0:0:
64,192,81781,1,0,0:0:0:0:
192,192,81881,1,0,0:0:0:0:
64,192,81981,1,0,0:0:0:0:
448,192,81981,1,0,0:0:0:0:
320,192,82081,1,0,0:0:0:0:
192,192,82181,1,0,0:0:0:0:
64,192,82281,1,0,0:0:0:0:
320,192,82281,1,0,0:0:0:0:
448,192,82381,1,0,0:0:0:0:
64,192,82481,1,0,0:0:0:0:
192,192,82581,1,0,0:0:0:0:
320,192,82581,1,0,0:0:0:0:
448,192,82681,1,0,0:0:0:0:
64,192,82781,1,0,0:0:0:0:
192,192,82881,1,0,0:0:0:0:
448,192,82881,1,0,0:0:0:0:
320,192,82981,1,0,0:0:0:0:
192,192,83081,1,0,0:0:0:0:
64,192,83181,1,0,0:0:0:0:
448,192,83181,1,0,0:0:0:0:
320,192,83281,1,0,0:0:0:0:
192,192,83381,1,0,0:0:0:0:
64,192,83481,1,0,0:0:0:0:
448,192,83481,1,0,0:0:0:0:
192,192,83581,1,0,0:0:0:0:
320,192,83581,1,0,0:0:0:0:
64,192,83681,1,0,0:0:0:0:
448,192,83681,1,0,0:0:0:0:
192,192,83781,1,0,0:0:0:0:
320,192,83781,1,0,0:0:0:0:
64,192,83881,1,0,0:0:0:0:
448,192,83881,1,0,0:0:0:0:
192,192,83981,1,0,0:0:0:0:
64,192,84081,1,0,0:0:0:0:
448,192,84081,1,0,0:0:0:0:
320,192,84081,1,0,0:0:0:0:
192,192,84181,1,0,0:0:0:0:
320,192,84281,1,0,0:0:0:0:
192,192,84381,1,0,0:0:0:0:
64,192,84381,1,0,0:0:0:0:
448,192,84481,1,0,0:0:0:0:
320,192,84581,1,0,0:0:0:0:
192,192,84681,1,0,0:0:0:0:
448,192,84681,1,0,0:0:0:0:
64,192,84781,1,0,0:0:0:0:
448,192,84881,1,0,0:0:0:0:
320,192,84981,1,0,0:0:0:0:
192,192,84981,1,0,0:0:0:0:
64,192,85081,1,0,0:0:0:0:
448,192,85181,1,0,0:0:0:0:
64,192,85281,1,0,0:0:0:0:
320,192,85281,1,0,0:0:0:0:
192,192,85381,1,0,0:0:0:0:
320,192,85481,1,0,0:0:0:0:
64,192,85581,1,0,0:0:0:0:
448,192,85581,1,0,0:0:0:0:
192,192,85681,1,0,0:0:0:0:
320,192,85781,1,0,0:0:0:0:
192,192,85881,1,0,0:0:0:0:
448,192,85881,1,0,0:0:0:0:
64,192,85981,1,0,0:0:0:0:
192,192,86081,1,0,0:0:0:0:
448,192,86081,1,0,0:0:0:0:
64,192,86181,1,0,0:0:0:0:
320,192,86181,1,0,0:0:0:0:
192,192,86281,1,0,0:0:0:0:
448,192,86281,1,0,0:0:0:0:
64,192,86381,1,0,0:0:0:0:
320,192,86381,1,0,0:0:0:0:
448,192,86481,1,0,0:0:0:0:
192,192,86481,1,0,0:0:0:0:
320,192,86581,1,0,0:0:0:0:
192,192,86681,1,0,0:0:0:0:
64,192,86781,1,0,0:0:0:0:
448,192,86781,1,0,0:0:0:0:
320,192,86881,1,0,0:0:0:0:
192,192,86981,1,0,0:0:0:0:
320,192,87081,1,0,0:0:0:0:
448,192,87081,1,0,0:0:0:0:
64,192,87181,1,0,0:0:0:0:
192,192,87281,1,0,0:0:0:0:
64,192,87381,1,0,0:0:0:0:
320,192,87381,1,0,0:0:0:0:
448,192,87481,1,0,0:0:0:0:
320,192,87581,1,0,0:0:0:0:
192,192,87681,1,0,0:0:0:0:
64,192,87681,1,0,0:0:0:0:
448,192,87681,1,0,0:0:0:0:
320,192,87881,1,0,0:0:0:0:
192,192,87881,1,0,0:0:0:0:
448,192,87881,1,0,0:0:0:0:
64,192,88081,1,0,0:0:0:0:
192,192,88081,1,0,0:0:0:0:
320,192,88081,1,0,0:0:0:0:
448,192,88281,1,0,0:0:0:0:
320,192,88281,1,0,0:0:0:0:
192,192,88381,1,0,0:0:0:0:
64,192,88381,1,0,0:0:0:0:
448,192,88481,1,0,0:0:0:0:
320,192,88481,1,0,0:0:0:0:
64,192,88581,1,0,0:0:0:0:
192,192,88631,1,0,0:0:0:0:
448,192,88681,1,0,0:0:0:0:
320,192,88731,1,0,0:0:0:0:
64,192,88781,1,0,0:0:0:0:
192,192,88831,1,0,0:0:0:0:
448,192,88881,1,0,0:0:0:0:
320,192,88881,1,0,0:0:0:0:
64,192,88881,1,0,0:0:0:0:
192,192,88981,1,0,0:0:0:0:
320,192,89081,1,0,0:0:0:0:
64,192,89181,1,0,0:0:0:0:
192,192,89181,1,0,0:0:0:0:
448,192,89181,1,0,0:0:0:0:
320,192,89281,1,0,0:0:0:0:
192,192,89381,1,0,0:0:0:0:
320,192,89481,1,0,0:0:0:0:
448,192,89481,1,0,0:0:0:0:
64,192,89581,1,0,0:0:0:0:
192,192,89681,1,0,0:0:0:0:
64,192,89781,1,0,0:0:0:0:
320,192,89781,1,0,0:0:0:0:
448,192,89781,1,0,0:0:0:0:
192,192,89881,1,0,0:0:0:0:
320,192,89981,1,0,0:0:0:0:
64,192,90081,1,0,0:0:0:0:
448,192,90081,1,0,0:0:0:0:
192,192,90181,1,0,0:0:0:0:
320,192,90281,1,0,0:0:0:0:
64,192,90381,1,0,0:0:0:0:
192,192,90381,1,0,0:0:0:0:
448,192,90381,1,0,0:0:0:0:
320,192,90481,1,0,0:0:0:0:
192,192,90581,1,0,0:0:0:0:
64,192,90681,1,0,0:0:0:0:
320,192,90681,1,0,0:0:0:0:
192,192,90781,1,0,0:0:0:0:
448,192,90781,1,0,0:0:0:0:
320,192,90881,1,0,0:0:0:0:
64,192,90881,1,0,0:0:0:0:
192,192,90981,1,0,0:0:0:0:
448,192,90981,1,0,0:0:0:0:
320,192,91081,1,0,0:0:0:0:
192,192,91181,1,0,0:0:0:0:
64,192,91181,1,0,0:0:0:0:
320,192,91281,1,0,0:0:0:0:
448,192,91281,1,0,0:0:0:0:
64,192,91381,1,0,0:0:0:0:
192,192,91481,1,0,0:0:0:0:
64,192,91581,1,0,0:0:0:0:
448,192,91581,1,0,0:0:0:0:
320,192,91581,1,0,0:0:0:0:
192,192,91681,1,0,0:0:0:0:
320,192,91781,1,0,0:0:0:0:
64,192,91881,1,0,0:0:0:0:
192,192,91881,1,0,0:0:0:0:
448,192,91981,1,0,0:0:0:0:
320,192,92081,1,0,0:0:0:0:
64,192,92181,1,0,0:0:0:0:
192,192,92181,1,0,0:0:0:0:
448,192,92181,1,0,0:0:0:0:
320,192,92281,1,0,0:0:0:0:
192,192,92381,1,0,0:0:0:0:
64,192,92481,1,0,0:0:0:0:
448,192,92481,1,0,0:0:0:0:
320,192,92581,1,0,0:0:0:0:
64,192,92681,1,0,0:0:0:0:
192,192,92681,1,0,0:0:0:0:
320,192,92781,1,0,0:0:0:0:
448,192,92781,1,0,0:0:0:0:
192,192,92881,1,0,0:0:0:0:
64,192,92981,1,0,0:0:0:0:
448,192,92981,1,0,0:0:0:0:
192,192,93081,1,0,0:0:0:0:
320,192,93081,1,0,0:0:0:0:
64,192,93181,1,0,0:0:0:0:
448,192,93181,1,0,0:0:0:0:
192,192,93281,1,0,0:0:0:0:
320,192,93281,1,0,0:0:0:0:
64,192,93381,1,0,0:0:0:0:
448,192,93381,1,0,0:0:0:0:
192,192,93481,1,0,0:0:0:0:
320,192,93481,1,0,0:0:0:0:
64,192,93581,1,0,0:0:0:0:
448,192,93581,1,0,0:0:0:0:
192,192,93681,1,0,0:0:0:0:
320,192,93681,1,0,0:0:0:0:
448,192,93781,1,0,0:0:0:0:
320,192,93881,1,0,0:0:0:0:
64,192,93981,1,0,0:0:0:0:
448,192,93981,1,0,0:0:0:0:
192,192,93981,1,0,0:0:0:0:
320,192,94081,1,0,0:0:0:0:
192,192,94181,1,0,0:0:0:0:
320,192,94281,1,0,0:0:0:0:
64,192,94281,1,0,0:0:0:0:
192,192,94381,1,0,0:0:0:0:
448,192,94381,1,0,0:0:0:0:
320,192,94481,1,0,0:0:0:0:
64,192,94481,1,0,0:0:0:0:
192,192,94581,1,0,0:0:0:0:
448,192,94581,1,0,0:0:0:0:
320,192,94681,1,0,0:0:0:0:
64,192,94681,1,0,0:0:0:0:
192,192,94781,1,0,0:0:0:0:
448,192,94781,1,0,0:0:0:0:
320,192,94881,1,0,0:0:0:0:
64,192,94881,1,0,0:0:0:0:
192,192,94981,1,0,0:0:0:0:
320,192,95081,1,0,0:0:0:0:
448,192,95081,1,0,0:0:0:0:
192,192,95181,1,0,0:0:0:0:
64,192,95181,1,0,0:0:0:0:
448,192,95281,1,0,0:0:0:0:
320,192,95281,1,0,0:0:0:0:
192,192,95381,1,0,0:0:0:0:
64,192,95381,1,0,0:0:0:0:
448,192,95481,1,0,0:0:0:0:
320,192,95481,1,0,0:0:0:0:
192,192,95581,1,0,0:0:0:0:
64,192,95581,1,0,0:0:0:0:
448,192,95681,1,0,0:0:0:0:
320,192,95681,1,0,0:0:0:0:
192,192,95781,1,0,0:0:0:0:
64,192,95781,1,0,0:0:0:0:
448,192,95881,1,0,0:0:0:0:
320,192,95881,1,0,0:0:0:0:
192,192,95981,1,0,0:0:0:0:
64,192,96081,1,0,0:0:0:0:
320,192,96081,1,0,0:0:0:0:
448,192,96081,1,0,0:0:0:0:
192,192,96181,1,0,0:0:0:0:
64,192,96281,1,0,0:0:0:0:
320,192,96381,1,0,0:0:0:0:
192,192,96481,1,0,0:0:0:0:
320,192,96581,1,0,0:0:0:0:
448,192,96681,1,0,0:0:0:0:
320,192,96781,1,0,0:0:0:0:
192,192,96881,1,0,0:0:0:0:
64,192,96981,1,0,0:0:0:0:
192,192,97081,1,0,0:0:0:0:
320,192,97181,1,0,0:0:0:0:
448,192,97281,1,0,0:0:0:0:
192,192,97356,1,0,0:0:0:0:
320,192,97431,1,0,0:0:0:0:
64,192,97506,1,0,0:0:0:0:
448,192,97581,1,0,0:0:0:0:
192,192,97656,1,0,0:0:0:0:
320,192,97731,1,0,0:0:0:0:
64,192,97806,1,0,0:0:0:0:
320,192,97881,1,0,0:0:0:0:
192,192,97956,1,0,0:0:0:0:
320,192,98031,1,0,0:0:0:0:
448,192,98106,1,0,0:0:0:0:
64,192,98181,1,0,0:0:0:0:
192,192,98218,1,0,0:0:0:0:
448,192,98256,1,0,0:0:0:0:
320,192,98293,1,0,0:0:0:0:
64,192,98331,1,0,0:0:0:0:
192,192,98368,1,0,0:0:0:0:
448,192,98406,1,0,0:0:0:0:
320,192,98443,1,0,0:0:0:0:
192,192,98481,1,0,0:0:0:0:
448,192,98481,1,0,0:0:0:0:
64,192,98481,1,0,0:0:0:50:soft-hitfinish.wav
320,192,98556,1,0,0:0:0:0:
192,192,98631,1,0,0:0:0:0:
320,192,98706,1,0,0:0:0:0:
448,192,98781,1,0,0:0:0:0:
64,192,98781,1,0,0:0:0:0:
192,192,98856,1,0,0:0:0:0:
320,192,98931,1,0,0:0:0:0:
448,192,98931,1,0,0:0:0:0:
192,192,99006,1,0,0:0:0:0:
64,192,99081,1,0,0:0:0:0:
448,192,99081,1,0,0:0:0:0:
320,192,99156,1,0,0:0:0:0:
192,192,99231,1,0,0:0:0:0:
320,192,99306,1,0,0:0:0:0:
64,192,99381,1,0,0:0:0:0:
192,192,99381,1,0,0:0:0:0:
448,192,99456,1,0,0:0:0:0:
192,192,99531,1,0,0:0:0:0:
320,192,99531,1,0,0:0:0:0:
64,192,99606,1,0,0:0:0:0:
448,192,99681,1,0,0:0:0:0:
320,192,99681,1,0,0:0:0:0:
192,192,99756,1,0,0:0:0:0:
320,192,99831,1,0,0:0:0:0:
192,192,99906,1,0,0:0:0:0:
64,192,99981,1,0,0:0:0:0:
448,192,99981,1,0,0:0:0:0:
320,192,100056,1,0,0:0:0:0:
192,192,100131,1,0,0:0:0:0:
64,192,100206,1,0,0:0:0:0:
192,192,100281,1,0,0:0:0:0:
448,192,100281,1,0,0:0:0:0:
320,192,100356,1,0,0:0:0:0:
64,192,100431,1,0,0:0:0:0:
192,192,100431,1,0,0:0:0:0:
448,192,100506,1,0,0:0:0:0:
320,192,100581,1,0,0:0:0:0:
192,192,100581,1,0,0:0:0:0:
64,192,100656,1,0,0:0:0:0:
320,192,100731,1,0,0:0:0:0:
448,192,100731,1,0,0:0:0:0:
192,192,100806,1,0,0:0:0:0:
64,192,100881,1,0,0:0:0:0:
448,192,100881,1,0,0:0:0:0:
320,192,100956,1,0,0:0:0:0:
192,192,101031,1,0,0:0:0:0:
320,192,101106,1,0,0:0:0:0:
64,192,101181,1,0,0:0:0:0:
448,192,101181,1,0,0:0:0:0:
192,192,101256,1,0,0:0:0:0:
320,192,101331,1,0,0:0:0:0:
448,192,101331,1,0,0:0:0:0:
192,192,101406,1,0,0:0:0:0:
64,192,101481,1,0,0:0:0:0:
448,192,101481,1,0,0:0:0:0:
320,192,101556,1,0,0:0:0:0:
192,192,101631,1,0,0:0:0:0:
64,192,101706,1,0,0:0:0:0:
320,192,101781,1,0,0:0:0:0:
448,192,101781,1,0,0:0:0:0:
192,192,101856,1,0,0:0:0:0:
64,192,101931,1,0,0:0:0:0:
448,192,101931,1,0,0:0:0:0:
320,192,102006,1,0,0:0:0:0:
192,192,102081,1,0,0:0:0:0:
64,192,102081,1,0,0:0:0:0:
448,192,102156,1,0,0:0:0:0:
192,192,102231,1,0,0:0:0:0:
320,192,102306,1,0,0:0:0:0:
64,192,102381,1,0,0:0:0:0:
448,192,102381,1,0,0:0:0:0:
192,192,102456,1,0,0:0:0:0:
320,192,102531,1,0,0:0:0:0:
192,192,102606,1,0,0:0:0:0:
320,192,102681,1,0,0:0:0:0:
448,192,102681,1,0,0:0:0:0:
64,192,102756,1,0,0:0:0:0:
320,192,102831,1,0,0:0:0:0:
192,192,102831,1,0,0:0:0:0:
448,192,102906,1,0,0:0:0:0:
64,192,102981,1,0,0:0:0:0:
192,192,102981,1,0,0:0:0:0:
320,192,103056,1,0,0:0:0:0:
64,192,103131,1,0,0:0:0:0:
448,192,103131,1,0,0:0:0:0:
192,192,103206,1,0,0:0:0:0:
320,192,103281,1,0,0:0:0:0:
448,192,103281,1,0,0:0:0:0:
64,192,103281,1,0,0:0:0:0:
192,192,103356,1,0,0:0:0:0:
320,192,103431,1,0,0:0:0:0:
192,192,103506,1,0,0:0:0:0:
64,192,103581,1,0,0:0:0:0:
448,192,103581,1,0,0:0:0:0:
320,192,103656,1,0,0:0:0:0:
192,192,103731,1,0,0:0:0:0:
64,192,103731,1,0,0:0:0:0:
320,192,103806,1,0,0:0:0:0:
64,192,103881,1,0,0:0:0:0:
448,192,103881,1,0,0:0:0:0:
192,192,103956,1,0,0:0:0:0:
320,192,104031,1,0,0:0:0:0:
192,192,104106,1,0,0:0:0:0:
320,192,104181,1,0,0:0:0:0:
448,192,104181,1,0,0:0:0:0:
64,192,104256,1,0,0:0:0:0:
192,192,104331,1,0,0:0:0:0:
448,192,104331,1,0,0:0:0:0:
320,192,104406,1,0,0:0:0:0:
192,192,104481,1,0,0:0:0:0:
64,192,104481,1,0,0:0:0:0:
448,192,104556,1,0,0:0:0:0:
320,192,104631,1,0,0:0:0:0:
192,192,104706,1,0,0:0:0:0:
64,192,104781,1,0,0:0:0:0:
448,192,104781,1,0,0:0:0:0:
192,192,104856,1,0,0:0:0:0:
320,192,104931,1,0,0:0:0:0:
448,192,105006,1,0,0:0:0:0:
192,192,105081,1,0,0:0:0:0:
64,192,105081,1,0,0:0:0:0:
320,192,105156,1,0,0:0:0:0:
448,192,105231,1,0,0:0:0:0:
64,192,105231,1,0,0:0:0:0:
192,192,105306,1,0,0:0:0:0:
320,192,105381,1,0,0:0:0:0:
448,192,105381,1,0,0:0:0:0:
192,192,105456,1,0,0:0:0:0:
64,192,105456,1,0,0:0:0:0:
448,192,105531,1,0,0:0:0:0:
320,192,105531,1,0,0:0:0:0:
192,192,105606,1,0,0:0:0:0:
448,192,105681,1,0,0:0:0:0:
320,192,105681,1,0,0:0:0:0:
64,192,105681,1,0,0:0:0:0:
192,192,105756,1,0,0:0:0:0:
320,192,105831,1,0,0:0:0:0:
448,192,105906,1,0,0:0:0:0:
192,192,105981,1,0,0:0:0:0:
320,192,105981,1,0,0:0:0:0:
64,192,106056,1,0,0:0:0:0:
192,192,106131,1,0,0:0:0:0:
320,192,106206,1,0,0:0:0:0:
64,192,106281,1,0,0:0:0:0:
448,192,106281,1,0,0:0:0:0:
192,192,106356,1,0,0:0:0:0:
320,192,106431,1,0,0:0:0:0:
192,192,106506,1,0,0:0:0:0:
64,192,106581,1,0,0:0:0:0:
448,192,106581,1,0,0:0:0:0:
320,192,106656,1,0,0:0:0:0:
192,192,106731,1,0,0:0:0:0:
64,192,106806,1,0,0:0:0:0:
192,192,106881,1,0,0:0:0:0:
320,192,106881,1,0,0:0:0:0:
448,192,106956,1,0,0:0:0:0:
320,192,107031,1,0,0:0:0:0:
192,192,107106,1,0,0:0:0:0:
64,192,107181,1,0,0:0:0:0:
448,192,107181,1,0,0:0:0:0:
320,192,107256,1,0,0:0:0:0:
192,192,107331,1,0,0:0:0:0:
320,192,107406,1,0,0:0:0:0:
64,192,107481,1,0,0:0:0:0:
448,192,107481,1,0,0:0:0:0:
192,192,107556,1,0,0:0:0:0:
320,192,107631,1,0,0:0:0:0:
448,192,107706,1,0,0:0:0:0:
64,192,107781,1,0,0:0:0:0:
192,192,107781,1,0,0:0:0:0:
320,192,107856,1,0,0:0:0:0:
448,192,107856,1,0,0:0:0:0:
64,192,107931,1,0,0:0:0:0:
192,192,107931,1,0,0:0:0:0:
320,192,108006,1,0,0:0:0:0:
64,192,108081,1,0,0:0:0:0:
192,192,108081,1,0,0:0:0:0:
448,192,108081,1,0,0:0:0:0:
320,192,108156,1,0,0:0:0:0:
192,192,108231,1,0,0:0:0:0:
64,192,108306,1,0,0:0:0:0:
448,192,108381,1,0,0:0:0:0:
192,192,108381,1,0,0:0:0:0:
320,192,108456,1,0,0:0:0:0:
64,192,108531,1,0,0:0:0:0:
448,192,108531,1,0,0:0:0:0:
192,192,108606,1,0,0:0:0:0:
64,192,108681,1,0,0:0:0:0:
320,192,108681,1,0,0:0:0:0:
448,192,108756,1,0,0:0:0:0:
320,192,108831,1,0,0:0:0:0:
192,192,108906,1,0,0:0:0:0:
64,192,108981,1,0,0:0:0:0:
448,192,108981,1,0,0:0:0:0:
320,192,109056,1,0,0:0:0:0:
192,192,109131,1,0,0:0:0:0:
64,192,109131,1,0,0:0:0:0:
320,192,109206,1,0,0:0:0:0:
64,192,109281,1,0,0:0:0:0:
448,192,109281,1,0,0:0:0:0:
192,192,109356,1,0,0:0:0:0:
320,192,109431,1,0,0:0:0:0:
192,192,109506,1,0,0:0:0:0:
64,192,109581,1,0,0:0:0:0:
448,192,109581,1,0,0:0:0:0:
320,192,109656,1,0,0:0:0:0:
192,192,109731,1,0,0:0:0:0:
64,192,109806,1,0,0:0:0:0:
192,192,109881,1,0,0:0:0:0:
448,192,109881,1,0,0:0:0:0:
320,192,109956,1,0,0:0:0:0:
192,192,110031,1,0,0:0:0:0:
64,192,110031,1,0,0:0:0:0:
448,192,110106,1,0,0:0:0:0:
64,192,110181,1,0,0:0:0:0:
320,192,110181,1,0,0:0:0:0:
192,192,110256,1,0,0:0:0:0:
320,192,110331,1,0,0:0:0:0:
448,192,110331,1,0,0:0:0:0:
192,192,110406,1,0,0:0:0:0:
64,192,110481,1,0,0:0:0:0:
320,192,110481,1,0,0:0:0:0:
448,192,110481,1,0,0:0:0:0:
192,192,110556,1,0,0:0:0:0:
320,192,110631,1,0,0:0:0:0:
448,192,110706,1,0,0:0:0:0:
64,192,110781,1,0,0:0:0:0:
320,192,110781,1,0,0:0:0:0:
192,192,110856,1,0,0:0:0:0:
64,192,110931,1,0,0:0:0:0:
448,192,110931,1,0,0:0:0:0:
320,192,111006,1,0,0:0:0:0:
192,192,111081,1,0,0:0:0:0:
448,192,111081,1,0,0:0:0:0:
64,192,111156,1,0,0:0:0:0:
192,192,111231,1,0,0:0:0:0:
320,192,111306,1,0,0:0:0:0:
64,192,111381,1,0,0:0:0:0:
192,192,111381,1,0,0:0:0:0:
448,192,111456,1,0,0:0:0:0:
320,192,111531,1,0,0:0:0:0:
192,192,111531,1,0,0:0:0:0:
64,192,111606,1,0,0:0:0:0:
448,192,111681,1,0,0:0:0:0:
320,192,111718,1,0,0:0:0:0:
192,192,111756,1,0,0:0:0:0:
64,192,111793,1,0,0:0:0:0:
320,192,111831,1,0,0:0:0:0:
448,192,111831,1,0,0:0:0:0:
64,192,111906,1,0,0:0:0:0:
192,192,111906,1,0,0:0:0:0:
320,192,111981,1,0,0:0:0:0:
448,192,111981,1,0,0:0:0:0:
64,192,112056,1,0,0:0:0:0:
192,192,112131,1,0,0:0:0:0:
320,192,112206,1,0,0:0:0:0:
448,192,112281,1,0,0:0:0:0:
64,192,112281,1,0,0:0:0:0:
192,192,112356,1,0,0:0:0:0:
320,192,112431,1,0,0:0:0:0:
448,192,112431,1,0,0:0:0:0:
192,192,112506,1,0,0:0:0:0:
64,192,112581,1,0,0:0:0:0:
448,192,112581,1,0,0:0:0:0:
320,192,112656,1,0,0:0:0:0:
192,192,112656,1,0,0:0:0:0:
64,192,112731,1,0,0:0:0:0:
448,192,112731,1,0,0:0:0:0:
320,192,112806,1,0,0:0:0:0:
64,192,112881,1,0,0:0:0:0:
448,192,112881,1,0,0:0:0:0:
192,192,112881,1,0,0:0:0:0:
320,192,112956,1,0,0:0:0:0:
192,192,113031,1,0,0:0:0:0:
64,192,113031,1,0,0:0:0:0:
448,192,113106,1,0,0:0:0:0:
64,192,113181,1,0,0:0:0:0:
320,192,113181,1,0,0:0:0:0:
192,192,113256,1,0,0:0:0:0:
320,192,113331,1,0,0:0:0:0:
448,192,113331,1,0,0:0:0:0:
64,192,113406,1,0,0:0:0:0:
192,192,113481,1,0,0:0:0:0:
320,192,113481,1,0,0:0:0:0:
448,192,113556,1,0,0:0:0:0:
64,192,113631,1,0,0:0:0:0:
192,192,113631,1,0,0:0:0:0:
320,192,113706,1,0,0:0:0:0:
64,192,113781,1,0,0:0:0:0:
448,192,113781,1,0,0:0:0:0:
192,192,113856,1,0,0:0:0:0:
320,192,113931,1,0,0:0:0:0:
448,192,113931,1,0,0:0:0:0:
192,192,114006,1,0,0:0:0:0:
64,192,114081,1,0,0:0:0:0:
320,192,114081,1,0,0:0:0:0:
448,192,114081,1,0,0:0:0:0:
192,192,114156,1,0,0:0:0:0:
448,192,114231,1,0,0:0:0:0:
64,192,114231,1,0,0:0:0:0:
320,192,114306,1,0,0:0:0:0:
64,192,114381,1,0,0:0:0:0:
192,192,114381,1,0,0:0:0:0:
320,192,114456,1,0,0:0:0:0:
64,192,114531,1,0,0:0:0:0:
448,192,114531,1,0,0:0:0:0:
192,192,114606,1,0,0:0:0:0:
320,192,114681,1,0,0:0:0:0:
64,192,114681,1,0,0:0:0:0:
448,192,114756,1,0,0:0:0:0:
192,192,114831,1,0,0:0:0:0:
320,192,114831,1,0,0:0:0:0:
64,192,114906,1,0,0:0:0:0:
448,192,114981,1,0,0:0:0:0:
192,192,114981,1,0,0:0:0:0:
320,192,115056,1,0,0:0:0:0:
192,192,115131,1,0,0:0:0:0:
64,192,115131,1,0,0:0:0:0:
320,192,115206,1,0,0:0:0:0:
64,192,115281,1,0,0:0:0:0:
192,192,115281,1,0,0:0:0:0:
448,192,115281,1,0,0:0:0:0:
192,192,115506,1,0,0:0:0:0:
448,192,115506,1,0,0:0:0:0:
320,192,115506,1,0,0:0:0:0:
192,192,115731,1,0,0:0:0:0:
320,192,115731,1,0,0:0:0:0:
64,192,115731,1,0,0:0:0:0:
64,192,115881,1,0,0:0:0:0:
320,192,115881,1,0,0:0:0:0:
448,192,115881,1,0,0:0:0:0:
64,192,116031,1,0,0:0:0:0:
448,192,116031,1,0,0:0:0:0:
192,192,116031,1,0,0:0:0:0:
320,192,116181,1,0,0:0:0:0:
448,192,116181,1,0,0:0:0:0:
64,192,116256,1,0,0:0:0:0:
192,192,116256,1,0,0:0:0:0:
320,192,116331,1,0,0:0:0:0:
448,192,116331,1,0,0:0:0:0:
192,192,116406,1,0,0:0:0:0:
64,192,116406,1,0,0:0:0:0:
448,192,116481,1,0,0:0:0:0:
320,192,116481,1,0,0:0:0:0:
192,192,116556,1,0,0:0:0:0:
64,192,116556,1,0,0:0:0:0:
448,192,116631,1,0,0:0:0:0:
320,192,116631,1,0,0:0:0:0:
192,192,116706,1,0,0:0:0:0:
64,192,116781,1,0,0:0:0:0:
448,192,116781,1,0,0:0:0:0:
320,192,116856,1,0,0:0:0:0:
192,192,116856,1,0,0:0:0:0:
448,192,116931,1,0,0:0:0:0:
64,192,116931,1,0,0:0:0:0:
320,192,117006,1,0,0:0:0:0:
192,192,117006,1,0,0:0:0:0:
64,192,117081,1,0,0:0:0:0:
448,192,117081,1,0,0:0:0:0:
320,192,117156,1,0,0:0:0:0:
192,192,117156,1,0,0:0:0:0:
64,192,117231,1,0,0:0:0:0:
448,192,117231,1,0,0:0:0:0:
320,192,117306,1,0,0:0:0:0:
64,192,117381,1,0,0:0:0:0:
192,192,117418,1,0,0:0:0:0:
448,192,117456,1,0,0:0:0:0:
320,192,117493,1,0,0:0:0:0:
64,192,117531,1,0,0:0:0:0:
192,192,117568,1,0,0:0:0:0:
448,192,117606,1,0,0:0:0:0:
320,192,117643,1,0,0:0:0:0:
64,192,117681,1,0,0:0:0:0:
448,192,117681,1,0,0:0:0:0:
192,192,117681,128,0,118881:0:0:0:0:
64,192,118881,1,0,0:0:0:0:
320,192,118881,1,0,0:0:0:0:
448,192,118881,1,0,0:0:0:0:
