osu file format v5

[General]
AudioFilename: burningheat.mp3
AudioLeadIn: 0
PreviewTime: -1
Countdown: 1
SampleSet: Normal
StackLeniency: 0.7
Mode: 0

[Metadata]
Title:Burning Heat
Artist:Gradius
Creator:humbugle
Version:Normal
Source:
Tags:

[Difficulty]
HPDrainRate:5
CircleSize:6
OverallDifficulty:2
SliderMultiplier:1
SliderTickRate:1

[Events]
//Background and Video events
0,0,"burningheat-bg.png"
//Break Periods
2,40727,45471
//Storyboard Layer 0 (Background)
//Storyboard Layer 1 (Failing)
//Storyboard Layer 2 (Passing)
//Storyboard Layer 3 (Foreground)
//Storyboard Sound Samples
//Background Colour Transformations
3,100,163,162,255

[TimingPoints]
5835,361.333024600001,4,1,0,100

[Colours]
Combo1 : 96,216,61
Combo2 : 255,255,255
Combo3 : 241,33,22
Combo4 : 50,50,233

[HitObjects]
160,96,5833,1,0
240,96,6196,1,0
320,96,6557,1,0
432,208,7280,5,0
352,208,7641,1,0
272,208,8002,1,0
144,304,8725,5,0
224,304,9086,1,0
304,304,9448,1,0
464,304,10170,6,0,B|432:192|304:160,1,200
208,64,12338,6,0,B|320:64,2,100
208,224,13784,2,0,B|320:224,1,100
352,160,14506,1,0
416,96,14868,1,0
448,176,15229,2,0,B|416:256|320:272|256:240|224:160|272:112,1,300
32,32,17397,5,0
192,32,18120,6,0,B|288:32|320:80|224:144,1,200
144,272,19565,2,0,B|80:272|32:208|96:144|160:160,1,200
272,64,21010,2,0,B|336:80|368:128,1,100
416,352,22456,5,0
256,352,23178,1,0
256,192,23901,5,0
256,272,24262,1,0
176,272,24624,2,0,B|176:160,1,100
176,96,25346,1,0
176,16,25708,1,0
256,16,26069,2,0,B|256:128,1,100
256,192,26792,1,0
256,272,27153,1,0
256,352,27514,1,0
96,352,28237,2,0,B|48:304|48:240|80:160|160:144|320:256,1,400
368,160,30405,5,0
480,272,31128,1,0
320,272,31850,1,0
464,352,32573,1,0
304,352,33296,1,0
176,304,34018,2,0,B|96:304|16:272|-32:176|-32:128|96:64|144:80,1,400
160,144,36909,6,0,B|128:96|176:64|224:32|288:96,1,200
368,224,38354,2,0,B|368:288|304:352|224:304,1,200
128,176,39800,2,0,B|112:96|192:48|272:80,1,200
48,32,47026,5,0
128,32,47388,1,0
208,32,47749,1,0
288,32,48110,1,0
288,112,48472,5,0
288,192,48833,1,0
288,272,49194,1,0
288,352,49556,1,0
208,352,49917,2,0,B|112:304|80:240|144:128|208:128,1,300
288,128,51362,2,0,B|368:160|384:272|336:320|240:352,1,300
192,288,52808,2,0,B|128:176|160:96|304:64|384:144|368:224|320:272|256:288|208:256|240:176,1,500
256,32,55698,1,0
256,192,56421,1,0
416,192,57144,1,0
256,192,57866,1,0
96,192,58589,1,0
256,192,60034,6,0,B|176:192|128:128|144:64|208:32|304:32|368:80|320:176,1,400
256,320,62925,2,0,B|176:320|112:256|96:192|128:128|192:128,1,300
256,192,64370,12,0,68706
48,48,70874,5,0
128,48,71236,1,0
208,48,71597,1,0
288,48,71958,1,0
448,48,72681,5,0
448,128,73042,1,0
448,208,73404,1,0
448,288,73765,1,0
368,288,74126,1,0
288,288,74488,1,0
208,288,74849,1,0
128,288,75210,1,0
64,320,76656,5,0
64,240,77017,1,0
144,240,77378,1,0
144,320,77740,1,0
224,320,78101,5,0
224,240,78462,1,0
304,240,78824,1,0
304,320,79185,1,0
384,320,79546,5,0
384,240,79908,1,0
464,240,80269,1,0
464,320,80630,1,0
384,320,80992,6,0,B|384:112,1,200
240,64,82437,6,0,B|160:64|80:96|64:160,1,200
160,272,83882,6,0,B|272:288|336:192,1,200
320,32,85328,6,0,B|224:16|144:80|144:112,1,200
64,240,86773,6,0,B|128:336|240:320,1,200
288,256,87857,1,0
256,176,88941,5,0
256,176,89122,1,0
