osu file format v5

[General]
AudioFilename: Gracjan Roztocki_Pokemony.mp3
AudioLeadIn: 0
PreviewTime: -1
Countdown: 1
SampleSet: Normal
StackLeniency: 0.7
Mode: 0
LetterboxInBreaks: 1

[Editor]
DistanceSpacing: 0.800000011920929
BeatDivisor: 4
GridSize: 32

[Metadata]
Title:Pokemony
Artist:Gracjan Roztocki
Creator:Uzriel
Version:Normal
Source:youtube
Tags:gracjan roztocki poland

[Difficulty]
HPDrainRate:5
CircleSize:5
OverallDifficulty:5
SliderMultiplier:1.4
SliderTickRate:1

[Events]
//Background and Video events
Video,0,"Gracjan Roztocki _amp_quot_Pokemony_amp_quot_.avi"
0,0,"narodowa konata.jpg"
//Break Periods
//Storyboard Layer 0 (Background)
//Storyboard Layer 1 (Fail)
//Storyboard Layer 2 (Pass)
//Storyboard Layer 3 (Foreground)
//Storyboard Sound Samples
//Background Colour Transformations
3,100,163,162,255

[TimingPoints]
0,508.474576271186,4,1,0,100,1,0

[HitObjects]
256,192,4067,1,0
64,192,4576,1,0
256,96,5084,1,0
416,192,5593,1,0
256,192,6355,1,0
96,192,6864,1,0
256,64,7372,1,0
416,192,7881,1,0
256,192,8644,5,0
96,192,9152,1,0
256,64,9915,1,0
160,192,11059,6,0,B|256:192,5,70
256,192,13220,5,0
96,192,13728,1,0
256,64,14237,1,0
384,192,14999,1,0
256,192,15762,5,0
128,192,16271,1,0
256,64,16779,1,0
416,192,17542,1,0
256,192,18305,5,0
128,192,18813,1,0
256,64,19322,1,0
352,192,19830,2,0,B|448:160,4,70
256,192,21355,5,0
128,192,21864,1,0
384,192,22881,1,0
256,192,23389,6,0,B|256:32,1,140
256,52,24152,5,0
256,52,24533,2,0,B|256:160|256:192,1,140
256,192,25550,1,0
96,192,25932,5,0
256,32,26440,1,0
448,192,27457,1,0
256,192,27966,1,0
32,192,28983,6,0,B|288:64|448:224,1,420
256,192,32033,1,0
32,96,33559,2,0,B|192:32|160:64,1,140
160,64,34576,1,0
256,192,36610,1,0
96,192,37118,1,0
256,64,37627,1,0
256,192,38644,5,0
416,192,39152,1,0
256,96,39661,1,0
256,192,40677,5,0
128,192,41186,1,0
256,96,41694,1,0
384,192,42711,1,0
256,192,43728,12,0,51610
96,192,52372,6,0,B|256:64|224:64,1,140
192,96,53644,1,0
256,192,55169,5,0
128,192,55677,1,0
256,64,56186,1,0
384,192,56949,1,0
256,192,57711,5,0
128,192,57966,1,0
256,64,58474,1,0
352,192,58728,1,0
256,192,59237,2,0,B|160:192,3,70
96,192,60508,5,0
256,192,61271,1,0
416,192,62033,1,0
256,192,63305,5,0
256,32,64067,1,0
256,192,64830,1,0
256,64,65593,1,0
192,128,66355,1,0
288,192,67118,1,0
288,128,68644,1,0
224,128,69152,1,0
128,128,69661,1,0
256,192,70932,5,0
160,192,71440,1,0
64,192,72457,1,0
256,192,73220,5,0
288,192,73728,1,0
320,192,74491,1,0
256,192,75508,5,0
224,192,76271,1,0
192,192,77033,1,0
256,192,78050,5,0
256,128,78813,1,0
256,64,79322,1,0
256,192,80338,5,0
256,256,81355,1,0
256,320,82372,1,0
256,192,82881,2,0,B|32:0|64:32,1,210
96,64,84152,1,0
256,192,84915,5,0
128,192,85423,1,0
256,256,86186,1,0
384,192,86949,5,0
256,192,87711,1,0
160,192,87966,1,0
256,192,88983,5,0
256,96,89745,1,0
256,256,90254,1,0
256,192,91016,1,0
384,192,92033,1,0
96,192,92542,1,0
256,192,93305,5,0
256,96,94067,1,0
256,288,94830,1,0
256,192,95593,2,0,B|352:192,6,70
