osu file format v14

[General]
AudioFilename: GotyeSomebodyThatIUsedToKnow.mp3
AudioLeadIn: 0
PreviewTime: -1
Countdown: 1
SampleSet: None
StackLeniency: 0.7
Mode: 0
LetterboxInBreaks: 1
WidescreenStoryboard: 1

[Editor]
Bookmarks: 22854,64249
DistanceSpacing: 0.8
BeatDivisor: 2
GridSize: 4
TimelineZoom: 1

[Metadata]
Title:Somebody That I Used to Know
TitleUnicode:Somebody That I Used to Know
Artist:Gotye
ArtistUnicode:Gotye
Creator:Justify
Version:SuperDuperInsane
Source:
Tags:
BeatmapID:749924
BeatmapSetID:259909

[Difficulty]
HPDrainRate:2
CircleSize:4
OverallDifficulty:5
ApproachRate:9
SliderMultiplier:1.5
SliderTickRate:1

[Events]
//Background and Video events
//Break Periods
2,30256,35736
2,45373,63177
2,67698,122712
2,130024,177829
//Storyboard Layer 0 (Background)
//Storyboard Layer 1 (Fail)
//Storyboard Layer 2 (Pass)
//Storyboard Layer 3 (Foreground)
//Storyboard Sound Samples

[TimingPoints]
4243,465.116279069767,4,2,0,35,1,0
93552,-66.6666666666667,4,2,0,35,0,1
123319,-100,4,2,0,35,0,0

[HitObjects]
48,176,19126,6,0,L|56:356,1,150
216,216,19824,1,0,0:0:0:0:
136,96,20056,2,0,L|224:96|228:96,1,75
124,256,20522,1,0,0:0:0:0:
216,80,20754,1,0,0:0:0:0:
384,268,20987,2,0,L|252:192,1,150
124,256,21685,1,0,0:0:0:0:
416,92,21917,2,0,L|276:204,1,150
108,68,22615,1,0,0:0:0:0:
388,212,22847,2,0,L|216:300,1,150
8,272,26801,2,0,L|84:256,1,75
140,248,27266,1,0,0:0:0:0:
196,232,27498,1,0,0:0:0:0:
252,212,27731,1,0,0:0:0:0:
300,176,27963,2,0,L|364:124,1,75
408,92,28429,1,0,0:0:0:0:
288,76,28894,1,0,0:0:0:0:
228,76,29359,1,0,0:0:0:0:
168,84,29824,1,0,0:0:0:0:
108,84,30056,1,0,0:0:0:0:
88,296,36336,5,0,0:0:0:0:
468,212,36801,1,0,0:0:0:0:
76,264,38196,1,0,0:0:0:0:
272,264,38429,1,0,0:0:0:0:
76,192,38661,1,0,0:0:0:0:
244,148,38894,1,0,0:0:0:0:
360,184,39126,1,0,0:0:0:0:
440,300,39359,1,0,0:0:0:0:
216,212,39591,2,0,L|384:208,1,150,0|0,0:0|0:0,0:0:0:0:
128,160,40289,1,0,0:0:0:0:
216,212,40522,2,0,L|384:208,1,150,0|0,0:0|0:0,0:0:0:0:
304,176,41684,1,0,0:0:0:0:
176,140,41917,1,0,0:0:0:0:
64,104,42149,1,0,0:0:0:0:
24,192,42382,1,0,0:0:0:0:
64,256,42615,1,0,0:0:0:0:
188,296,42847,1,0,0:0:0:0:
300,308,43080,1,0,0:0:0:0:
416,248,43312,1,0,0:0:0:0:
60,208,43777,1,0,0:0:0:0:
172,128,44242,1,0,0:0:0:0:
72,140,44708,1,0,0:0:0:0:
376,84,44940,1,0,0:0:0:0:
84,272,45173,1,0,0:0:0:0:
84,272,63777,6,0,L|152:324,1,75
428,272,64242,6,0,L|360:324,1,75
88,56,64708,6,0,L|156:108,1,75
432,56,65173,6,0,L|364:108,1,75
64,212,65638,1,0,0:0:0:0:
444,188,66103,1,0,0:0:0:0:
80,264,66568,5,0,2:0:0:0:
20,148,67033,1,0,2:0:0:0:
56,148,67266,1,0,0:0:0:0:
80,152,67498,1,0,0:0:0:0:
80,140,123312,6,0,L|256:140,1,150
364,184,124010,1,0,0:0:0:0:
128,268,124242,2,0,L|300:272,1,150
268,164,124940,2,0,L|200:212,1,75
128,284,125405,1,0,0:0:0:0:
336,268,125638,1,0,0:0:0:0:
404,188,125870,1,0,0:0:0:0:
432,124,126103,1,0,0:0:0:0:
32,48,126336,2,0,L|116:104,1,75
32,60,127033,2,0,L|176:120,1,150
32,60,127963,2,0,L|176:120,1,150
116,224,128894,1,0,0:0:0:0:
236,208,129359,1,0,0:0:0:0:
200,232,129824,1,0,0:0:0:0:
92,248,178429,6,0,L|188:240,1,75
412,296,178894,1,0,0:0:0:0:
172,80,179126,1,0,0:0:0:0:
424,120,179359,1,0,0:0:0:0:
120,324,179591,1,0,0:0:0:0:
32,104,179824,1,0,0:0:0:0:
312,56,180056,1,0,0:0:0:0:
240,316,180289,1,0,0:0:0:0:
20,236,180522,1,0,0:0:0:0:
148,204,180754,2,0,L|240:192,1,75
255,342,181452,5,0,0:0:0:0:
126,116,181685,1,0,0:0:0:0:
126,266,181917,1,0,0:0:0:0:
385,117,182150,1,0,0:0:0:0:
268,204,182382,1,0,0:0:0:0:
24,240,182847,6,0,L|208:208,1,150
255,255,183545,1,0,0:0:0:0:
195,211,183777,1,0,0:0:0:0:
192,152,184010,2,0,L|268:108,1,75
316,211,184475,1,0,0:0:0:0:
80,228,184708,2,0,P|216:224|236:240,1,150
272,216,185405,1,0,0:0:0:0:
72,132,185638,2,0,B|252:72|252:72|228:144,1,225
292,136,186568,1,0,0:0:0:0:
412,148,187033,1,0,0:0:0:0:
416,208,187266,2,0,L|424:296,1,75
380,324,187731,1,0,0:0:0:0:
324,308,187963,2,0,L|232:288,1,75
196,272,188429,2,0,L|85:243,1,75
64,260,188894,1,0,0:0:0:0:
124,156,189126,1,0,0:0:0:0:
180,136,189359,2,0,L|288:116,1,75
364,160,190056,1,0,0:0:0:0:
424,160,190289,1,0,0:0:0:0:
