osu file format v10

[General]
AudioFilename: sakuno~.mp3
AudioLeadIn: 0
PreviewTime: 76375
Countdown: 0
SampleSet: Soft
StackLeniency: 0.7
Mode: 0
LetterboxInBreaks: 0

[Editor]
DistanceSpacing: 1.2
BeatDivisor: 4
GridSize: 4

[Metadata]
Title:Funwari Fuwari
TitleUnicode:Funwari Fuwari
Artist:Gotou Mai
ArtistUnicode:Gotou Mai
Creator:Nymph
Version:Normal
Source:Mashiro Iro Symphony - The color of lovers -
Tags:Sakuno charater song
BeatmapID:178394
BeatmapSetID:52028

[Difficulty]
HPDrainRate:4
CircleSize:3
OverallDifficulty:4
ApproachRate:5
SliderMultiplier:1.4
SliderTickRate:2

[Events]
//Background and Video events
0,0,"sakuno~w~.jpg"
//Break Periods
2,97138,101453
2,159995,181452
//Storyboard Layer 0 (Background)
//Storyboard Layer 1 (Fail)
//Storyboard Layer 2 (Pass)
//Storyboard Layer 3 (Foreground)
//Storyboard Sound Samples
//Background Colour Transformations
3,100,163,162,255

[TimingPoints]
16939,571.428571428571,4,2,1,50,1,0
76367,-100,4,2,1,50,0,1
94653,-100,4,2,1,50,0,0
102653,571.428571428571,4,2,1,50,1,0
139224,-100,4,2,1,50,0,1
157510,-100,4,2,1,50,0,0
200938,-100,4,2,1,50,0,1
219224,-100,4,2,1,20,0,0

[Colours]
Combo1 : 163,70,255
Combo2 : 0,128,255
Combo3 : 255,117,255
Combo4 : 128,255,128

[HitObjects]
168,72,16939,2,0,B|156:140|84:180,1,140,4|8,0:0|0:0,0:0:0
44,252,17796,1,0,0:0:0
120,284,18081,2,0,B|104:320|68:332,2,70,0|0|8,0:0|0:0|0:0,0:0:0
200,256,18939,1,0,0:0:0
264,312,19224,6,0,B|324:356|400:356,1,140,0|8,0:0|0:0,0:0:0
464,308,20081,1,0,0:0:0
456,224,20367,2,0,B|396:180|320:180,1,140,0|8,0:0|0:0,0:0:0
180,100,21510,6,0,B|180:32,2,70,0|0|8,0:0|0:0|0:0,0:0:0
180,184,22367,1,0,0:0:0
96,184,22653,2,0,B|28:184,2,70,0|0|8,0:0|0:0|0:0,0:0:0
140,256,23510,1,0,0:0:0
216,296,23796,6,0,B|268:344|344:348,1,140,0|8,0:0|0:0,0:0:0
424,332,24653,1,0,0:0:0
484,272,24939,2,0,B|484:200,2,70,0|0|8,0:0|0:0|0:0,0:0:0
332,348,26081,6,0,B|252:348,1,70,4|0,0:0|0:0,0:0:0
228,272,26653,2,0,B|148:272,1,70,8|0,0:0|0:0,0:0:0
96,212,27224,2,0,B|84:176|48:160,2,70,0|0|8,0:0|0:0|0:0,0:0:0
76,292,28081,1,0,0:0:0
136,352,28367,6,0,B|276:352,1,140,0|8,0:0|0:0,0:0:0
420,268,29510,2,0,B|280:268,1,140,0|8,0:0|0:0,0:0:0
256,188,30367,1,0,0:0:0
232,108,30653,6,0,B|164:88|92:108,2,140,0|8|0,0:0|0:0|0:0,0:0:0
256,188,32081,1,0,0:0:0
256,272,32367,1,8,0:0:0
256,272,32938,6,0,B|324:292|396:272,2,140,0|8|0,0:0|0:0|0:0,0:0:0
256,108,34653,1,8,0:0:0
100,44,35224,6,0,B|100:112,1,70,4|0,0:0|0:0,0:0:0
20,140,35796,1,8,0:0:0
20,140,36081,2,0,B|20:280,1,140,4|0,0:0|0:0,0:0:0
100,308,36938,2,0,B|100:240,1,70,8|0,0:0|0:0,0:0:0
184,256,37510,6,0,B|184:186,1,70,4|0,0:0|0:0,0:0:0
268,180,38081,1,8,0:0:0
268,180,38367,2,0,B|268:320,1,140,4|0,0:0|0:0,0:0:0
348,348,39224,2,0,B|420:348,1,70,8|0,0:0|0:0,0:0:0
484,296,39796,6,0,B|508:228|484:156,1,140,4|8,0:0|0:0,0:0:0
424,100,40653,1,0,0:0:0
348,68,40938,2,0,B|312:60|288:36,2,70,0|0|8,0:0|0:0|0:0,0:0:0
360,152,41796,1,0,0:0:0
308,216,42081,6,0,B|252:256|172:248,1,140,0|8,0:0|0:0,0:0:0
108,196,42938,1,0,0:0:0
64,124,43224,2,0,B|28:112|12:80,2,70,0|0|8,0:0|0:0|0:0,0:0:0
24,196,44081,1,0,0:0:0
68,268,44367,5,0,0:0:0
216,344,44938,1,8,0:0:0
300,344,45224,1,0,0:0:0
256,272,45510,2,0,B|256:132,1,140,0|8,0:0|0:0,0:0:0
256,48,46367,1,0,0:0:0
328,92,46653,6,0,B|384:96|428:60,2,105,0|0|0,0:0|0:0|0:0,0:0:0
256,136,47796,2,0,B|176:136,2,70,0|0|8,0:0|0:0|0:0,0:0:0
256,300,48938,6,0,B|316:344|388:344,1,140,4|8,0:0|0:0,0:0:0
468,316,49796,1,0,0:0:0
492,236,50081,1,0,0:0:0
492,236,50367,2,0,B|492:164,1,70,0|8,0:0|0:0,0:0:0
368,52,51224,6,0,B|296:52,1,70
292,136,51796,2,0,B|220:136,2,70,8|0|0,0:0|0:0|0:0,0:0:0
376,140,52653,1,0,0:0:0
440,192,52938,1,8,0:0:0
452,276,53224,1,0,0:0:0
416,352,53510,6,0,B|348:372|272:352,1,140,0|8,0:0|0:0,0:0:0
232,192,54653,2,0,B|161:173|93:193,1,140,0|8,0:0|0:0,0:0:0
40,256,55510,1,0,0:0:0
72,332,55796,6,0,B|140:360,1,70
204,308,56367,2,0,B|256:292|308:308,2,105,8|0|0,0:0|0:0|0:0,0:0:0
136,260,57510,2,0,B|71:233,1,70,8|0,0:0|0:0,0:0:0
24,164,58081,5,4,0:0:0
144,48,58653,2,0,B|208:74,1,70,8|0,0:0|0:0,0:0:0
256,144,59224,2,0,B|328:164|396:144,1,140,0|8,0:0|0:0,0:0:0
460,92,60081,1,0,0:0:0
492,172,60367,6,0,B|492:312,1,140,0|8,0:0|0:0,0:0:0
408,296,61224,1,0,0:0:0
340,348,61510,2,0,B|272:368|200:348,1,140,0|8,0:0|0:0,0:0:0
164,272,62367,1,0,0:0:0
156,188,62653,6,0,B|88:168|16:188,2,140,0|8|0,0:0|0:0|0:0,0:0:0
256,52,64367,1,8,0:0:0
256,136,64653,1,0,0:0:0
332,96,64938,6,0,B|404:76|472:96,2,140,0|8|0,0:0|0:0|0:0,0:0:0
256,136,66367,1,0,0:0:0
256,52,66653,1,8,0:0:0
136,172,67224,6,0,B|116:240|40:272,1,140,4|8,0:0|0:0,0:0:0
80,344,68081,1,0,0:0:0
156,308,68367,2,0,B|224:308,1,70
296,352,68938,2,0,B|364:352,1,70,8|0,0:0|0:0,0:0:0
452,352,69510,6,0,B|508:300|508:228,2,140,0|8|0,0:0|0:0|0:0,0:0:0
296,292,71224,2,0,B|226:292,1,70,8|0,0:0|0:0,0:0:0
160,344,71796,6,0,B|108:356|56:344,2,105,4|0|4,0:0|0:0|0:0,0:0:0
256,112,73510,2,0,B|256:184,1,70,8|0,0:0|0:0,0:0:0
256,268,74081,6,0,B|307:316|389:306,1,140,4|8,0:0|0:0,0:0:0
484,172,75224,1,4,0:0:0
444,100,75510,1,0,0:0:0
364,80,75796,2,0,B|364:44,2,35,8|0|0,0:0|0:0|0:0,0:0:0
284,100,76367,6,0,B|288:172|232:228,1,140,4|8,0:0|0:0,0:0:0
116,148,77510,2,0,B|61:202|65:274,1,140,0|8,0:0|0:0,0:0:0
108,348,78367,1,0,0:0:0
192,348,78653,6,0,B|336:348,1,140,0|8,0:0|0:0,0:0:0
464,244,79796,2,0,B|324:244,1,140,0|8,0:0|0:0,0:0:0
256,196,80653,1,0,0:0:0
256,108,80938,6,0,B|184:112|132:56,2,140,0|8|0,0:0|0:0|0:0,0:0:0
260,24,82367,2,0,B|304:24|324:56,1,70,0|8,0:0|0:0,0:0:0
388,100,82938,1,0,0:0:0
460,144,83224,6,0,B|424:188|496:232|460:276,1,140,0|8,0:0|0:0,0:0:0
412,344,84081,1,0,0:0:0
340,300,84367,2,0,B|268:300,1,70
196,344,84938,2,0,B|124:344,2,70,8|0|4,0:0|0:0|0:0,0:0:0
256,188,86081,6,0,B|256:48,1,140,8|0,0:0|0:0,0:0:0
336,28,86938,2,0,B|416:28,2,70,0|8|0,0:0|0:0|0:0,0:0:0
356,108,87796,6,0,B|436:108,2,70,0|0|8,0:0|0:0|0:0,0:0:0
356,192,88653,1,0,0:0:0
256,328,89224,2,0,B|176:328,2,70,0|8|0,0:0|0:0|0:0,0:0:0
256,244,90081,6,0,B|256:136,2,105
176,220,91224,2,0,B|176:112,2,105
96,196,92367,1,4,0:0:0
176,344,92938,2,0,B|280:344,1,105,8|4,0:0|0:0,0:0:0
256,192,94653,12,0,96938,0:0:0
84,40,102653,6,0,B|60:109|84:177,1,140,4|8,0:0|0:0,0:0:0
152,228,103510,1,0,0:0:0
232,252,103795,2,0,B|246:283|241:320,2,70,0|0|8,0:0|0:0|0:0,0:0:0
244,168,104653,1,0,0:0:0
280,92,104938,6,0,B|336:52|416:60,1,140,0|8,0:0|0:0,0:0:0
460,128,105795,1,0,0:0:0
432,208,106081,2,0,B|396:196|380:164,2,70,0|0|8,0:0|0:0|0:0,0:0:0
480,280,106938,1,0,0:0:0
396,284,107224,5,0,0:0:0
256,196,107795,1,8,0:0:0
256,280,108081,1,0,0:0:0
256,364,108367,2,0,B|116:364,1,140,0|8,0:0|0:0,0:0:0
64,296,109224,1,0,0:0:0
48,212,109510,6,0,B|52:156|16:112,2,105
128,244,110653,2,0,B|198:244,2,70,0|0|8,0:0|0:0|0:0,0:0:0
280,300,111795,6,0,B|340:344|412:344,1,140,4|8,0:0|0:0,0:0:0
492,316,112653,1,0,0:0:0
432,256,112938,1,0,0:0:0
512,232,113224,2,0,B|512:160,1,70,0|8,0:0|0:0,0:0:0
472,88,113795,1,0,0:0:0
392,64,114081,6,0,B|320:64,1,70
236,64,114653,2,0,B|164:64,2,70,8|0|0,0:0|0:0|0:0,0:0:0
348,188,115795,1,8,0:0:0
428,164,116081,1,0,0:0:0
488,224,116367,6,0,B|488:300|432:348,1,140,0|8,0:0|0:0,0:0:0
364,300,117224,1,0,0:0:0
292,344,117510,2,0,B|221:325|153:345,1,140,0|8,0:0|0:0,0:0:0
80,304,118367,1,0,0:0:0
100,224,118653,6,0,B|64:224|35:197,1,70
16,116,119224,2,0,B|28:62|67:25,2,105,8|0|0,0:0|0:0|0:0,0:0:0
35,197,120367,2,0,B|76:200|100:224,1,70,8|0,0:0|0:0,0:0:0
100,308,120938,5,4,0:0:0
268,324,121510,2,0,B|296:348|332:350,1,70,8|0,0:0|0:0,0:0:0
356,268,122081,2,0,B|428:288|496:268,1,140,0|8,0:0|0:0,0:0:0
504,184,122938,1,0,0:0:0
496,100,123224,6,0,B|424:80|356:100,1,140,0|8,0:0|0:0,0:0:0
280,68,124081,1,0,0:0:0
232,136,124367,2,0,B|160:156|92:136,1,140,0|8,0:0|0:0,0:0:0
16,172,125224,1,0,0:0:0
84,220,125510,6,0,B|104:292|84:360,2,140,0|8|0,0:0|0:0|0:0,0:0:0
124,144,126938,1,0,0:0:0
172,76,127224,2,0,B|232:40,1,70,8|0,0:0|0:0,0:0:0
292,96,127795,6,0,B|364:76|432:96,2,140,0|8|0,0:0|0:0|0:0,0:0:0
256,172,129224,1,0,0:0:0
256,256,129510,1,8,0:0:0
424,244,130081,6,0,B|404:312|328:344,1,140,4|8,0:0|0:0,0:0:0
256,304,130938,1,0,0:0:0
180,340,131224,2,0,B|110:340,1,70
120,256,131795,2,0,B|50:256,1,70,8|0,0:0|0:0,0:0:0
20,176,132367,6,0,B|20:104|76:52,2,140,0|8|0,0:0|0:0|0:0,0:0:0
56,252,133795,1,0,0:0:0
136,272,134081,2,0,B|206:272,1,70,8|0,0:0|0:0,0:0:0
248,344,134653,6,0,B|300:356|352:344,2,105,4|0|4,0:0|0:0|0:0,0:0:0
256,96,136367,2,0,B|256:168,1,70,8|0,0:0|0:0,0:0:0
256,252,136938,6,0,B|205:300|123:290,1,140,4|8,0:0|0:0,0:0:0
36,148,138081,1,4,0:0:0
60,68,138367,1,0,0:0:0
144,56,138653,2,0,B|144:20,2,35,8|0|0,0:0|0:0|0:0,0:0:0
120,136,139224,6,0,B|124:208|68:264,1,140,4|8,0:0|0:0,0:0:0
232,220,140367,2,0,B|177:274|181:346,1,140,0|8,0:0|0:0,0:0:0
264,332,141224,1,0,0:0:0
344,352,141510,6,0,B|416:376|484:352,1,140,0|8,0:0|0:0,0:0:0
504,188,142652,2,0,B|438:164|366:188,1,140,0|8,0:0|0:0,0:0:0
284,192,143510,1,0,0:0:0
256,112,143795,6,0,B|184:116|132:60,2,140,0|8|0,0:0|0:0|0:0,0:0:0
332,72,145224,1,0,0:0:0
416,56,145510,2,0,B|480:92,1,70,8|0,0:0|0:0,0:0:0
484,176,146081,6,0,B|508:248|484:313,1,140,0|8,0:0|0:0,0:0:0
408,276,146938,1,0,0:0:0
324,288,147224,2,0,B|272:340,1,70
204,296,147795,2,0,B|152:348,2,70,8|0|4,0:0|0:0|0:0,0:0:0
336,192,148938,6,0,B|308:124|336:56,1,140,8|0,0:0|0:0,0:0:0
412,24,149795,2,0,B|492:24,2,70,0|8|0,0:0|0:0|0:0,0:0:0
412,108,150652,6,0,B|412:184,1,70
476,236,151224,2,0,B|476:312,1,70,8|0,0:0|0:0,0:0:0
312,276,152081,2,0,B|312:356,2,70,0|8|0,0:0|0:0|0:0,0:0:0
256,212,152938,6,0,B|256:104,2,105
172,212,154081,2,0,B|172:317,2,105
88,208,155224,1,4,0:0:0
88,40,155795,2,0,B|192:40,1,105,8|4,0:0|0:0,0:0:0
256,192,157510,12,0,159795,0:0:0
204,128,182652,6,0,B|148:172|72:172,2,140,4|8|0,0:0|0:0|0:0,0:0:0
272,80,184081,1,0,0:0:0
312,152,184367,2,0,B|312:232,1,70,8|0,0:0|0:0,0:0:0
256,288,184938,6,0,B|312:332|388:332,2,140,0|8|0,0:0|0:0|0:0,0:0:0
256,204,186367,1,0,0:0:0
256,120,186652,2,0,B|256:48,1,70,8|0,0:0|0:0,0:0:0
172,32,187224,6,0,B|116:76|40:76,1,140,0|8,0:0|0:0,0:0:0
40,160,188081,1,0,0:0:0
112,204,188367,2,0,B|156:260|156:336,1,140,0|8,0:0|0:0,0:0:0
240,352,189224,1,0,0:0:0
324,352,189510,6,0,B|380:308|456:308,1,140,0|8,0:0|0:0,0:0:0
456,224,190367,1,0,0:0:0
384,180,190653,2,0,B|340:124|340:48,1,140,0|8,0:0|0:0,0:0:0
256,36,191510,1,0,0:0:0
171,49,191795,6,0,B|172:124|128:180,1,140,0|8,0:0|0:0,0:0:0
268,272,192938,2,0,B|220:328,3,70,0|0|8|0,0:0|0:0|0:0|0:0,0:0:0
140,348,194081,6,0,B|68:348,3,70,0|0|8|0,0:0|0:0|0:0|0:0,0:0:0
132,192,195510,2,0,B|56:192,2,70,0|8|0,0:0|0:0|0:0,0:0:0
208,160,196367,6,0,B|252:128|308:128,2,105
208,244,197510,2,0,B|164:276|108:276,2,105
292,244,198652,6,0,B|364:244|420:300,1,140,0|8,0:0|0:0,0:0:0
356,356,199510,1,0,0:0:0
272,360,199795,2,0,B|200:360|144:304,1,140,0|8,0:0|0:0,0:0:0
140,224,200652,1,0,0:0:0
72,272,200938,5,4,0:0:0
32,108,201510,1,8,0:0:0
144,60,202081,2,0,B|76:40,3,70,0|0|8|0,0:0|0:0|0:0|0:0,0:0:0
32,108,203224,6,0,B|76:172|52:240,1,140,0|8,0:0|0:0,0:0:0
184,344,204367,2,0,B|112:360,2,70,0|0|8,0:0|0:0|0:0,0:0:0
256,300,205224,1,0,0:0:0
328,344,205510,6,0,B|400:352|464:312,1,140,0|8,0:0|0:0,0:0:0
424,236,206367,1,0,0:0:0
488,180,206652,2,0,B|496:108|456:44,1,140,0|8,0:0|0:0,0:0:0
376,24,207510,1,0,0:0:0
320,84,207795,6,0,B|258:122|186:114,2,140,0|8|0,0:0|0:0|0:0,0:0:0
388,132,209224,2,0,B|444:180,1,70,0|8,0:0|0:0,0:0:0
412,256,209795,2,0,B|468:304,2,70,0|4|0,0:0|0:0|0:0,0:0:0
344,308,210652,1,8,0:0:0
184,356,211224,6,0,B|112:352|68:284,1,140,0|8,0:0|0:0,0:0:0
44,204,212081,1,0,0:0:0
84,128,212367,2,0,B|36:76,2,70,0|0|8,0:0|0:0|0:0,0:0:0
164,152,213224,2,0,B|240:144|280:84,1,140
352,40,214081,2,0,B|412:84,1,70
464,144,214652,6,0,B|464:249,2,105
384,172,215795,2,0,B|384:277,2,105
304,204,216938,1,4,0:0:0
212,344,217510,2,0,B|107:344,1,105,8|4,0:0|0:0,0:0:0
256,192,219224,12,0,221509,0:0:0
