osu file format v10

[General]
AudioFilename: sakuno~.mp3
AudioLeadIn: 0
PreviewTime: 76375
Countdown: 0
SampleSet: Soft
StackLeniency: 0.7
Mode: 0
LetterboxInBreaks: 0

[Editor]
DistanceSpacing: 1
BeatDivisor: 4
GridSize: 4

[Metadata]
Title:Funwari Fuwari
TitleUnicode:Funwari Fuwari
Artist:Gotou Mai
ArtistUnicode:Gotou Mai
Creator:Nymph
Version:Easy
Source:Mashiro Iro Symphony - The color of lovers -
Tags:Sakuno charater song
BeatmapID:159265
BeatmapSetID:52028

[Difficulty]
HPDrainRate:2
CircleSize:3
OverallDifficulty:2
ApproachRate:3
SliderMultiplier:0.999999999999999
SliderTickRate:2

[Events]
//Background and Video events
0,0,"sakuno~w~.jpg"
//Break Periods
2,97139,101213
2,159995,181212
//Storyboard Layer 0 (Background)
//Storyboard Layer 1 (Fail)
//Storyboard Layer 2 (Pass)
//Storyboard Layer 3 (Foreground)
//Storyboard Sound Samples
//Background Colour Transformations
3,100,163,162,255

[TimingPoints]
16939,571.428571428571,4,2,1,50,1,0
76367,-100,4,2,1,50,0,1
94653,-100,4,2,1,50,0,0
102653,571.428571428571,4,2,1,50,1,0
139224,-100,4,2,1,50,0,1
157510,-100,4,2,1,50,0,0
200938,-100,4,2,1,50,0,1
219224,-100,4,2,1,20,0,0

[Colours]
Combo1 : 163,70,255
Combo2 : 0,128,255
Combo3 : 255,117,255
Combo4 : 128,255,128

[HitObjects]
144,88,16939,2,0,B|140:140|100:176,1,99.9999999999999,4|8,0:0|0:0,0:0:0
112,276,18081,2,0,B|80:316,2,50,0|0|8,0:0|0:0|0:0,0:0:0
208,300,19224,6,0,B|244:340|296:344,1,99.9999999999999,0|8,0:0|0:0,0:0:0
396,344,20367,2,0,B|448:344,2,50,0|0|8,0:0|0:0|0:0,0:0:0
396,244,21510,5,0,0:0:0
428,148,22081,1,8,0:0:0
396,52,22653,1,0,0:0:0
304,16,23224,1,8,0:0:0
204,28,23796,6,0,B|104:28,1,99.9999999999999,0|8,0:0|0:0,0:0:0
56,116,24938,2,0,B|104:116,2,50,0|0|8,0:0|0:0|0:0,0:0:0
28,212,26081,6,0,B|8:260|28:312,1,99.9999999999999,4|8,0:0|0:0,0:0:0
128,324,27224,2,0,B|128:352|112:372,2,50,0|0|8,0:0|0:0|0:0,0:0:0
208,264,28367,6,0,B|256:244|308:264,1,99.9999999999999
348,352,29510,2,0,B|324:360|300:352,2,50,0|0|8,0:0|0:0|0:0,0:0:0
448,336,30653,6,0,B|488:304|488:248,1,99.9999999999999,0|8,0:0|0:0,0:0:0
404,192,31796,2,0,B|364:160|364:104,1,99.9999999999999,0|8,0:0|0:0,0:0:0
284,44,32938,5,0,0:0:0
184,44,33510,1,8,0:0:0
236,132,34081,1,0,0:0:0
136,132,34653,1,8,0:0:0
256,192,35224,12,8,39224,0:0:0
184,120,39796,6,0,B|184:168|136:212,1,99.9999999999999,4|8,0:0|0:0,0:0:0
52,252,40938,2,0,B|20:212,2,50,0|0|8,0:0|0:0|0:0,0:0:0
108,340,42081,6,0,B|156:360|204:340,1,99.9999999999999,0|8,0:0|0:0,0:0:0
304,340,43224,2,0,B|304:292,2,50,0|0|8,0:0|0:0|0:0,0:0:0
404,360,44367,5,0,0:0:0
488,304,44939,1,8,0:0:0
404,248,45510,1,0,0:0:0
488,192,46081,1,8,0:0:0
476,92,46653,6,0,B|444:52|392:40,1,99.9999999999999,0|8,0:0|0:0,0:0:0
344,52,47510,2,0,B|288:108|208:112,1,150,0|8,0:0|0:0,0:0:0
132,48,48939,6,0,B|84:68|64:120,1,99.9999999999999,4|8,0:0|0:0,0:0:0
96,212,50081,2,0,B|80:236|56:244,2,50,0|0|8,0:0|0:0|0:0,0:0:0
196,212,51224,6,0,B|212:260|196:312,1,99.9999999999999,0|8,0:0|0:0,0:0:0
284,360,52367,2,0,B|332:344|384:360,1,99.9999999999999,0|8,0:0|0:0,0:0:0
400,260,53510,6,0,B|448:276|500:260,1,99.9999999999999,0|8,0:0|0:0,0:0:0
460,168,54653,2,0,B|412:152|360:168,1,99.9999999999999,0|8,0:0|0:0,0:0:0
256,192,55796,12,4,58081,0:0:0
256,192,59224,5,0,0:0:0
256,316,60367,2,0,B|160:352|60:316,1,200
60,116,62653,6,0,B|159:80|260:116,1,200
324,188,64367,1,8,0:0:0
360,96,64939,6,0,B|432:132|440:216|440:216|468:176,1,200
504,268,66653,1,8,0:0:0
436,340,67224,6,0,B|388:356|336:340,1,99.9999999999999,4|8,0:0|0:0,0:0:0
236,340,68367,2,0,B|188:356|136:340,1,99.9999999999999,0|8,0:0|0:0,0:0:0
60,276,69510,5,0,0:0:0
104,188,70081,1,8,0:0:0
28,120,70653,1,0,0:0:0
88,40,71224,1,8,0:0:0
164,104,71796,6,0,B|208:100|236:76,2,74.9999999999999,4|0|4,0:0|0:0|0:0,0:0:0
180,200,73224,2,0,B|180:268,1,50,0|8,0:0|0:0,0:0:0
256,320,74081,6,0,B|296:356|348:356,1,99.9999999999999,4|8,0:0|0:0,0:0:0
432,304,75224,2,0,B|468:264|468:212,1,99.9999999999999,4|8,0:0|0:0,0:0:0
444,116,76367,6,0,B|416:68|364:60,1,99.9999999999999,4|8,0:0|0:0,0:0:0
324,152,77510,2,0,B|296:200|244:208,1,99.9999999999999,0|8,0:0|0:0,0:0:0
144,208,78653,6,0,B|92:200|64:152,1,99.9999999999999,0|8,0:0|0:0,0:0:0
120,72,79796,2,0,B|88:30|33:22,2,99.9999999999999,0|8|0,0:0|0:0|0:0,0:0:0
208,28,81510,5,8,0:0:0
304,60,82081,2,0,B|352:80|404:60,1,99.9999999999999,0|8,0:0|0:0,0:0:0
468,136,83224,6,0,B|436:184|468:232|500:280|468:328,1,200
372,356,84939,1,8,0:0:0
308,280,85510,6,0,B|260:260|212:280,1,99.9999999999999,4|8,0:0|0:0,0:0:0
140,352,86653,2,0,B|92:372|42:351,1,99.9999999999999,0|8,0:0|0:0,0:0:0
20,256,87796,2,0,B|20:208,3,50,0|0|8|0,0:0|0:0|0:0|0:0,0:0:0
100,80,89510,1,8,0:0:0
196,108,90081,6,0,B|216:68|216:32,2,74.9999999999999,0|0|0,0:0|0:0|0:0,0:0:0
236,136,91224,2,0,B|280:133|311:115,2,74.9999999999999
232,184,92367,1,4,0:0:0
256,280,92939,2,0,B|256:356,1,74.9999999999999,8|4,0:0|0:0,0:0:0
256,192,94653,12,0,96939,0:0:0
204,76,102653,6,0,B|256:92|304:76,1,99.9999999999999,4|8,0:0|0:0,0:0:0
388,124,103795,2,0,B|440:124,2,50,0|0|8,0:0|0:0|0:0,0:0:0
316,192,104938,6,0,B|264:176|216:192,1,99.9999999999999,0|8,0:0|0:0,0:0:0
132,240,106081,2,0,B|80:240,2,50,0|0|8,0:0|0:0|0:0,0:0:0
188,324,107224,6,0,B|234:339|286:323,1,99.9999999999999,0|8,0:0|0:0,0:0:0
380,288,108367,2,0,B|372:264|384:240|384:240|412:236|432:252,1,99.9999999999999,0|8,0:0|0:0,0:0:0
492,172,109510,6,0,B|504:124|492:72,1,99.9999999999999,0|0,0:0|0:0,0:0:0
456,40,110367,2,0,B|384:64|308:40,1,150,0|8,0:0|0:0,0:0:0
248,120,111795,6,0,B|200:136|148:120,1,99.9999999999999,4|8,0:0|0:0,0:0:0
56,88,112938,2,0,B|36:76|28:48,2,50,0|0|8,0:0|0:0|0:0,0:0:0
76,188,114081,6,0,B|50:232|58:284,1,99.9999999999999,0|8,0:0|0:0,0:0:0
156,256,115224,1,0,0:0:0
132,352,115795,1,8,0:0:0
228,328,116367,6,0,B|276:360|324:328|372:296|420:328,1,200
500,268,118081,1,8,0:0:0
500,168,118653,6,0,B|516:120|500:68,1,99.9999999999999,0|8,0:0|0:0,0:0:0
416,124,119795,2,0,B|400:72|416:24,1,99.9999999999999,0|8,0:0|0:0,0:0:0
316,32,120938,6,0,B|220:68|120:32,1,200,4|0,0:0|0:0,0:0:0
40,92,122653,1,8,0:0:0
84,180,123224,6,0,B|183:215|279:179,1,200
372,140,124938,1,8,0:0:0
468,112,125510,6,0,B|503:211|467:307,1,200
368,288,127224,1,8,0:0:0
292,356,127795,6,0,B|220:380|144:356,1,150
100,336,128938,1,0,0:0:0
56,244,129510,1,8,0:0:0
132,180,130081,6,0,B|112:132|56:124,2,99.9999999999999,4|8|0,0:0|0:0|0:0,0:0:0
208,112,131795,1,8,0:0:0
308,112,132367,6,0,B|328:64|384:56,2,99.9999999999999,0|8|0,0:0|0:0|0:0,0:0:0
256,200,134081,1,8,0:0:0
256,300,134653,6,0,B|256:384,2,74.9999999999999,4|0|4,0:0|0:0|0:0,0:0:0
256,148,136367,1,8,0:0:0
284,52,136938,6,0,B|324:16|376:16,1,99.9999999999999,4|8,0:0|0:0,0:0:0
460,68,138081,2,0,B|496:108|496:160,1,99.9999999999999,4|8,0:0|0:0,0:0:0
400,192,139224,6,0,B|411:244|385:289,1,99.9999999999999,4|8,0:0|0:0,0:0:0
292,260,140367,2,0,B|275:311|230:337,1,99.9999999999999,0|8,0:0|0:0,0:0:0
132,332,141510,6,0,B|84:316|32:332,1,99.9999999999999,0|8,0:0|0:0,0:0:0
8,236,142652,2,0,B|60:252|108:236,1,99.9999999999999,0|8,0:0|0:0,0:0:0
156,152,143795,5,0,0:0:0
256,152,144367,1,8,0:0:0
224,56,144938,1,0,0:0:0
324,56,145510,1,8,0:0:0
424,56,146081,6,0,B|440:104|424:156,2,99.9999999999999,0|8|0,0:0|0:0|0:0,0:0:0
324,56,147795,1,8,0:0:0
224,56,148367,6,0,B|216:104|168:136,1,99.9999999999999,4|8,0:0|0:0,0:0:0
92,68,149510,2,0,B|44:100|36:148,1,99.9999999999999,0|8,0:0|0:0,0:0:0
80,236,150652,6,0,B|80:288,3,50,0|0|8|0,0:0|0:0|0:0|0:0,0:0:0
164,344,152081,2,0,B|224:344,1,50,0|8,0:0|0:0,0:0:0
316,344,152938,6,0,B|392:344,2,74.9999999999999
316,292,154081,2,0,B|316:216,2,74.9999999999999
272,320,155224,1,4,0:0:0
176,292,155795,2,0,B|101:292,1,74.9999999999999,8|4,0:0|0:0,0:0:0
256,192,157510,12,0,159795,0:0:0
244,72,182652,6,0,B|224:120|172:136,1,99.9999999999999,4|8,0:0|0:0,0:0:0
72,156,183795,2,0,B|48:200|56:252,1,99.9999999999999,0|8,0:0|0:0,0:0:0
152,288,184938,6,0,B|196:264|248:272,1,99.9999999999999,0|8,0:0|0:0,0:0:0
340,316,186081,2,0,B|384:340|436:332,1,99.9999999999999,0|8,0:0|0:0,0:0:0
476,240,187224,6,0,B|508:192|476:144|444:96|476:48,1,200
384,12,188938,1,8,0:0:0
300,64,189510,6,0,B|332:112|300:160|268:208|300:256,1,200
200,276,191224,1,8,0:0:0
128,344,191795,5,0,0:0:0
48,284,192367,2,0,B|44:228|0:200,1,99.9999999999999,8|0,0:0|0:0,0:0:0
40,108,193510,1,8,0:0:0
128,60,194081,6,0,B|184:60,3,50,0|0|8|0,0:0|0:0|0:0|0:0,0:0:0
244,136,195510,2,0,B|244:196,1,50,0|8,0:0|0:0,0:0:0
224,284,196367,6,0,B|204:320|164:332,2,74.9999999999999
188,252,197510,2,0,B|148:263|111:243,2,74.9999999999999
204,204,198652,5,4,0:0:0
256,120,199224,1,8,0:0:0
352,96,199795,2,0,B|404:96,2,50,0|0|8,0:0|0:0|0:0,0:0:0
364,196,200938,5,4,0:0:0
464,192,201510,1,8,0:0:0
424,284,202081,2,0,B|392:324|336:324,1,99.9999999999999,0|8,0:0|0:0,0:0:0
264,256,203224,5,0,0:0:0
228,348,203795,1,8,0:0:0
144,296,204367,2,0,B|88:296|56:336,2,99.9999999999999,0|8|0,0:0|0:0|0:0,0:0:0
132,196,206081,5,8,0:0:0
44,148,206652,2,0,B|24:96|60:52,1,99.9999999999999,0|8,0:0|0:0,0:0:0
156,72,207795,6,0,B|208:72|248:32,1,99.9999999999999,0|8,0:0|0:0,0:0:0
344,60,208938,2,0,B|396:72,2,50,0|0|8,0:0|0:0|0:0,0:0:0
292,144,210081,6,0,B|336:172|388:168,1,99.9999999999999,4|8,0:0|0:0,0:0:0
344,256,211224,2,0,B|393:271|444:256,1,99.9999999999999,0|8,0:0|0:0,0:0:0
420,352,212367,6,0,B|476:352,3,50,0|0|8|0,0:0|0:0|0:0|0:0,0:0:0
372,352,213795,2,0,B|312:352,1,50,0|8,0:0|0:0,0:0:0
220,352,214652,6,0,B|184:360|144:352,2,74.9999999999999
220,300,215795,2,0,B|212:264|220:224,2,74.9999999999999
260,328,216938,1,4,0:0:0
360,328,217510,2,0,B|436:328,1,74.9999999999999,8|4,0:0|0:0,0:0:0
256,192,219224,12,0,221510,0:0:0
