osu file format v5

[General]
AudioFilename: 02 Comsten.mp3
AudioLeadIn: 0
PreviewTime: -1
Countdown: 1
SampleSet: Normal
StackLeniency: 0.7
Mode: 0
LetterboxInBreaks: 1

[Metadata]
Title:Comsten
Artist:Goto80
Creator:Dranoel
Version:Normal
Source:
Tags:

[Difficulty]
HPDrainRate:3
CircleSize:3
OverallDifficulty:3
SliderMultiplier:0.999999999999999
SliderTickRate:0.5

[Events]
//Background and Video events
0,0,"121655383727.jpg"
//Break Periods
2,23224,26433
//Storyboard Layer 0 (Background)
//Storyboard Layer 1 (Failing)
//Storyboard Layer 2 (Passing)
//Storyboard Layer 3 (Foreground)
//Storyboard Sound Samples
//Background Colour Transformations
3,100,163,162,255

[TimingPoints]
2419,303.024500000001,4,1,0,100

[HitObjects]
64,224,2419,1,0
101,131,2722,1,0
165,54,3025,5,0
260,25,3328,1,0
353,59,3631,5,0
414,137,3934,1,0
468,220,4237,5,0
468,319,4540,1,0
368,313,4843,6,0,B|292:253|407:208|93:205|190:257|80:249,1,300
39,176,6055,5,0
82,85,6358,2,0,B|109:39|141:48|169:36|172:25,1,99.9999999999999
254,60,6964,1,0
351,40,7267,6,0,B|447:40|447:72,2,99.9999999999999
348,139,8176,5,0
437,184,8479,1,0
351,235,8782,1,0
435,288,9085,1,0
353,345,9388,1,0
254,346,9691,6,0,B|254:286|222:254|166:227|212:328|162:361|94:314,2,200
304,348,11055,6,0,B|286:364|286:332|318:364|318:332|350:364,5,50
382,264,12115,5,0
404,166,12418,5,0
377,69,12721,5,0
289,21,13024,5,0
201,68,13327,5,0
172,163,13630,5,0
203,257,13933,6,0,B|224:254|160:254|128:318,2,99.9999999999999
164,164,14843,1,0
124,255,15146,1,0
195,325,15449,1,0
294,327,15752,1,0
365,257,16055,1,0
461,288,16358,6,0,B|462:307,8,12.5
467,186,16964,5,0
453,77,17267,1,0
356,35,17570,1,0
310,123,17873,1,0
216,86,18176,1,0
167,173,18479,1,0
74,134,18782,1,0
30,223,19085,1,0
129,228,19388,6,0,B|257:196|321:260|275:296,1,200
385,287,20297,2,0,B|370:223|455:218,1,99.9999999999999
338,225,20903,1,0
263,158,21206,2,0,B|250:158,16,12.5
256,192,22115,12,0,23024
64,64,27873,6,0,B|225:332,1,300
318,319,29085,6,0,B|473:62,1,250
373,59,30297,5,0
273,60,30600,1,0
173,60,30903,1,0
73,60,31206,1,0
71,159,31509,5,0
170,161,31812,1,0
271,159,32115,1,0
372,156,32418,1,0
256,192,32721,12,0,34539
175,37,35145,5,0
373,83,35751,1,0
431,278,36357,1,0
155,119,37266,2,0,L|204:97,2,50
207,209,37872,6,0,L|141:246,2,50
306,210,38478,6,0,L|359:246,2,50
366,130,39084,6,0,L|317:104,2,50
272,249,39994,6,0,B|257:248,61,12.5
127,191,43630,5,0
180,106,43933,1,0
265,57,44236,5,0
351,106,44539,1,0
410,186,44842,5,0
356,270,45145,1,0
269,320,45448,5,0
175,284,45751,1,0
221,195,46054,6,0,B|358:195,4,99.9999999999999
506,102,48175,1,0
499,201,48478,6,0,B|354:97,1,150
330,108,49084,6,0,B|167:187,1,150
190,123,49690,6,0,B|354:191,1,150
372,204,50296,6,0,B|207:254,1,150
178,251,50902,6,0,B|191:350|220:229|296:245|294:366,1,200
443,346,51963,2,0,B|505:261|382:249|321:162|473:134,1,250
402,49,53024,5,0
302,43,53327,1,0
256,131,53630,5,0
355,133,53933,1,0
404,219,54236,5,0
304,219,54539,1,0
249,302,54842,5,0
354,307,55145,1,0
287,382,55448,5,0
187,382,55751,1,0
130,299,56054,5,0
229,301,56357,1,0
176,216,56660,5,0
275,219,56963,1,0
212,29,57569,6,0,B|104:114|207:138|88:235,1,200
140,102,58478,6,0,B|64:168,3,50
60,162,59084,6,0,B|114:210,3,50
143,213,59690,6,0,B|93:271,3,50
94,298,60296,6,0,B|141:343,3,50
242,232,61205,5,0
242,132,61508,1,0
242,32,61811,1,0
172,286,63023,5,0
171,184,63326,1,0
171,82,63629,1,0
323,78,63932,5,0
221,76,64235,2,0,B|204:52|168:39,1,50
217,140,64690,2,0,B|185:140|181:143,3,25
225,316,65448,5,0
326,316,65751,1,0
325,214,66054,1,0
324,112,66357,1,0
222,110,66660,6,0,B|222:177,1,50
129,281,67266,1,0
68,199,67569,2,0,B|119:116|142:148,1,99.9999999999999
232,185,68175,1,0
211,85,68478,1,0
272,4,68781,1,0
373,5,69084,1,0
431,88,69387,1,0
409,187,69690,1,0
318,234,69993,1,0
383,311,70296,6,0,B|158:131|127:95|161:64|256:2|323:64|352:98|318:129|-2:353,1,799.999999999999
33,228,73023,1,0
33,126,73326,5,0
134,121,73629,1,0
134,19,73932,5,0
235,23,74235,1,0
336,23,74538,1,0
487,158,75144,6,0,B|448:259|389:103|356:64|296:292|262:282|104:159,1,400
43,304,76811,1,0
144,304,77114,2,0,B|205:395|192:266|227:242|252:301|243:373|265:326|251:336,1,150
349,340,77872,1,0
424,272,78175,1,0
358,194,78478,1,0
364,92,78781,1,0
262,87,79084,1,0
216,10,79387,1,0
132,68,79690,1,0
256,192,79993,12,0,82417
256,129,83629,2,0,B|256:86,10,37.5
256,281,84841,6,0,B|255:320,10,37.5
483,166,86356,5,0
279,161,86962,5,0
75,161,87568,5,0
256,192,88477,6,0,B|234:192,56,12.5
256,192,90902,12,0,92720
181,51,93326,2,0,B|64:54,2,99.9999999999999
282,48,94235,1,0
286,149,94538,6,0,B|403:144,2,99.9999999999999
184,160,95447,1,0
186,261,95750,6,0,B|70:286,2,99.9999999999999
287,250,96659,1,0
296,351,96962,6,0,B|403:304|459:191|389:75|324:56|274:49|199:48|167:55|114:83|65:167|76:161,1,599.999999999999
238,146,99235,6,0,B|299:90|167:72|112:121|112:160|171:247|235:267|281:271|374:238|404:212|421:179|433:140|417:109|323:60|294:50|267:42|186:32|147:38|91:52|42:124|41:141|44:174|49:226|75:282|111:308|108:306,1,899.999999999999
256,192,102417,12,0,107871
