osu file format v14

[General]
AudioFilename: Gothic Storm - Stand And Fight (320 kbps).mp3
AudioLeadIn: 0
PreviewTime: 24888
Countdown: 1
SampleSet: Normal
StackLeniency: 0.7
Mode: 0
LetterboxInBreaks: 1
WidescreenStoryboard: 0

[Editor]
DistanceSpacing: 0.6
BeatDivisor: 4
GridSize: 4
TimelineZoom: 2

[Metadata]
Title:Stand And Fight
TitleUnicode:Stand And Fight
Artist:Gothic Storm
ArtistUnicode:Gothic Storm
Creator:przepson
Version:Boss Stage
Source:Massive Rocktronica
Tags:
BeatmapID:1090625
BeatmapSetID:513256

[Difficulty]
HPDrainRate:6.8
CircleSize:4
OverallDifficulty:8
ApproachRate:9
SliderMultiplier:1.7
SliderTickRate:2

[Events]
//Background and Video events
0,0,"...p.jpg",0,0
//Break Periods
//Storyboard Layer 0 (Background)
//Storyboard Layer 1 (Fail)
//Storyboard Layer 2 (Pass)
//Storyboard Layer 3 (Foreground)
//Storyboard Sound Samples

[TimingPoints]
6888.07068959428,375,4,2,0,22,1,0
23388,-133.333333333333,4,2,0,22,0,0
24888,-83.3333333333333,4,1,0,24,0,0
36888,-76.9230769230769,4,1,0,25,0,0
41388,-71.4285714285714,4,1,0,25,0,0
42888,-62.5,4,1,0,28,0,1
59388,-58.8235294117647,4,1,0,30,0,0
60888,-52.6315789473684,4,1,0,35,0,1
78888,-50,4,1,0,50,0,0
89224,-50,4,1,0,10,0,0

[HitObjects]
120,88,6888,5,6,3:0:0:0:
120,88,7075,1,0,0:0:0:0:
236,64,7263,2,0,P|288:56|340:88,1,85
317,155,7638,2,0,P|277:142|236:152,1,85
230,240,8013,2,0,P|271:231|312:244,1,85
56,288,8388,5,2,0:0:0:0:
56,288,8575,1,2,0:0:0:0:
116,184,8763,1,0,0:0:0:0:
116,184,8950,1,0,0:0:0:0:
52,84,9138,1,2,0:0:0:0:
52,84,9325,1,2,0:0:0:0:
28,200,9513,1,0,0:0:0:0:
112,284,9700,1,0,0:0:0:0:
344,344,9888,5,0,0:0:0:0:
344,344,10075,1,0,0:0:0:0:
420,252,10263,2,0,L|468:180,1,85
395,97,10638,2,0,L|348:168,1,85
224,146,11013,2,0,L|272:76,1,85
120,52,11388,5,2,0:0:0:0:
36,52,11575,1,2,0:0:0:0:
120,200,11763,1,0,0:0:0:0:
204,200,11950,1,0,0:0:0:0:
288,52,12138,1,2,0:0:0:0:
372,52,12325,1,2,0:0:0:0:
456,200,12513,1,0,0:0:0:0:
372,200,12700,1,0,0:0:0:0:
192,344,12888,5,0,1:0:0:0:
44,68,13075,1,0,1:0:0:0:
52,244,13263,2,0,L|32:336,1,85
144,264,13638,2,0,L|148:358,1,85
240,260,14013,2,0,L|268:349,1,85
324,228,14388,6,2,L|374:307,3,85
432,196,15138,1,0,0:0:0:0:
360,100,15325,1,0,0:0:0:0:
248,60,15513,1,0,0:0:0:0:
132,92,15700,1,0,0:0:0:0:
60,184,15888,5,0,0:0:0:0:
116,236,16075,1,0,0:0:0:0:
88,304,16263,1,0,0:0:0:0:
156,328,16450,1,0,0:0:0:0:
232,280,16638,1,0,0:0:0:0:
300,336,16825,1,0,0:0:0:0:
360,268,17013,1,0,0:0:0:0:
300,336,17200,1,0,0:0:0:0:
220,156,17388,6,2,P|188:136|168:68,1,85
292,155,17763,2,2,P|326:132|344:94,1,85
167,289,18138,2,0,P|185:251|220:228,1,85
344,289,18513,2,0,P|326:251|292:228,1,85
476,48,18888,5,4,1:0:0:0:
476,48,19075,1,0,0:0:0:0:
448,164,19263,2,0,B|444:204|444:204|400:244,1,85
324,152,19638,2,0,B|312:108|312:108|356:68,1,85
228,40,20013,2,0,B|188:36|188:36|168:80|172:88,1,85
120,68,20388,5,2,0:0:0:0:
60,228,20575,1,2,0:0:0:0:
220,88,20763,1,2,0:0:0:0:
192,256,20950,1,2,0:0:0:0:
324,88,21138,1,2,0:0:0:0:
348,264,21325,1,2,0:0:0:0:
420,56,21513,1,2,0:0:0:0:
476,224,21700,1,2,0:0:0:0:
316,336,21888,6,0,L|296:344,15,21.25,0|0|0|0|0|0|0|0|0|0|0|0|0|0|0|0,3:0|3:0|3:0|3:0|3:0|3:0|3:0|3:0|3:0|3:0|3:0|3:0|3:0|3:0|3:0|3:0,3:0:0:0:
256,348,22638,1,0,3:0:0:0:
200,324,22731,1,0,3:0:0:0:
164,276,22825,1,0,3:0:0:0:
128,160,23013,1,0,3:0:0:0:
108,44,23200,1,0,3:0:0:0:
280,132,23388,6,0,B|320:120|352:92|352:92|332:72|312:76|312:76|304:52,2,127.500004863739,0|0|0,3:0|3:0|3:0,3:0:0:0:
220,300,24513,1,8,3:0:0:0:
44,84,24888,6,0,P|84:64|176:64,1,101.999996887207
24,245,25263,2,0,P|41:204|112:145,1,101.999996887207
344,48,25638,1,4,0:0:0:0:
272,172,25825,1,0,0:0:0:0:
408,212,26013,2,0,P|376:260|328:292,1,101.999996887207
56,312,26388,1,4,0:0:0:0:
144,200,26575,1,0,0:0:0:0:
44,96,26763,2,0,P|88:60|140:48,1,101.999996887207
468,200,27138,5,4,0:0:0:0:
468,200,27325,1,4,0:0:0:0:
184,288,27513,1,0,3:0:0:0:
336,88,27700,1,4,0:0:0:0:
376,320,27888,5,0,0:0:0:0:
420,184,28075,1,0,0:0:0:0:
268,320,28263,1,0,0:0:0:0:
236,180,28450,1,0,0:0:0:0:
424,56,28638,5,4,0:0:0:0:
424,56,28825,1,0,0:0:0:0:
232,56,29013,1,0,0:0:0:0:
232,56,29200,1,0,0:0:0:0:
36,156,29388,5,4,0:0:0:0:
136,312,29575,1,0,0:0:0:0:
260,88,29763,2,0,B|308:60|308:60|364:96,1,101.999996887207
380,136,30513,1,8,3:0:0:0:
380,136,30700,1,8,3:0:0:0:
88,344,30888,5,4,3:1:0:0:
88,344,31075,1,0,0:0:0:0:
228,324,31263,2,0,L|336:304,1,101.999996887207
212,224,31638,1,4,0:0:0:0:
312,204,31825,1,0,0:0:0:0:
228,325,32013,1,0,0:0:0:0:
328,305,32200,1,0,0:0:0:0:
48,84,32388,5,0,0:0:0:0:
228,40,32575,1,0,0:0:0:0:
48,84,32763,1,0,0:0:0:0:
228,40,32950,1,0,0:0:0:0:
408,136,33138,5,4,0:0:0:0:
208,336,33325,1,4,0:0:0:0:
300,128,33513,1,0,0:0:0:0:
444,316,33700,1,4,0:0:0:0:
64,152,33888,6,0,L|140:76,1,101.999996887207
448,152,34263,2,0,L|372:76,1,101.999996887207
128,300,34638,2,0,L|204:224,1,101.999996887207,4|0,0:0|0:0,0:0:0:0:
384,300,35013,2,0,L|311:227,1,101.999996887207
184,88,35388,5,0,0:0:0:0:
40,40,35575,1,0,0:0:0:0:
328,296,35763,1,0,0:0:0:0:
472,344,35950,1,0,0:0:0:0:
324,64,36138,5,8,3:0:0:0:
244,76,36231,1,8,3:0:0:0:
184,128,36325,1,8,3:0:0:0:
136,196,36419,1,8,3:0:0:0:
124,276,36513,1,8,3:0:0:0:
124,276,36700,1,8,3:0:0:0:
424,200,36888,6,0,B|396:160|396:160|456:160|444:104|388:60|324:52|292:64,1,220.999989883423,4|0,0:0|0:0,0:0:0:0:
339,61,37450,1,0,2:0:0:0:
240,332,37638,1,4,0:0:0:0:
52,80,37825,2,0,P|68:48|144:76,2,110.499994941712
412,112,38388,5,4,0:0:0:0:
412,112,38575,1,4,0:0:0:0:
168,340,38763,1,0,0:0:0:0:
168,340,38950,1,0,0:0:0:0:
464,248,39138,1,4,0:0:0:0:
464,248,39325,1,4,0:0:0:0:
160,184,39513,1,0,0:0:0:0:
160,184,39700,1,4,0:0:0:0:
284,40,39888,6,0,P|332:56|360:120,1,110.499994941712
204,120,40263,2,0,B|152:72|152:72|104:136,1,110.499994941712
56,240,40638,2,0,P|56:292|144:328,3,110.499994941712,4|0|0|0,0:0|0:0|0:0|0:0,0:0:0:0:
256,172,41388,5,0,3:0:0:0:
408,104,41575,1,0,3:0:0:0:
308,296,41763,1,0,3:0:0:0:
324,60,41950,1,0,3:0:0:0:
420,272,42138,1,0,3:0:0:0:
152,108,42325,1,8,3:0:0:0:
84,324,42513,1,0,0:0:0:0:
156,320,42606,1,0,0:0:0:0:
220,288,42700,1,0,0:0:0:0:
276,244,42794,1,0,0:0:0:0:
316,172,42888,5,0,0:0:0:0:
220,40,43075,2,0,P|164:40|92:104,1,136
52,240,43450,1,0,0:0:0:0:
240,164,43638,5,4,0:0:0:0:
448,328,43825,1,4,0:0:0:0:
404,244,44013,1,0,0:0:0:0:
40,60,44200,1,0,0:0:0:0:
368,44,44388,1,4,0:0:0:0:
280,336,44575,1,4,0:0:0:0:
180,148,44763,1,0,0:0:0:0:
356,244,44950,1,0,0:0:0:0:
164,40,45138,5,4,3:1:0:0:
164,40,45325,1,4,3:1:0:0:
105,331,45513,2,0,L|140:200,1,136,0|4,0:0|0:0,0:0:0:0:
300,240,45888,6,0,P|360:244|396:156,1,136
248,124,46263,2,0,B|216:96|176:112|176:112|120:160,1,136
48,292,46638,1,4,0:0:0:0:
204,340,46825,1,0,0:0:0:0:
144,188,47013,2,0,L|288:240,1,136
360,72,47388,5,4,0:0:0:0:
332,288,47575,1,0,0:0:0:0:
244,76,47763,1,0,0:0:0:0:
212,316,47950,1,0,0:0:0:0:
472,120,48138,5,4,0:0:0:0:
124,288,48325,1,4,0:0:0:0:
40,116,48513,2,0,P|88:80|176:64,1,136,0|4,0:0|0:0,0:0:0:0:
476,224,48888,5,0,0:0:0:0:
476,224,49075,1,0,0:0:0:0:
292,60,49263,1,0,0:0:0:0:
212,56,49356,1,0,0:0:0:0:
136,84,49450,1,0,0:0:0:0:
220,323,49638,1,0,0:0:0:0:
300,327,49731,1,0,0:0:0:0:
375,299,49825,1,0,0:0:0:0:
420,144,50013,1,0,0:0:0:0:
420,144,50106,1,0,0:0:0:0:
420,144,50200,1,0,0:0:0:0:
104,268,50388,5,4,0:0:0:0:
36,184,50575,1,0,0:0:0:0:
328,40,50763,1,0,0:0:0:0:
296,128,50950,1,0,0:0:0:0:
412,344,51138,1,4,0:0:0:0:
104,204,51325,1,4,0:0:0:0:
104,284,51513,1,0,2:0:0:0:
400,36,51700,1,4,0:0:0:0:
332,300,51888,6,14,P|264:316|172:256,1,136,14|14,3:0|3:0,3:0:0:0:
64,212,52263,1,0,0:0:0:0:
48,48,52450,1,0,0:0:0:0:
64,212,52638,1,4,0:0:0:0:
48,48,52825,1,0,0:0:0:0:
64,212,53013,1,0,3:0:0:0:
64,212,53106,1,0,3:0:0:0:
64,212,53200,1,0,3:0:0:0:
216,68,53388,5,4,0:0:0:0:
292,276,53575,1,4,0:0:0:0:
92,84,53763,1,0,0:0:0:0:
444,264,53950,1,4,0:0:0:0:
168,40,54138,5,4,3:0:0:0:
132,112,54231,1,4,3:0:0:0:
140,192,54325,1,4,3:0:0:0:
208,240,54419,1,4,3:0:0:0:
288,232,54513,1,4,3:0:0:0:
412,128,54700,1,12,3:0:0:0:
96,340,54888,5,4,3:1:0:0:
40,232,55075,1,0,0:0:0:0:
168,92,55263,2,0,P|244:104|236:80,1,136
386,165,55638,2,0,P|338:225|362:230,1,136,4|0,0:3|0:0,0:0:0:0:
213,318,56013,2,0,P|185:246|169:265,1,136
96,48,56388,5,4,0:0:0:0:
96,48,56575,1,0,0:0:0:0:
160,312,56763,1,0,0:0:0:0:
160,312,56950,1,0,0:0:0:0:
472,216,57138,5,4,0:0:0:0:
156,32,57325,1,4,0:0:0:0:
140,224,57513,1,0,0:0:0:0:
456,36,57700,1,4,0:0:0:0:
292,336,57888,5,0,0:0:0:0:
212,344,58075,1,0,0:0:0:0:
244,176,58263,1,0,0:0:0:0:
178,222,58450,1,0,0:0:0:0:
304,112,58638,1,4,0:0:0:0:
384,36,58825,1,0,0:0:0:0:
356,252,59013,1,0,0:0:0:0:
466,254,59200,1,0,0:0:0:0:
164,72,59388,6,4,B|152:48|152:48|160:28|148:20|128:24|112:36|104:52|96:64|104:72|112:84|124:92,1,144.500002756119,4|4,3:0|3:0,3:0:0:0:
208,304,59763,1,0,0:0:0:0:
408,40,59950,1,0,0:0:0:0:
420,328,60138,1,4,0:0:0:0:
200,40,60325,1,4,0:0:0:0:
72,340,60513,1,4,0:0:0:0:
448,188,60700,1,4,0:0:0:0:
48,48,60888,6,0,P|36:64|116:176,1,161.499995687485,4|0,3:1|0:0,0:0:0:0:
292,52,61263,2,0,B|336:88|336:88|288:184,1,161.499995687485
204,120,61638,2,4,B|160:156|160:156|208:252,1,161.499995687485
292,188,62013,2,0,B|336:224|336:224|289:317,1,161.499995687485,0|4,0:0|0:0,0:0:0:0:
100,40,62388,5,0,0:0:0:0:
296,348,62575,1,0,0:0:0:0:
256,40,62763,1,0,0:0:0:0:
92,340,62950,1,0,0:0:0:0:
400,40,63138,1,4,0:0:0:0:
36,232,63325,1,4,0:0:0:0:
472,152,63513,1,0,0:0:0:0:
40,40,63700,1,4,0:0:0:0:
356,228,63888,6,0,B|356:360|356:360|416:296,1,161.499995687485
472,168,64263,1,0,0:0:0:0:
320,52,64450,1,0,0:0:0:0:
128,76,64638,1,4,0:0:0:0:
128,76,64825,1,0,0:0:0:0:
64,260,65013,1,0,0:0:0:0:
236,344,65200,1,0,0:0:0:0:
408,252,65388,6,0,P|448:204|392:128,1,161.499995687485
104,132,65763,2,0,P|64:180|120:256,1,161.499995687485
256,44,66138,5,0,3:0:0:0:
356,80,66263,1,0,3:0:0:0:
332,184,66388,1,0,3:0:0:0:
224,196,66513,1,0,3:0:0:0:
216,304,66638,1,0,3:0:0:0:
316,340,66763,1,0,3:0:0:0:
408,284,66888,5,0,0:0:0:0:
408,284,66981,1,0,0:0:0:0:
408,284,67075,1,0,0:0:0:0:
296,88,67263,1,0,0:0:0:0:
52,88,67450,1,0,0:0:0:0:
216,296,67638,1,4,0:0:0:0:
460,296,67825,1,0,0:0:0:0:
104,288,68013,1,0,0:0:0:0:
104,44,68200,1,0,0:0:0:0:
388,44,68388,6,0,P|416:56|440:176,1,161.499995687485
260,344,68763,1,0,0:0:0:0:
260,344,68950,1,0,0:0:0:0:
40,64,69138,1,4,0:0:0:0:
396,216,69325,1,4,0:0:0:0:
468,68,69513,1,0,0:0:0:0:
40,276,69700,1,4,0:0:0:0:
304,36,69888,6,0,P|316:48|336:192,1,161.499995687485
240,312,70263,2,0,P|208:328|224:252,1,161.499995687485
424,52,70638,1,4,0:0:0:0:
300,348,70825,1,0,0:0:0:0:
200,40,71013,1,0,0:0:0:0:
72,336,71200,1,0,0:0:0:0:
452,260,71388,5,0,0:0:0:0:
452,260,71575,1,0,0:0:0:0:
88,44,71763,1,0,0:0:0:0:
88,44,71950,1,0,0:0:0:0:
32,256,72138,5,4,0:3:0:0:
100,300,72231,1,4,0:3:0:0:
176,328,72325,1,4,0:3:0:0:
372,40,72513,5,4,0:3:0:0:
424,120,72606,1,4,0:3:0:0:
420,216,72700,1,4,0:3:0:0:
348,280,72794,1,4,0:3:0:0:
252,288,72888,1,4,0:3:0:0:
252,288,73075,5,0,0:0:0:0:
268,48,73263,1,0,0:0:0:0:
268,48,73450,1,0,0:0:0:0:
40,256,73638,2,0,P|80:296|208:328,1,161.499995687485,4|0,0:0|0:0,0:0:0:0:
472,256,74013,2,0,P|432:296|304:328,1,161.499995687485
40,152,74388,5,0,0:0:0:0:
216,40,74575,1,0,0:0:0:0:
300,344,74763,1,0,0:0:0:0:
476,232,74950,1,0,0:0:0:0:
256,32,75138,5,4,0:0:0:0:
256,352,75325,1,4,0:0:0:0:
476,192,75513,1,0,0:0:0:0:
40,192,75700,1,4,0:0:0:0:
320,36,75888,6,0,B|340:72|340:72|292:112|252:100|236:56,1,161.499995687485
191,346,76263,2,0,B|172:312|172:312|220:272|260:284|272:319,1,161.499995687485
32,44,76638,1,4,0:0:0:0:
184,72,76825,1,0,0:0:0:0:
88,256,77013,1,4,0:0:0:0:
356,56,77200,1,0,0:0:0:0:
288,348,77388,1,4,0:0:0:0:
472,44,77575,1,4,0:0:0:0:
36,88,77763,1,4,0:0:0:0:
468,304,77950,1,4,0:0:0:0:
132,64,78138,5,4,3:1:0:0:
83,150,78231,1,4,3:1:0:0:
94,249,78325,1,4,3:1:0:0:
160,323,78419,1,4,3:1:0:0:
257,344,78513,1,4,3:1:0:0:
349,305,78606,1,4,3:1:0:0:
400,220,78700,1,4,3:1:0:0:
393,121,78794,1,4,3:1:0:0:
329,45,78888,5,4,1:1:0:0:
40,280,79075,1,0,0:0:0:0:
416,40,79263,1,0,0:0:0:0:
32,348,79450,1,0,0:0:0:0:
476,40,79825,1,0,0:0:0:0:
257,344,80200,1,0,0:0:0:0:
360,332,80388,5,0,2:0:0:0:
360,332,80575,1,0,2:0:0:0:
428,256,80763,1,0,2:0:0:0:
428,256,80950,1,0,2:0:0:0:
348,192,81138,1,0,2:0:0:0:
348,192,81325,1,0,2:0:0:0:
416,116,81513,1,0,2:0:0:0:
416,116,81700,1,0,2:0:0:0:
36,36,81888,5,0,0:0:0:0:
368,272,82075,1,0,0:0:0:0:
476,36,82263,1,0,0:0:0:0:
112,268,82450,1,0,0:0:0:0:
472,344,82825,1,0,0:0:0:0:
112,36,83200,1,0,0:0:0:0:
44,112,83388,5,0,2:0:0:0:
128,168,83575,1,0,2:0:0:0:
44,112,83763,1,0,2:0:0:0:
128,168,83950,1,0,2:0:0:0:
52,236,84138,1,0,2:0:0:0:
140,284,84325,1,0,2:0:0:0:
128,168,84513,1,0,2:0:0:0:
52,236,84700,1,0,2:0:0:0:
428,344,84888,5,0,0:0:0:0:
96,40,85075,1,0,0:0:0:0:
60,344,85263,1,0,0:0:0:0:
424,40,85450,1,0,0:0:0:0:
424,40,85825,1,0,0:0:0:0:
32,244,86200,1,0,0:0:0:0:
72,148,86388,5,0,2:0:0:0:
152,88,86575,1,0,2:0:0:0:
248,56,86763,1,0,2:0:0:0:
348,60,86950,1,0,2:0:0:0:
164,324,87138,1,0,2:0:0:0:
264,328,87325,1,0,2:0:0:0:
360,296,87513,1,0,2:0:0:0:
440,236,87700,1,0,2:0:0:0:
64,36,87888,5,4,0:0:0:0:
64,356,88075,1,4,0:0:0:0:
452,36,88263,1,4,0:0:0:0:
452,356,88450,1,4,0:0:0:0:
256,192,88825,1,4,0:0:0:0:
256,192,89200,1,4,0:0:0:0:
256,192,89224,12,0,95388,2:0:0:0:
