osu file format v5

[General]
AudioFilename: GotHigh.mp3
AudioLeadIn: 0
PreviewTime: -1
Countdown: 1
SampleSet: Normal
StackLeniency: 0.7
Mode: 0
LetterboxInBreaks: 1
EditorDistanceSpacing: 0.800000011920929

[Metadata]
Title:Got high
Artist:
Creator:Nightstalker96
Version:
Source:
Tags:

[Difficulty]
HPDrainRate:5
CircleSize:5
OverallDifficulty:8
SliderMultiplier:2.6
SliderTickRate:4

[Events]
//Background and Video events
//Break Periods
//Storyboard Layer 0 (Background)
//Storyboard Layer 1 (Failing)
//Storyboard Layer 2 (Passing)
//Storyboard Layer 3 (Foreground)
//Storyboard Sound Samples
//Background Colour Transformations
3,100,163,162,255

[TimingPoints]
2,1000,4,1,0,100,1,0

[HitObjects]
256,192,4877,1,0
256,192,6877,1,0
256,192,8127,1,0
256,192,8502,1,0
348,199,9252,1,0
308,156,10002,1,0
280,168,10627,1,0
140,269,11252,1,0
361,308,12752,1,0
278,242,13127,1,0
348,194,14127,1,0
139,158,15627,5,0
151,231,16002,1,0
262,279,17127,5,0
129,225,17377,1,0
329,149,18377,1,0
359,241,19252,1,0
179,228,20002,1,0
176,157,20252,1,0
219,172,20502,1,0
248,139,22127,5,0
248,139,22377,1,0
248,139,22627,1,0
248,139,22752,1,0
248,139,24002,5,0
248,139,24127,1,0
298,273,24877,1,0
367,254,25377,1,0
332,202,25627,1,0
199,194,26127,1,0
128,137,28627,2,0,B|448:214|47:342|83:336,5,357.5
112,126,37252,2,0,B|400:240,1,292.5
362,122,40127,2,0,B|7:294,1,390
72,94,42752,2,0,B|465:323,1,422.5
369,99,45877,2,0,B|300:163|301:163,7,65
252,186,48752,2,0,B|218:223,23,32.5
289,198,53002,2,0,B|47:343,1,260
210,95,56127,1,0
328,217,56877,1,0
127,256,57627,1,0
365,164,58627,5,0
308,290,58877,1,0
180,197,59627,1,0
286,119,60127,1,0
286,119,60377,1,0
352,190,61877,1,4
132,224,62627,1,4
189,134,63002,1,4
265,242,63377,1,4
306,127,63752,1,4
312,147,65502,1,6
170,202,65752,1,6
247,262,66127,1,6
336,249,66877,1,6
141,124,67627,1,6
119,253,68377,1,6
119,253,68627,1,6
119,253,68752,1,6
119,253,68877,1,6
265,195,71127,1,2
265,195,71627,1,2
145,197,71877,1,2
97,204,72252,1,2
131,280,72752,1,2
256,192,75627,12,2,85627
244,185,87127,5,14
333,284,87752,1,14
162,259,88502,1,14
272,109,88752,1,14
296,249,89252,1,14
237,179,90127,5,14
418,187,90752,1,14
169,279,91502,1,14
90,169,91752,1,14
90,169,92002,1,14
343,218,93377,5,14
343,218,93502,1,14
130,132,94377,1,14
293,126,94877,1,14
293,126,95127,1,14
293,126,95502,1,14
167,213,96502,1,14
311,216,97002,1,14
214,166,97377,1,14
236,237,97627,1,14
270,281,98002,1,14
131,217,99502,1,14
251,185,100252,1,14
389,192,100877,1,14
354,115,101627,1,14
298,188,102377,1,14
160,129,103127,1,14
255,106,103752,1,14
263,202,104002,1,14
137,176,104502,1,14
190,64,105002,1,14
240,197,105252,1,14
240,197,105877,1,14
240,197,106127,1,14
240,197,106377,1,14
240,197,106502,1,14
217,44,108127,5,14
166,127,108877,1,14
389,144,109252,1,14
356,184,109627,1,14
293,137,109877,1,14
402,114,111002,1,14
231,161,112502,1,10
463,267,113252,1,10
191,299,114002,1,10
127,196,114627,1,10
127,196,114877,1,10
127,196,115252,1,10
257,192,118252,1,0
257,192,118877,1,0
346,139,120377,1,4
88,162,121127,1,4
132,253,121877,1,4
326,279,122502,1,4
153,109,123377,1,4
378,142,124002,1,4
173,209,125502,1,12
202,128,126127,1,12
202,128,126377,1,12
202,128,126627,1,12
202,128,126877,1,12
248,160,127002,1,12
248,160,127252,1,12
248,160,127377,1,12
248,160,127502,1,12
248,160,127752,1,12
248,160,127877,1,12
248,160,128127,1,12
248,160,128252,1,12
248,160,128377,1,12
