osu file format v3

[General]
AudioFilename: Feel Good, Inc.mp3
AudioLeadIn: 0
AudioHash: a4a010789ea99eb1017d715ba764e967
PreviewTime: -1
SampleSet: Normal

[Metadata]
Title:Feel Good, Inc.
Artist:Gorillaz
Creator:Tapdancingmetroid
Version:Normal

[Difficulty]
HPDrainRate:5
CircleSize:5
OverallDifficulty:5
SliderMultiplier: 1.4
SliderTickRate: 1

[Events]
2,155670,161204
3,0,0,0,0

[TimingPoints]
23343,433.212996389892

[HitObjects]
96,64,22909,1,0,
192,64,23343,1,0,
96,320,23776,5,0,
288,320,24426,1,0,
224,288,24642,1,0,
160,256,24859,1,0,
96,192,25292,2,4,B|96:192|320:192|352:192|256:192,1,140
416,320,27241,5,0,
224,320,27891,1,0,
288,288,28107,1,0,
352,256,28324,1,0,
416,192,28757,2,4,B|416:192|192:192|160:192|256:192,1,140
96,64,30707,5,0,
288,64,31357,1,0,
224,96,31573,1,0,
160,128,31790,1,0,
96,192,32223,2,4,B|96:192|320:192|352:192|256:192,1,140
416,64,34173,5,0,
224,64,34823,1,0,
288,96,35039,1,0,
352,128,35256,1,0,
416,192,35689,2,4,B|416:192|192:192|160:192|256:192,1,140
128,96,37639,6,0,B|128:96|448:160|480:288|352:320,1,420
288,320,39371,1,0,
160,320,39805,1,0,
384,96,41104,6,0,B|384:96|64:160|32:288|160:320,1,420
224,320,42836,1,0,
352,320,43270,1,0,
320,96,44570,5,0,
192,96,45436,1,0,
192,288,46303,1,0,
320,288,47169,1,0,
256,192,48036,12,0,51068
128,128,51501,1,0,
192,128,51935,1,0,
256,128,52368,1,0,
192,224,52801,5,0,
256,224,53234,2,0,B|256:224|416:224,2,140
416,320,54967,5,0,
288,320,55400,5,0,
256,320,55617,1,0,
224,320,55833,1,0,
128,320,56267,5,0,
160,288,56483,1,0,
192,256,56700,1,0,
224,224,56917,1,0,
288,160,57350,6,2,B|288:160|480:384,1,280
352,320,58433,5,0,
288,256,58866,5,0,
256,224,59083,1,0,
224,192,59299,1,0,
256,128,59732,5,0,
288,160,59949,1,0,
320,192,60166,1,0,
256,192,60382,5,0,
256,192,60815,1,0,
160,128,61898,5,0,
160,128,62332,1,0,
352,128,62765,5,0,
352,128,63198,1,0,
160,256,63631,5,0,
160,256,64065,1,0,
352,256,64498,5,0,
352,256,64931,1,0,
256,192,65148,1,4,
160,128,65364,5,0,
160,32,65797,1,0,
288,32,66231,1,0,
288,128,66664,1,0,
256,192,66880,5,0,
256,192,67097,1,0,
256,192,67314,1,0,
256,192,67530,1,0,
256,192,67747,1,0,
128,192,68830,5,0,
128,192,69263,1,0,
384,192,69696,5,0,
384,192,70130,1,0,
256,192,70563,5,0,
256,192,70779,1,0,
256,192,71213,1,0,
96,96,72296,6,0,B|96:96|256:96,2,140
256,192,73595,5,0,
416,288,74028,6,0,B|416:288|256:288,2,140
160,96,75761,5,0,
160,288,76194,1,0,
352,288,76628,1,0,
352,96,77061,1,0,
256,192,77494,1,0,
256,192,77711,1,0,
256,192,78144,1,0,
256,192,78577,1,0,
128,96,79227,5,0,
128,96,79444,1,0,
224,96,79877,1,0,
320,96,80310,1,0,
384,96,80743,1,0,
416,96,80960,2,0,B|416:96|416:320|192:352,1,280
256,192,82693,12,0,95256
96,96,96555,5,0,
192,96,96989,1,0,
224,96,97205,1,0,
320,96,97639,2,0,B|320:96|320:256,1,140
320,288,98505,1,0,
256,288,98938,2,0,B|256:288|96:288,1,140
96,288,100021,5,0,
160,224,100454,1,0,
192,192,100671,1,0,
288,192,101104,1,0,
384,192,101537,1,0,
352,96,102187,1,0,
256,96,102620,2,0,B|256:96|96:96,2,140
256,96,103704,5,0,
320,128,104137,1,0,
416,160,104570,1,0,
352,224,105003,1,0,
256,224,105436,1,0,
160,224,105870,1,0,
64,224,106303,1,0,
64,320,106736,1,0,
160,320,107169,1,0,
256,320,107602,1,0,
352,320,108036,1,0,
448,320,108469,6,0,B|448:320|448:160,10,140
320,320,113884,6,0,B|320:320|160:320,1,140
96,320,114750,2,0,B|96:320|96:192,1,140
128,192,115617,1,0,
192,192,115833,1,0,
256,192,116050,1,0,
320,192,116267,1,0,
384,192,116483,2,0,B|384:192|288:320,1,140
160,288,117350,6,0,B|160:288|0:288,1,140
32,224,118000,1,0,
96,192,118216,1,0,
160,160,118433,1,0,
224,128,118649,1,0,
320,96,119083,5,0,
384,96,119299,1,0,
320,160,119516,1,0,
384,160,119732,1,0,
352,224,119949,1,0,
352,224,120166,1,0,
352,224,120382,1,0,
256,320,120815,6,0,B|256:320|416:320,2,140
160,320,122115,1,0,
64,320,122765,5,0,
64,256,122981,1,0,
64,192,123198,2,4,B|64:192|64:64,2,140
128,96,124281,6,0,C|128:96|288:96|416:224,1,280
352,224,125797,2,0,C|352:224|224:224,1,140
212,224,126447,1,0,
212,224,126664,2,0,C|212:224|352:224,1,140
352,224,127747,6,0,C|352:224|352:64,1,140
288,96,128613,2,0,C|288:96|224:224,1,140
192,320,129480,2,0,C|192:320|320:320,1,140
320,224,130346,1,0,
288,160,130779,1,0,
288,96,131213,6,0,C|288:96|160:96,1,140
160,160,132079,1,0,
224,160,132296,1,0,
256,160,132440,1,0,
160,224,132945,2,0,C|160:224|288:224,1,140
288,288,133812,1,0,
192,288,134245,1,0,
192,192,134678,5,0,
192,96,135111,1,0,
352,96,135545,1,0,
352,96,135761,1,0,
352,192,135978,1,0,
352,192,136194,1,0,
256,224,136628,1,0,
256,224,136844,1,0,
256,224,137061,1,0,
256,224,137278,1,0,
256,224,137494,1,0,
256,224,137711,1,0,
256,224,137927,1,0,
256,224,138144,2,4,B|256:224|416:224|352:32|192:32|256:32,1,280
128,160,139660,5,0,
160,160,139877,1,0,
192,160,140093,1,0,
224,160,140310,1,0,
256,160,140527,2,0,B|256:160|384:160,2,140
192,320,144209,6,0,B|192:320|352:320,2,140
320,64,147675,6,0,B|320:64|192:64,2,140
96,256,151140,6,0,B|96:256|96:128,2,140
416,128,154606,6,0,B|416:128|416:256,2,140
96,64,162404,5,0,
160,64,162837,1,0,
192,64,163054,1,0,
256,64,163487,1,0,
128,128,163920,2,0,B|128:128|256:128,3,140
416,320,165870,5,0,
352,320,166303,1,0,
320,320,166520,1,0,
256,320,166953,1,0,
384,256,167386,2,0,B|384:256|256:256,3,140
416,64,169335,5,0,
352,64,169768,1,0,
320,64,169985,1,0,
256,64,170418,1,0,
384,128,170851,2,0,B|384:128|256:128,3,140
96,320,172801,5,0,
160,320,173234,1,0,
192,320,173451,1,0,
256,320,173884,1,0,
128,256,174317,2,0,B|128:256|256:256,3,140
256,192,176267,5,0,
256,192,176483,1,0,
288,192,176917,1,0,
288,192,177350,1,0,
320,192,177783,1,0,
320,192,178216,1,0,
352,192,178649,2,0,B|352:192|352:320,1,140
288,320,179732,5,0,
288,320,180166,1,0,
224,320,180382,1,0,
224,320,180815,1,0,
160,320,181249,1,0,
160,320,181898,1,0,
160,320,182332,2,0,B|160:320|160:192,1,140
224,192,183198,5,0,
224,192,183415,1,0,
288,192,183848,1,0,
352,160,184281,1,0,
352,96,184714,1,0,
288,96,185148,1,0,
224,96,185581,2,0,B|224:96|96:96,2,140
224,96,186664,5,0,
224,96,186880,1,0,
288,96,187314,1,0,
224,128,187747,1,0,
224,192,188180,2,0,B|224:192|384:192,1,140
352,192,189407,1,0,
352,256,189841,1,0,
352,288,190130,5,0,
288,288,190563,1,0,
288,256,190779,1,0,
256,256,191213,1,0,
192,256,191646,1,0,
128,256,192079,1,0,
64,256,192512,2,0,B|64:256|64:128,1,140
128,128,193595,5,0,
160,128,194028,1,0,
160,128,194245,1,0,
160,128,194678,1,0,
192,128,195111,1,0,
256,128,195761,1,0,
320,128,196194,1,0,
384,128,196628,1,0,
352,128,196844,1,0,
320,128,197061,6,0,B|320:128|320:288,1,140
256,256,197711,2,0,B|256:256|256:128,1,140
192,128,198577,2,0,B|192:128|192:256,1,140
128,256,199444,2,0,B|128:256|128:128,1,140
256,192,200527,5,0,
256,192,200743,1,0,
256,192,201176,1,0,
256,192,201610,1,0,
256,192,202043,12,0,207458
256,192,207891,1,0,
192,128,208324,1,0,
320,128,208758,1,0,
320,256,209191,1,0,
288,256,209407,1,0,
256,256,209624,1,0,
224,256,209841,1,0,
192,256,210057,2,0,B|192:256|320:128,1,140
352,160,210924,6,0,B|352:160|352:288,1,140
320,320,211790,2,0,B|320:320|192:320,1,140
180,320,212440,2,0,B|180:320|64:224,1,140
64,224,213090,1,0,
64,224,213306,2,0,B|64:224|192:224,1,140
224,224,214389,5,0,
288,224,214823,1,0,
288,160,215256,1,0,
224,160,215689,1,0,
256,192,216122,1,0,
256,192,216339,1,0,
256,192,216555,1,0,
288,192,216772,1,0,
256,160,216989,1,0,
224,192,217205,1,0,
256,224,217422,1,0,
416,64,217855,5,0,
96,64,218722,1,0,
96,320,219588,1,0,
416,320,220454,1,6,
128,288,223920,5,0,
128,288,224353,1,0,
384,288,227386,1,0,
384,288,227819,1,0,
256,64,230852,1,0,
256,64,231285,1,0,
256,192,234317,1,0,
256,192,234750,1,4,
