osu file format v5

[General]
AudioFilename: Feel Good, Inc.mp3
AudioLeadIn: 0
PreviewTime: 44570
Countdown: 0
SampleSet: Normal
StackLeniency: 0.7
Mode: 0
LetterboxInBreaks: 0
StoryFireInFront: 0

[Editor]
Bookmarks: 22912,51525,82716,113041,141599,155460,162391,176252,207440,221302
DistanceSpacing: 1.20000004768372
BeatDivisor: 2
GridSize: 8

[Metadata]
Title:Feel Good, Inc.
Artist:Gorillaz
Creator:LuigiHann
Version:Normal
Source:
Tags:

[Difficulty]
HPDrainRate:3
CircleSize:4
OverallDifficulty:3
SliderMultiplier:1.2
SliderTickRate:2

[Events]
//Background and Video events
0,0,"demondays.jpg"
Video,950,"GORILLAZ.avi"
//Break Periods
2,77690,81248
2,111076,111599
2,155227,160951
2,204640,206026
//Storyboard Layer 0 (Background)
//Storyboard Layer 1 (Fail)
//Storyboard Layer 2 (Pass)
//Storyboard Layer 3 (Foreground)
//Storyboard Sound Samples
//Background Colour Transformations
3,100,0,23,31

[TimingPoints]
22944,433.150447588796,4,1,1,70,1,0
82499,-100,4,2,1,100,0,0
96362,-100,4,1,1,70,0,0
115421,-100,4,2,1,100,0,0
117154,-100,4,1,1,70,0,0
124084,-100,4,2,1,100,0,0
125708,-100,4,1,1,70,0,0
130581,-100,4,2,1,100,0,0
130906,-100,4,1,1,70,0,0
133505,-100,4,2,1,100,0,0
134480,-100,4,1,1,70,0,0
141707,-100,4,1,1,50,0,0
155677,-100,4,1,1,70,0,0
162283,-100,4,2,1,100,0,0
183075,-100,4,1,1,70,0,0
207249,-100,4,2,1,100,0,0
207682,-100,4,1,1,70,0,0
214179,-100,4,2,1,100,0,0
214613,-100,4,1,1,70,0,0

[HitObjects]
104,288,22944,1,2
216,288,23377,1,2
304,248,23810,5,4
416,160,24460,1,0
416,160,24676,1,8
416,160,24893,1,0
344,96,25326,2,0,B|280:48|208:88,1,120,0|4
104,152,26409,5,2
104,248,26842,1,2
168,312,27275,5,4
304,344,27925,1,0
304,344,28141,1,8
304,344,28358,1,0
384,296,28791,2,0,B|448:232|408:160,1,120,0|4
352,56,29874,5,2
256,56,30307,1,2
176,104,30740,5,4
104,224,31390,1,0
104,224,31607,1,8
104,224,31823,1,0
168,296,32257,2,0,B|224:344|296:312,1,120,0|4
424,344,33339,5,2
424,248,33773,1,2
376,160,34206,5,4
264,64,34856,1,0
264,64,35072,1,8
264,64,35289,1,0
168,88,35722,2,0,B|88:112|80:184,1,120,0|4
80,312,36805,5,2
176,312,37238,1,2
248,248,37671,5,4
368,320,38321,1,0
368,320,38537,1,8
368,320,38754,1,0
424,240,39187,2,0,B|456:176|408:112,1,120,0|4
288,56,40270,5,2
192,56,40703,1,2
240,136,41136,5,4
144,240,41786,1,0
144,240,42003,1,8
144,240,42219,1,0
208,312,42653,2,0,B|280:352|336:304,1,120,0|4
416,208,43735,5,2
416,112,44169,1,2
328,64,44602,5,0
240,104,45035,1,8
160,152,45468,1,0
224,216,45901,1,8
296,280,46334,1,0
376,232,46768,1,8
456,176,47201,1,2
376,128,47634,1,10
296,184,48067,5,4
184,280,48717,1,0
184,280,48933,1,8
184,280,49150,1,0
104,224,49583,2,0,B|48:160|104:104,1,120,0|4
224,56,50666,5,2
320,56,51099,1,2
392,112,51532,6,0,B|456:176|416:232,1,120,0|8
368,296,52399,1,0
272,320,52832,1,8
176,304,53265,2,0,B|112:256|200:208|188:167|120:120,1,180,0|2
368,56,54998,5,0
432,128,55431,1,8
368,200,55864,1,0
432,264,56297,2,0,B|384:328|314:339|240:296,1,180,8|0
200,248,57380,1,4
96,32,58463,6,0,B|144:96|208:48,1,120,0|8
256,136,59329,2,0,B|320:104|368:168,1,120,0|8
400,248,60196,1,0
344,328,60629,1,8
344,328,60846,1,4
112,288,61928,5,0
192,240,62362,1,8
112,192,62795,1,0
192,144,63228,1,8
272,96,63661,2,0,B|336:64|400:80|448:160,1,180,0|4
304,336,65394,5,0
208,336,65827,2,0,B|144:320|120:240,1,120,8|0
112,160,66693,1,8
176,88,67126,1,0
176,88,67343,1,0
176,88,67560,1,8
176,88,67776,1,4
400,176,68859,6,0,B|344:224|288:168,2,120,0|8|0
400,272,70159,1,8
400,272,70375,1,0
400,272,70592,1,8
400,272,70808,1,0
304,272,71242,2,0,C|272:288|240:272|208:288|176:272|144:288,1,180,4|0
96,208,72324,5,0
48,128,72758,1,8
96,48,73191,1,0
144,128,73624,1,8
240,128,74057,1,0
240,128,74274,1,4
336,128,74707,1,2
336,272,75357,5,8
336,272,75573,1,0
192,272,76223,1,8
112,320,76656,1,0
32,272,77089,1,8
112,224,77522,1,4
128,144,82720,6,0,C|128:0,1,120,0|2
128,144,83587,2,0,C|0:144,1,120
128,144,84453,2,0,C|128:272,1,120,0|2
128,144,85319,2,0,C|256:144,1,120
320,240,86186,6,0,C|320:368,1,120,0|2
320,240,87052,2,0,C|448:240,1,120
320,240,87918,2,0,C|320:96,1,120,0|2
320,240,88785,2,0,C|192:240,1,120,0|4
128,144,89651,6,0,C|32:48,1,120,2|0
128,144,90517,2,0,C|224:48,1,120
128,144,91384,2,0,C|224:240,1,120,2|0
128,144,92250,2,0,C|48:240,1,120
128,328,93116,5,2
128,328,93333,1,0
248,328,93766,1,0
248,208,94199,1,2
248,88,94632,2,2,B|440:88|440:352,1,360,2|2
256,344,96582,6,0,B|160:344|136:280,1,120,4|8
72,136,97665,1,0
72,136,97881,1,8
176,72,98314,6,0,B|280:40|312:88,1,120,4|8
432,176,99397,1,0
432,176,99614,1,8
360,272,100047,6,0,B|280:320|232:296,1,120,4|8
80,224,101130,1,0
80,224,101347,1,8
152,128,101780,6,4,B|208:72|280:88,3,120,4|4|4|12
304,192,103512,6,0,B|400:288,1,120,0|8
304,192,104379,2,0,B|208:288,1,120,4|8
304,192,105245,2,0,B|208:96,1,120,0|8
304,192,106111,2,0,B|400:112,1,120,4|8
304,192,106978,2,0,B|400:288,3,120,0|8|0|8
256,192,108710,12,12,110876
112,56,113039,6,0,B|184:56|184:144,1,120
272,56,113905,1,4
352,136,114338,1,0
352,312,114988,1,8
352,312,115205,1,8
232,312,115638,6,0,C|248:296|232:280|248:264|232:248|248:232|232:216|232:168,1,180,4|8
160,184,116504,2,0,L|160:312,1,120,8|10
72,224,117370,6,0,L|40:152,1,60,4|0
96,120,117803,2,0,L|136:64,1,60
192,64,118237,2,0,L|256:64,1,60
312,64,118670,1,0
312,64,118886,1,0
376,64,119103,6,2,L|408:120,1,60
408,184,119536,2,2,L|408:248,2,60
312,184,120294,1,4
256,336,120836,5,8
192,336,121052,1,0
128,336,121269,2,0,L|128:208,1,120,8|8
128,152,121918,1,0
128,88,122135,1,8
256,120,122568,6,0,L|328:120,1,60,8|0
320,184,123001,1,8
256,184,123218,1,0
256,248,123434,2,8,L|336:248,2,60
256,344,124301,6,2,B|472:344|472:96,1,360,2|6
400,112,125817,1,8
352,56,126033,1,8
304,112,126250,1,8
248,160,126466,1,8
192,112,126683,1,12
88,224,127766,6,0,B|88:304|160:304,1,120,4|0
304,304,128632,1,4
304,304,128849,1,0
304,304,129065,1,0
448,304,129499,2,0,B|448:216|384:216,1,120
304,216,130148,1,0
343,151,130365,1,0
288,32,130690,1,4
184,40,131015,5,0
112,40,131231,2,8,C|112:144,1,90
184,208,131881,1,0
112,208,132097,2,8,C|112:304,1,90
272,208,132964,6,0,B|320:166|384:208,1,120,0|0
360,128,133613,2,2,B|360:64,1,60
288,128,134047,2,2,B|288:68,1,60,2|6
184,192,134696,5,4
40,192,135129,1,4
112,320,135563,2,8,B|160:272,1,60
224,328,135996,2,8,B|272:280,1,60
400,328,136645,5,0
400,256,136862,1,0
328,256,137079,1,0
328,184,137295,2,8,B|328:120,2,60
208,120,138162,6,0,B|312:208|168:351|32:208|136:120,1,360,0|0
168,56,139678,1,8
240,56,139894,1,8
312,56,140111,1,8
352,112,140327,1,8
400,56,140544,1,12
72,264,142064,6,0,B|88:304|136:312,3,60,8|0|8|0
296,304,143364,2,0,B|328:288|328:256,2,60,8|0|8
200,224,144230,5,2
200,104,144663,1,2
432,48,145530,6,0,B|464:72|456:112,3,60,8|0|8|0
408,272,146829,2,0,B|392:312|424:344,2,60,8|0|8
432,208,147474,6,0,B|392:176|376:224|304:240|272:144,1,180,4|6
136,56,148995,6,0,B|88:72|88:112,3,60,8|0|8|0
72,272,150294,2,0,B|72:328|120:320,2,60,8|0|8
32,160,151161,5,2
152,160,151594,1,2
304,344,152460,6,0,B|336:320|320:280,3,60,8|0|8|0
280,120,153760,2,0,B|248:80|288:56,2,60,8|0|8
304,192,154405,6,0,B|336:160|360:208|432:224|464:128,1,180,4|6
160,144,162423,6,0,B|208:88|168:24,3,120,0|2|0|2
160,144,164156,2,0,B|104:96|40:136,3,120,0|4|0|4
160,144,165888,2,0,B|112:200|152:264,3,120,0|2|0|2
160,144,167621,2,0,B|216:192|280:152,3,120,0|4|0|4
368,224,169354,6,0,B|320:168|360:104,3,120,0|2|0|2
368,224,171087,2,0,B|424:176|488:216,3,120,0|4|0|4
368,224,172819,2,0,B|416:280|376:344,3,120,0|2|0|2
368,224,174552,2,0,B|312:272|248:232,3,120,0|4|0|4
208,128,176284,5,0
208,128,176501,1,2
104,184,176934,2,0,B|48:240|120:288,1,120,0|2
224,328,177800,2,0,B|304:344|352:304,1,120
432,240,178667,1,4
176,64,179750,5,2
80,144,180183,1,0
80,144,180399,1,2
80,256,180833,1,4
176,336,181266,1,2
272,256,181699,1,0
272,256,181915,1,2
272,144,182349,1,4
48,48,183215,5,4
88,160,183648,1,8
40,336,184298,1,0
40,336,184514,1,8
136,264,184948,5,4
232,328,185381,1,8
400,264,186031,1,0
400,264,186247,1,8
440,152,186680,5,4
360,64,187113,1,8
184,88,187763,1,0
184,88,187980,1,8
104,176,188413,6,4,B|56:232|120:280,3,120,4|4|4|12
240,272,190146,5,4
344,328,190579,1,8
344,328,190795,1,0
416,232,191229,1,0
416,232,191445,1,8
360,120,191878,5,4
264,48,192311,1,8
264,48,192528,1,0
152,96,192961,1,0
152,96,193178,1,8
96,200,193611,5,4
128,312,194044,1,8
128,312,194261,1,0
240,344,194694,1,0
240,344,194910,1,8
352,296,195344,5,4
408,192,195777,1,4
328,96,196210,2,4,B|304:64|336:32,2,60,4|8|12
256,192,197076,6,0,B|200:256|136:216,1,120,0|8
256,192,197943,2,0,B|192:136|232:72,1,120,4|8
256,192,198809,2,0,B|312:128|376:168,1,120,0|8
256,192,199675,2,0,B|320:248|280:312,1,120,4|8
256,192,200542,2,0,B|200:256|136:216,3,120,4|8|4|8
256,192,202274,12,12,204440
72,112,207466,6,0,B|128:72|192:112,1,120,4|4
256,232,208332,2,0,L|320:232,3,60
456,232,209415,1,8
456,232,209631,1,8
456,88,210064,2,0,B|416:48|384:144|344:88,1,120,0|4
288,224,210931,6,0,B|392:312|248:455|112:312|216:224,1,360,0|0
288,152,212447,1,8
216,152,212663,1,8
144,152,212880,1,8
104,208,213096,1,8
56,152,213313,1,12
408,80,214396,6,0,L|408:200,1,120,4|4
280,128,215262,1,0
336,176,215479,1,0
280,216,215695,1,0
336,264,215912,1,0
192,232,216345,1,8
120,232,216562,2,0,L|120:352,2,120,8|0|4
224,160,217861,6,0,B|120:72|264:-71|400:72|296:160,1,360,0|0
224,232,219377,1,8
296,232,219593,1,8
368,232,219810,1,8
408,176,220026,1,8
456,232,220243,1,12
96,88,221334,5,4
264,144,221983,1,0
264,144,222200,1,8
264,144,222416,1,0
360,64,222850,2,0,B|432:80|424:176,1,120,0|4
336,312,223933,5,2
216,312,224366,1,2
120,240,224799,5,4
176,72,225449,1,0
176,72,225665,1,8
176,72,225882,1,0
296,80,226315,2,0,B|392:80|384:160,1,120,0|4
440,312,227398,5,2
320,312,227831,1,2
216,256,228264,5,4
48,192,228914,1,0
48,192,229131,1,8
48,192,229347,1,0
120,96,229780,2,0,B|184:48|248:88,1,120,0|4
408,48,230863,5,2
408,168,231296,1,2
456,280,231730,5,4
288,344,232379,1,0
288,344,232596,1,4
288,344,232812,1,0
176,304,233246,1,4
96,216,233679,1,0
136,104,234112,2,0,C|168:88|200:104|232:88|264:104|296:88,1,180,4|2
