osu file format v5

[General]
AudioFilename: Feel Good, Inc.mp3
AudioLeadIn: 0
PreviewTime: 44570
Countdown: 0
SampleSet: Normal
StackLeniency: 0.7
Mode: 0
LetterboxInBreaks: 0
StoryFireInFront: 0

[Editor]
Bookmarks: 23778,51525,57380,82716,113041,141599,155460,162391,176252,207440,221302
DistanceSpacing: 1.10000002384186
BeatDivisor: 2
GridSize: 8

[Metadata]
Title:Feel Good, Inc.
Artist:Gorillaz
Creator:LuigiHann
Version:Hard
Source:
Tags:

[Difficulty]
HPDrainRate:4
CircleSize:5
OverallDifficulty:5
SliderMultiplier:1.4
SliderTickRate:2

[Events]
//Background and Video events
0,0,"demondays.jpg"
Video,1050,"GORILLAZ.avi"
//Break Periods
2,79017,81276
2,111077,111842
2,155226,160951
2,204640,206272
//Storyboard Layer 0 (Background)
//Storyboard Layer 1 (Fail)
//Storyboard Layer 2 (Pass)
//Storyboard Layer 3 (Foreground)
//Storyboard Sound Samples
//Background Colour Transformations
3,100,0,23,31

[TimingPoints]
22944,433.166083095694,4,1,1,70,1,0
37337,-100,4,2,1,100,0,0
38312,-100,4,1,1,70,0,0
39936,-100,4,2,1,100,0,0
43510,-100,4,1,1,70,0,0
46868,-100,4,2,1,100,0,0
50442,-100,4,1,1,70,0,0
82499,-100,4,2,1,100,0,0
96362,-100,4,1,1,70,0,0
114125,-100,4,2,0,100,0,0
114450,-100,4,1,1,70,0,0
118998,-100,4,2,1,100,0,0
119648,-100,4,1,1,70,0,0
120947,-100,4,2,1,100,0,0
121272,-100,4,1,1,70,0,0
122680,-100,4,2,1,100,0,0
123005,-100,4,1,1,70,0,0
124196,-100,4,2,1,100,0,0
127337,-100,4,1,1,70,0,0
128095,-100,4,2,1,100,0,0
128311,-100,4,1,1,70,0,0
128961,-100,4,2,1,100,0,0
129177,-100,4,1,1,70,0,0
131397,-100,4,2,1,100,0,0
131668,-100,4,1,1,70,0,0
132264,-100,4,2,1,100,0,0
132535,-100,4,1,1,70,0,0
136433,-100,4,2,1,100,0,0
136758,-100,4,1,1,70,0,0
137841,-100,4,2,1,100,0,0
139465,-100,4,1,1,70,0,0
162283,-100,4,2,1,100,0,0
185782,-100,4,1,1,70,0,0
216244,-100,4,2,1,100,0,0
217977,-100,4,1,1,50,0,0
218193,-100,4,1,1,55,0,0
218410,-100,4,1,1,60,0,0
218626,-100,4,1,1,66,0,0
218843,-100,4,1,1,70,0,0
220684,-100,4,2,1,100,0,0
221117,-100,4,1,1,70,0,0

[HitObjects]
96,104,22944,1,2
248,104,23377,1,2
120,184,23810,5,4
312,328,24460,1,0
376,352,24676,1,8
400,288,24893,1,0
448,152,25326,2,0,B|416:72|312:88,1,140,4|4
128,64,26409,5,2
128,200,26842,1,2
32,304,27275,5,4
232,240,27925,1,0
288,280,28141,1,8
328,224,28358,1,0
440,136,28791,2,4,B|352:112|328:40,1,140
480,200,29874,5,2
480,336,30307,1,2
200,344,31174,5,4
88,256,31607,1,0
88,256,31823,1,0
120,192,32040,1,12
184,72,32473,1,0
184,72,32690,1,0
232,120,32906,1,12
328,224,33339,5,2
328,80,33773,1,2
440,336,34639,5,4
304,304,35072,1,0
304,304,35289,1,0
232,320,35505,1,12
96,344,35938,1,0
96,344,36155,1,0
96,272,36372,1,12
96,136,36805,5,4
232,136,37238,1,4
288,176,37455,6,2,B|336:168|336:120,1,70
368,72,37888,1,2
416,120,38104,5,6
456,256,38537,1,0
456,256,38754,1,0
408,304,38971,1,12
272,352,39404,1,0
272,352,39620,1,0
200,336,39837,1,12
144,296,40054,6,0,B|176:256|136:216,1,70,2|0
80,224,40487,2,2,B|56:184|112:144,1,70,2|6
104,88,40920,1,2
168,120,41136,1,0
208,64,41353,1,2
256,112,41570,2,2,B|296:224|448:224|504:128,2,280,2|2|0
176,224,43735,5,4
176,360,44169,1,4
296,288,44602,5,2
408,200,45035,2,0,B|448:160|400:120,1,70,8|0
368,88,45468,1,2
232,64,45901,2,0,B|176:104|144:64,1,70,8|0
104,48,46334,1,2
48,176,46768,1,8
40,248,46984,6,0,B|40:304|88:312,1,70,2|0
136,336,47417,2,0,B|200:352|216:312,1,70,2|4
256,280,47851,1,0
304,224,48067,1,2
368,248,48284,1,0
416,296,48500,2,2,B|504:152|344:24,2,280,2|2|0
280,344,50666,5,2
208,344,50883,1,4
208,344,51099,1,10
304,256,51532,6,0,B|360:232|328:192,1,70
296,144,51966,1,8
248,88,52182,1,0
192,48,52399,2,0,B|112:96|160:176,1,140,4|8
184,224,53049,1,0
112,224,53265,2,0,B|64:200|72:152,2,70,0|0|8
152,280,53915,1,2
288,320,54348,5,2
288,320,54565,1,8
424,320,54998,6,0,B|464:280|432:240,1,70
400,200,55431,1,8
360,144,55648,1,0
368,72,55864,1,4
232,40,56297,6,0,B|168:64|184:112,1,70,8|0
160,152,56730,1,0
128,216,56947,2,0,B|112:264|56:272,1,70,0|8
128,320,57380,2,0,B|144:360|192:304|192:280|207:343|224:352|272:320,1,140,4|0
304,288,58030,1,8
448,280,58463,6,0,B|480:224|448:184,1,70,4|0
432,144,58896,2,0,B|416:104|448:64,1,70,8|0
376,48,59329,2,0,B|312:56|320:112,1,70,4|0
264,128,59763,2,0,B|216:160|184:112,1,70,8|0
136,96,60196,1,2
88,144,60412,1,2
88,216,60629,1,8
120,280,60846,1,0
320,328,61495,5,0
352,264,61712,1,4
264,152,62145,2,0,B|232:184|200:144,1,70,0|8
168,208,62578,1,0
224,240,62795,2,0,B|224:296|184:296,1,70,4|0
120,280,63228,2,0,B|64:264|48:296,1,70,8|0
40,216,63661,1,2
24,144,63878,1,2
120,40,64311,1,12
400,64,65177,5,0
440,120,65394,2,0,B|488:160|432:192,1,70,4|0
408,232,65827,1,8
368,288,66044,2,4,B|384:344|440:312,2,70
320,232,66693,2,0,B|280:192|240:224,1,70,8|0
192,240,67126,1,0
136,280,67343,1,0
72,248,67560,1,8
32,192,67776,2,0,B|0:112|96:56,1,140,2|2
136,40,68426,1,8
272,64,68859,5,4
272,64,69076,1,0
320,112,69292,1,8
320,112,69509,1,0
264,152,69725,2,0,B|208:224|288:280,1,140,4|8
344,304,70375,1,0
416,304,70592,2,0,B|464:304|472:232,2,70,0|0|8
400,224,71242,2,0,C|384:192|416:160|400:112|432:80|416:48,1,210,4|2
344,40,72108,5,0
272,32,72324,2,0,B|208:24|120:56,1,140,4|8
72,80,72974,1,0
48,144,73191,2,0,B|16:232|72:288,1,140,4|8
120,320,73841,1,0
184,352,74057,2,0,B|280:360|336:320,1,140,4|8
376,288,74707,1,2
480,104,75357,5,2
424,144,75573,2,0,B|336:184|272:136,1,140,4|0
232,104,76223,1,8
232,104,76440,1,0
160,120,76656,2,0,B|112:144|120:192,1,70,4|0
128,240,77089,1,8
128,240,77306,1,0
168,296,77522,1,2
232,320,77739,1,2
376,312,78172,1,0
448,192,78605,1,4
448,192,78822,1,8
256,192,82720,5,2
256,192,82937,2,0,B|247:112|144:80,1,140
256,192,83803,2,0,B|176:201|144:304,1,140,0|4
256,192,84670,2,0,B|265:272|368:304,1,140
256,192,85536,2,0,B|336:183|368:80,1,140,0|4
408,56,86186,6,2,B|448:48|480:96,1,70
464,224,86835,1,0
384,336,87269,1,0
240,344,87702,2,2,B|216:296|152:296|112:352|68:333|40:264,1,210,2|0
32,224,88568,1,2
64,160,88785,1,4
256,192,89651,5,2
256,192,89868,2,0,B|265:112|368:80,1,140,4|0
256,192,90734,2,0,B|336:201|368:304,1,140
256,192,91600,2,0,B|247:272|144:304,1,140,4|0
256,192,92467,2,0,B|176:183|144:80,1,140
96,72,93116,5,4
56,128,93333,2,2,B|8:200|64:272,2,140
168,48,94632,2,2,B|288:40|328:104|312:176|320:288|488:248,1,420
296,336,96582,5,4
168,280,97015,1,8
80,88,97665,1,4
80,88,97881,1,8
112,232,98314,5,4
168,104,98748,1,8
360,16,99397,1,4
360,16,99614,1,8
216,48,100047,5,4
344,104,100480,1,8
432,296,101130,1,4
432,296,101347,1,8
400,152,101780,5,4
344,280,102213,1,8
216,344,102646,1,4
80,328,103079,1,8
144,248,103512,6,4,B|144:208|208:200,1,70,4|0
256,192,103946,1,8
280,256,104162,2,0,B|296:296|352:296,2,70,0|4|0
256,192,104812,1,8
328,184,105028,2,0,B|376:176|368:128,2,70,0|4|0
256,192,105678,1,8
224,128,105895,2,0,B|208:96|152:112,3,70,0|4|0|12
96,144,106761,6,0,B|32:208|96:280,1,140,4|0
136,312,107411,1,8
200,280,107627,2,0,B|280:216|352:304,1,140,4|0
384,320,108277,1,8
256,192,108494,12,12,110877
144,152,113042,6,2,B|248:152|128:224|232:224,1,140
368,232,113908,1,4
472,232,114233,1,2
472,232,114342,1,4
472,160,114558,1,0
400,88,114991,1,0
400,160,115208,1,0
320,64,115641,5,0
248,64,115858,2,8,B|248:112,2,35
176,64,116291,2,0,B|96:64,1,70
32,64,116724,1,8
64,128,116941,1,12
136,248,117374,6,0,B|136:304|176:304,2,70
200,248,118023,2,0,B|240:248|240:200,2,70
168,192,118673,2,0,B|168:144|120:144,1,70
56,144,119106,1,2
56,144,119215,1,0
56,144,119323,1,2
56,216,119540,2,4,B|56:304,1,70,4|0
56,352,119973,1,0
56,352,120081,1,0
56,352,120189,1,0
128,352,120406,1,4
264,352,120839,6,4,L|360:352,1,70
384,224,121489,2,0,B|432:280,2,70
336,168,122139,2,0,B|288:232,1,70
224,232,122572,6,4,B|152:232,1,70
160,88,123221,1,0
232,88,123438,1,0
304,88,123655,1,0
376,88,123871,1,0
376,88,123979,1,0
376,88,124088,1,0
448,88,124304,6,0,B|448:168,1,70,2|8
448,296,124954,1,2
376,296,125171,1,4
304,296,125387,1,8
160,296,125820,6,0,B|160:200,1,70
160,152,126254,1,0
216,192,126470,1,0
272,152,126687,1,4
216,56,127120,5,8
416,112,127770,2,0,B|520:152|416:200,1,140,2|4
360,160,128419,1,8
288,160,128636,1,8
216,160,128853,2,0,L|128:160,1,70,4|4
72,160,129502,5,0
72,160,129611,1,0
72,160,129719,1,0
72,264,129936,1,0
72,264,130044,1,0
72,264,130152,1,0
176,264,130369,1,2
248,264,130585,1,2
320,264,130802,1,2
392,264,131018,5,8
464,264,131235,2,0,L|464:168,1,70,4|2
464,194,131560,1,4
464,88,131885,1,8
392,88,132101,2,0,L|312:88,1,70,4|2
322,88,132426,1,4
208,48,132751,5,0
136,48,132968,1,0
176,104,133184,1,0
104,104,133401,1,8
136,160,133617,2,0,C|160:184|136:208|160:232|136:256|152:272,1,140,0|8
64,256,134267,2,0,C|40:232|64:208|40:184|64:160|48:144,1,140,8|4
136,48,135134,5,4
272,48,135567,1,8
344,48,135783,1,0
344,48,135892,1,8
344,48,136000,1,8
416,48,136216,1,8
416,184,136650,6,0,L|416:256,1,70,2|8
416,320,137083,1,0
416,320,137191,1,8
416,320,137299,1,8
344,320,137516,2,8,L|344:240,1,70
304,192,137949,5,2
256,240,138166,1,8
208,192,138382,1,4
304,80,138815,5,2
256,32,139032,1,8
208,80,139248,1,4
336,136,139682,5,8
256,136,139898,1,8
176,136,140115,1,8
120,200,140332,1,8
120,72,140548,1,12
88,56,142064,5,8
88,56,142281,1,0
56,120,142497,1,8
56,120,142714,1,0
104,320,143364,1,8
104,320,143580,1,0
168,344,143797,1,8
168,344,144013,1,0
232,320,144230,6,0,B|296:256|384:312,1,140,2|2
480,232,145096,1,4
424,104,145530,5,8
424,104,145746,1,0
360,72,145963,1,8
360,72,146179,1,0
152,56,146829,1,8
152,56,147046,1,0
96,96,147262,1,8
96,96,147479,2,0,C|80:128|96:160|80:192|96:224|80:256|96:288,1,210,4|2
192,352,148562,1,4
312,280,148995,5,8
312,280,149211,1,0
368,320,149428,1,8
368,320,149645,1,0
424,272,149861,1,4
440,128,150294,1,8
440,128,150511,1,0
400,72,150727,1,8
400,72,150944,1,0
336,104,151161,2,0,B|256:152|192:96,1,140,2|2
80,40,152027,1,4
48,176,152460,5,8
48,176,152677,1,0
64,240,152893,1,8
64,240,153110,1,0
128,256,153326,1,4
264,296,153760,1,8
264,296,153976,1,0
328,264,154193,1,8
328,264,154409,2,0,C|344:232|312:200|328:152|296:120|312:88,1,210,4|2
96,88,162423,5,2
56,224,162856,2,0,B|56:264|104:288,1,70,0|2
224,320,163506,1,0
360,280,163939,1,2
224,320,164372,1,0
360,280,164805,1,2
360,280,165022,6,0,B|280:248|320:200|296:144|184:144,1,210,4|2
152,272,166105,1,0
56,176,166538,1,2
56,176,166755,2,0,B|112:128|40:104|24:56|152:32,1,210,4|2
288,24,167838,5,0
416,72,168271,1,2
384,208,168704,2,0,B|344:256|400:296,1,70,0|4
248,328,169354,5,2
112,296,169787,2,0,B|72:272|96:232,1,70,0|2
72,96,170437,1,0
200,40,170870,1,2
320,112,171303,1,0
200,40,171736,1,2
320,112,172169,1,0
440,184,172602,5,2
352,296,173036,1,0
440,184,173469,1,2
352,296,173902,1,0
216,248,174335,5,2
120,152,174768,1,0
216,248,175201,1,2
120,152,175635,1,4
120,152,175851,1,8
248,104,176284,6,0,B|288:80|320:120,1,70
344,168,176717,1,8
384,224,176934,2,0,B|448:288|504:208,1,140
344,168,177800,2,0,B|248:200|288:280,1,140,2|0
344,168,178667,2,0,B|416:120|376:40,1,140,2|0
240,80,179533,6,0,B|232:168|136:168,1,140
149,167,180183,1,8
149,167,180399,2,0,B|88:248|200:296,1,140
149,167,181266,2,2,B|112:80|16:128,1,140
32,192,181915,2,0,B|72:224|24:272,1,70,8|0
96,296,182349,1,4
232,336,182782,1,8
368,296,183215,5,2
416,240,183432,2,0,B|448:192|408:152,1,70,0|8
384,112,183865,2,0,B|296:144|280:48,1,140
208,40,184514,1,8
136,48,184731,2,0,B|56:104|96:184,2,140,0|4|0
200,168,186031,1,4
200,168,186247,1,8
128,288,186680,5,0
128,288,186897,1,4
256,336,187330,2,0,B|344:368|416:336,1,140
456,320,187980,1,8
440,176,188413,5,4
304,200,188846,1,8
168,168,189279,1,4
32,192,189712,1,8
104,72,190146,5,2
240,96,190579,1,8
240,96,190795,1,4
376,72,191229,1,0
416,208,191662,5,2
304,288,192095,1,0
176,224,192528,2,4,B|80:208|40:272,1,140,4|0
88,128,193394,6,2,B|144:56|232:88,1,140,2|0
272,120,194044,1,8
336,152,194261,2,2,B|408:176|472:104,1,140,0|2
496,56,194910,1,8
488,192,195344,5,4
368,264,195777,1,8
232,216,196210,1,4
128,208,196535,1,0
128,208,196643,1,8
64,240,196860,1,4
104,296,197076,6,0,B|136:336|184:320,1,70
232,304,197509,1,8
296,280,197726,1,0
360,248,197943,2,0,B|408:224|440:264,2,70,4|0|8
456,144,198809,6,0,B|392:176|376:120,1,70,4|0
336,96,199242,1,8
128,56,199892,1,4
128,56,200108,1,8
32,152,200542,6,0,B|40:240|128:248,1,140,4|8
184,248,201191,1,0
320,216,201625,1,0
320,216,201841,1,8
256,192,202058,12,8,204440
256,64,207472,5,0
256,64,207581,1,0
256,64,207689,1,0
224,136,207905,2,8,C|304:136,1,70
336,200,208339,5,0
384,136,208555,1,0
424,200,208772,1,8
464,136,208988,1,8
480,256,209205,6,0,B|480:344|392:344,1,140,4|0
280,344,209963,1,8
280,344,210071,1,8
200,344,210288,1,8
120,344,210504,1,12
32,136,210938,6,0,L|120:136,1,70
176,136,211371,2,0,L|176:64,1,70
256,64,211804,2,0,L|336:64,1,70
320,144,212237,2,0,L|320:216,1,70,0|8
240,216,212670,1,8
160,216,212887,1,8
112,272,213103,1,8
56,216,213320,2,0,B|56:64|168:64,1,210,8|4
376,192,214403,5,0
136,192,214836,1,0
256,288,215269,2,8,C|256:208,1,70
256,218,215594,1,8
256,218,215702,1,8
256,136,215919,1,8
216,64,216136,2,4,C|296:64,1,70,4|4
360,64,216569,5,2
424,112,216785,1,2
360,160,217002,1,2
424,208,217218,1,2
360,256,217435,2,2,B|384:296|416:296,2,70,2|2|6
280,256,218085,6,0,C|208:256,1,70
128,256,218518,2,0,C|128:184,1,70
128,104,218951,2,0,C|216:104,1,70
200,176,219384,1,8
288,176,219601,1,8
368,144,219817,1,8
440,184,220034,1,8
440,88,220251,1,8
256,256,220900,5,8
72,72,221334,5,4
104,280,221983,1,0
160,240,222200,1,12
216,280,222416,1,0
344,328,222850,1,4
456,248,223283,2,0,B|488:184|424:112,1,140,4|0
376,72,223933,5,2
232,72,224366,1,2
328,176,224799,5,4
168,312,225449,1,0
104,336,225665,1,12
64,280,225882,1,0
32,144,226315,1,4
144,56,226748,2,0,B|224:24|288:88,1,140,4|0
288,144,227398,5,2
288,280,227831,1,2
408,344,228264,5,4
472,144,228914,1,0
440,80,229131,1,12
384,120,229347,1,0
264,48,229780,1,4
120,32,230213,2,0,B|32:64|56:168,1,140,4|0
48,208,230863,5,2
184,208,231296,1,2
224,344,231730,5,4
416,256,232379,1,0
464,208,232596,1,12
408,168,232812,1,0
320,56,233246,1,4
184,88,233679,1,4
64,160,234112,6,0,C|48:192|64:224|48:256|64:288|48:320|64:352,1,210,4|2
