osu file format v14

[General]
AudioFilename: hikarunara.mp3
AudioLeadIn: 0
PreviewTime: 52544
Countdown: 0
SampleSet: Soft
StackLeniency: 0.7
Mode: 0
LetterboxInBreaks: 0
WidescreenStoryboard: 0

[Editor]
DistanceSpacing: 0.8
BeatDivisor: 4
GridSize: 4
TimelineZoom: 4.699997

[Metadata]
Title:Hikaru nara -TV size-
TitleUnicode:光るなら -TV size-
Artist:Goose house
ArtistUnicode:Goose house
Creator:Underforest
Version:Normal
Source:四月は君の嘘
Tags:shigatsu wa kimi no uso your lie in april first opening グース ハウス noitamina ノイタミナ フジテレビ fuji tv terebi sony music labels phrase #9 工藤秀平 shuhei kudo 竹渕慶 kei takebuchi 竹澤汀 migiwa takezawa マナミ manami 沙夜香 sayaka ワタナベシュウヘイ shuhei watanabe 齊藤ジョニー johnny saito mkguh doormat
BeatmapID:1020012
BeatmapSetID:477474

[Difficulty]
HPDrainRate:4
CircleSize:3
OverallDifficulty:4
ApproachRate:5
SliderMultiplier:1.2
SliderTickRate:2

[Events]
//Background and Video events
0,0,"kaori.jpg",0,0
Video,479,"feelings.avi"
//Break Periods
//Storyboard Layer 0 (Background)
//Storyboard Layer 1 (Fail)
//Storyboard Layer 2 (Pass)
//Storyboard Layer 3 (Foreground)
//Storyboard Sound Samples

[TimingPoints]
44,375,4,2,2,70,1,0
2950,-100,4,2,3,50,0,0
3044,-100,4,2,3,60,0,0
3794,-100,4,2,2,60,0,0
3981,-100,4,2,3,60,0,0
4544,-100,4,2,3,70,0,0
12419,-100,4,2,3,60,0,0
12794,-100,4,2,3,65,0,0
13169,-100,4,2,3,60,0,0
13544,-100,4,2,3,50,0,0
19356,-100,4,2,2,40,0,0
19544,-100,4,2,3,50,0,0
20575,-100,4,2,3,5,0,0
20669,-100,4,2,3,50,0,0
20950,-100,4,2,3,5,0,0
21044,-100,4,2,3,50,0,0
25450,-100,4,2,3,5,0,0
25544,-100,4,2,3,50,0,0
34544,-100,4,2,4,50,0,0
36325,-100,4,2,3,5,0,0
36419,-100,4,2,3,55,0,0
36512,-100,4,2,3,5,0,0
36606,-100,4,2,3,55,0,0
37450,-100,4,2,3,5,0,0
37544,-100,4,2,3,40,0,0
39606,-100,4,2,2,60,0,0
39981,-100,4,2,3,40,0,0
43544,-100,4,2,3,50,0,0
51231,-100,4,2,2,50,0,0
51419,-100,4,2,2,50,0,0
51794,-100,4,2,2,65,0,0
52169,-100,4,2,2,75,0,0
52544,-100,4,2,3,80,0,1
57231,-100,4,2,4,80,0,1
58544,-100,4,2,3,80,0,1
64169,-100,4,2,3,80,0,0
64544,-100,4,2,3,80,0,1
69044,-100,4,2,4,80,0,1
70544,-100,4,2,3,80,0,1
73544,-100,4,2,3,70,0,0
76544,-100,4,2,3,80,0,1
81794,-100,4,2,2,80,0,1
82544,-100,4,2,3,80,0,1
86481,-100,4,2,3,80,0,1
86669,-100,4,2,2,80,0,1
86856,-100,4,2,3,70,0,0
87231,-100,4,2,3,60,0,0
87606,-100,4,2,3,50,0,0
87794,-100,4,2,3,40,0,0
87981,-100,4,2,3,30,0,0
88169,-100,4,2,3,20,0,0
88356,-100,4,2,3,10,0,0
88544,-100,4,2,3,5,0,0

[Colours]
Combo1 : 146,146,201
Combo2 : 255,128,192
Combo3 : 234,138,106
Combo4 : 238,204,87

[HitObjects]
479,267,44,6,0,P|429:312|318:299,1,180,2|2,0:0|0:0,0:0:0:0:
242,250,981,1,0,0:0:0:0:
151,280,1356,2,0,P|99:275|17:291,2,120,2|0|2,0:0|0:0|0:0,0:0:0:0:
122,40,3044,6,0,B|71:46|71:46|-6:26,2,120,12|12|2,0:0|0:0|0:0,0:0:0:0:
168,53,3981,1,8,0:0:0:0:
215,60,4169,1,8,0:0:0:0:
309,43,4544,6,0,P|318:114|299:164,1,120,6|8,0:0|0:0,0:0:0:0:
382,211,5294,2,0,P|373:282|396:341,1,120,2|8,0:0|0:0,0:0:0:0:
340,338,5856,1,0,0:0:0:0:
292,339,6044,2,0,L|163:349,1,120,2|8,0:0|0:0,0:0:0:0:
130,261,6794,2,0,L|256:250,1,120,0|8,0:0|0:0,0:0:0:0:
293,230,7356,6,0,B|306:168|306:168|291:89,1,120
269,70,7919,1,8,0:0:0:0:
238,34,8106,2,0,P|155:41|108:22,1,120,0|2,0:0|0:0,0:0:0:0:
50,94,8856,2,0,P|60:155|34:226,1,120,2|2,0:0|0:0,0:0:0:0:
26,254,9419,1,8,0:0:0:0:
111,297,9794,2,0,L|170:290,1,60,0|2,0:0|0:0,0:0:0:0:
207,321,10169,2,0,L|271:328,1,60,8|0,0:0|0:0,0:0:0:0:
311,309,10544,5,2,0:0:0:0:
311,309,10731,1,2,0:0:0:0:
379,241,11106,2,0,L|387:165,1,60,2|2,0:0|0:0,0:0:0:0:
314,116,11669,1,2,0:0:0:0:
314,116,11856,2,0,P|231:102|259:5,1,180,6|8,0:0|0:0,0:0:0:0:
138,21,12794,2,0,L|123:90,1,60,8|8,0:0|0:0,0:0:0:0:
91,114,13169,2,0,L|102:178,1,60,8|8,0:0|0:0,0:0:0:0:
87,219,13544,6,0,L|73:342,1,120,6|8,0:0|0:0,0:0:0:0:
168,354,14294,1,2,0:0:0:0:
266,358,14669,1,8,0:0:0:0:
360,343,15044,2,0,P|392:294|372:217,1,120,2|8,0:0|0:0,0:0:0:0:
357,196,15606,2,0,L|230:196,1,120,0|2,0:0|0:0,0:0:0:0:
192,215,16169,1,8,0:0:0:0:
112,160,16544,6,0,B|99:214|99:214|116:298,2,120,2|8|2,0:0|0:0|0:0,0:0:0:0:
198,117,17669,1,8,0:0:0:0:
156,32,18044,2,0,L|30:31,1,120,2|8,0:0|0:0,0:0:0:0:
16,74,18606,2,0,P|30:132|20:205,1,120,0|2,0:0|0:0,0:0:0:0:
42,236,19169,1,8,0:0:0:0:
111,303,19544,6,0,P|167:306|202:357,1,120,2|8,0:0|0:0,0:0:0:0:
266,284,20294,1,2,0:0:0:0:
266,284,20481,2,0,L|279:213,1,60,0|8,0:0|0:0,0:0:0:0:
266,129,21044,2,0,L|139:98,2,120,2|8|2,0:0|0:0|0:0,0:0:0:0:
313,129,21981,1,2,0:0:0:0:
361,130,22169,1,8,0:0:0:0:
449,91,22544,6,0,P|454:150|421:204,1,120,2|8,0:0|0:0,0:0:0:0:
381,222,23106,1,0,0:0:0:0:
381,222,23294,2,0,L|389:362,1,120,2|8,0:0|0:0,0:0:0:0:
360,381,23856,1,0,0:0:0:0:
268,352,24231,2,0,P|220:351|122:357,2,120,0|0|2,0:0|0:0|0:0,0:0:0:0:
274,207,25544,6,0,L|402:218,1,120,2|8,0:0|0:0,0:0:0:0:
351,130,26294,2,0,L|218:119,1,120,2|8,0:0|0:0,0:0:0:0:
186,136,26856,1,0,0:0:0:0:
186,136,27044,2,0,P|182:201|167:256,1,120,0|8,0:0|0:0,0:0:0:0:
118,336,27794,2,0,L|195:359,2,60,2|2|8,0:0|0:0|0:0,0:0:0:0:
71,251,28544,6,0,P|70:180|84:128,1,120,0|8,0:0|0:0,0:0:0:0:
151,65,29294,2,0,P|212:51|268:58,1,120,2|8,0:0|0:0,0:0:0:0:
315,49,29856,1,0,0:0:0:0:
315,49,30044,2,0,L|316:177,1,120,2|8,0:0|0:0,0:0:0:0:
232,216,30794,2,0,P|238:243|231:300,2,60,2|2|8,0:0|0:0|0:0,0:0:0:0:
157,155,31544,6,0,L|12:165,1,120,2|8,0:0|0:0,0:0:0:0:
63,69,32294,2,0,L|-11:77,2,60,2|2|8,0:0|0:0|0:0,0:0:0:0:
156,47,33044,2,0,P|206:61|286:37,1,120,2|8,0:0|0:0,0:0:0:0:
337,115,33794,2,0,P|389:98|455:127,1,120,2|8,0:0|0:0,0:0:0:0:
389,196,34544,6,0,L|314:201,2,60,0|2|8,0:0|0:0|0:0,0:0:0:0:
425,285,35294,2,0,L|298:288,1,120,2|8,0:0|0:0,0:0:0:0:
287,332,35856,2,0,P|239:354|169:358,1,120,2|14,0:0|0:0,0:0:0:0:
124,360,36418,1,0,0:0:0:0:
92,323,36606,2,0,L|96:197,1,120,14|12,0:0|0:0,0:0:0:0:
176,83,37544,6,0,B|232:68|232:68|293:86|293:86|352:66,1,180,6|0,0:0|0:0,0:0:0:0:
488,105,38669,1,8,0:0:0:0:
510,198,39044,2,0,B|447:209|409:159|409:159|352:196,1,180,2|2,0:0|0:0,0:0:0:0:
299,273,39981,2,0,L|234:289,1,60,2|8,0:0|0:0,0:0:0:0:
148,312,40544,6,0,P|93:286|35:273,1,120,2|0,0:0|0:0,0:0:0:0:
31,225,41106,2,0,P|48:165|21:91,1,120,2|2,0:0|0:0,0:0:0:0:
71,79,41669,1,2,0:0:0:0:
166,82,42044,2,0,P|221:99|299:75,1,120,2|0,0:0|0:0,0:0:0:0:
313,50,42606,2,0,P|349:98|328:213,1,180,8|8,0:0|0:0,0:0:0:0:
252,266,43544,6,0,P|194:266|147:303,1,120,6|8,0:0|0:0,0:0:0:0:
225,357,44294,2,0,P|286:356|337:309,1,120,2|8,0:0|0:0,0:0:0:0:
376,306,44856,1,0,0:0:0:0:
376,306,45044,2,0,L|377:174,1,120,2|8,0:0|0:0,0:0:0:0:
420,100,45794,1,2,0:0:0:0:
357,27,46169,1,8,0:0:0:0:
261,23,46544,6,0,P|200:50|130:25,1,120,2|8,0:0|0:0,0:0:0:0:
63,80,47294,2,0,P|54:40|60:-2,2,60,2|2|8,0:0|0:0|0:0,0:0:0:0:
31,170,48044,2,0,L|15:305,1,120,2|8,0:0|0:0,0:0:0:0:
90,351,48794,1,2,0:0:0:0:
167,294,49169,1,8,0:0:0:0:
267,301,49544,5,2,0:0:0:0:
267,301,49731,1,2,0:0:0:0:
347,246,50106,2,0,L|360:164,1,60,2|2,0:0|0:0,0:0:0:0:
269,146,50669,2,0,L|261:206,1,60,2|6,0:0|0:0,0:0:0:0:
178,263,51231,1,2,0:0:0:0:
178,263,51419,2,0,P|99:265|41:232,2,120,2|2|2,0:0|0:0|0:0,0:0:0:0:
256,208,52544,6,0,L|380:201,1,120,6|8,0:0|0:0,0:0:0:0:
422,186,53106,2,0,P|415:222|447:318,1,120,2|0,0:0|0:0,0:0:0:0:
463,341,53669,1,8,0:0:0:0:
376,380,54044,2,0,L|248:384,1,120,0|8,0:0|0:0,0:0:0:0:
221,351,54606,2,0,B|231:290|231:290|216:224,1,120,0|2,0:0|0:0,0:0:0:0:
183,200,55169,1,8,0:0:0:0:
174,104,55544,6,0,L|308:92,1,120,2|8,0:0|0:0,0:0:0:0:
342,90,56106,2,0,P|366:147|450:177,1,120,2|2,0:0|0:0,0:0:0:0:
450,208,56669,1,8,0:0:0:0:
441,303,57044,2,0,L|525:305,2,60,0|2|10,0:0|0:0|0:0,0:0:0:0:
349,331,57794,2,0,P|293:312|237:335,1,120,2|10,0:0|0:0,0:0:0:0:
198,359,58356,1,0,0:0:0:0:
149,360,58544,6,0,L|139:231,1,120,6|8,0:0|0:0,0:0:0:0:
109,204,59106,2,0,P|51:187|-3:105,1,120,2|2,0:0|0:0,0:0:0:0:
23,98,59669,1,8,0:0:0:0:
112,60,60044,2,0,B|167:43|167:43|229:52,1,120,0|8,0:0|0:0,0:0:0:0:
266,83,60606,2,0,P|296:132|323:192,1,120,0|2,0:0|0:0,0:0:0:0:
356,223,61169,1,8,0:0:0:0:
420,294,61544,6,0,P|367:318|309:305,1,120,2|8,0:0|0:0,0:0:0:0:
265,285,62106,2,0,P|208:271|154:295,1,120,2|2,0:0|0:0,0:0:0:0:
117,325,62669,1,8,0:0:0:0:
60,248,63044,2,0,L|83:125,1,120,2|0,0:0|0:0,0:0:0:0:
116,96,63606,1,2,0:0:0:0:
156,68,63794,2,0,L|235:64,2,60,8|2|8,0:0|0:0|0:0,0:0:0:0:
200,153,64544,6,0,P|258:146|311:91,1,120,6|8,0:0|0:0,0:0:0:0:
321,62,65106,2,0,B|380:48|380:48|448:63,1,120,2|2,0:0|0:0,0:0:0:0:
475,92,65669,1,8,0:0:0:0:
482,187,66044,2,0,P|456:222|473:322,1,120,0|8,0:0|0:0,0:0:0:0:
431,336,66606,2,0,B|368:342|368:342|302:327,1,120,0|2,0:0|0:0,0:0:0:0:
268,313,67169,1,8,0:0:0:0:
172,304,67544,6,0,L|152:186,1,120,2|8,0:0|0:0,0:0:0:0:
176,144,68106,2,0,B|229:114|294:129,1,120,2|2,0:0|0:0,0:0:0:0:
335,150,68669,1,8,0:0:0:0:
413,98,69044,2,0,L|405:28,2,60,2|2|10,0:0|0:0|0:0,0:0:0:0:
440,136,69606,2,0,P|454:200|432:256,1,120,2|2,0:0|0:0,0:0:0:0:
406,288,70169,1,8,0:0:0:0:
316,253,70544,6,0,L|186:267,1,120,6|8,0:0|0:0,0:0:0:0:
155,291,71106,2,0,P|141:327|70:382,1,120,2|2,0:0|0:0,0:0:0:0:
34,365,71669,1,8,0:0:0:0:
47,270,72044,2,0,P|57:191|120:140,1,120,2|8,0:0|0:0,0:0:0:0:
127,147,72606,2,0,L|262:169,1,120,0|2,0:0|0:0,0:0:0:0:
289,186,73169,1,8,0:0:0:0:
347,261,73544,6,0,P|383:187|334:101,1,180,12|4,0:3|0:3,0:0:0:0:
221,25,74669,1,4,0:0:0:0:
135,69,75044,2,0,L|113:147,2,60,6|2|8,0:0|0:0|0:0,0:0:0:0:
219,115,75794,2,0,L|240:192,2,60,2|2|8,0:0|0:0|0:0,0:0:0:0:
304,70,76544,6,0,L|437:58,1,120,6|8,0:0|0:0,0:0:0:0:
465,145,77294,2,0,L|345:155,1,120,2|8,0:0|0:0,0:0:0:0:
249,159,78044,2,0,P|259:207|235:280,1,120,2|8,0:0|0:0,0:0:0:0:
181,350,78794,2,0,P|245:368|297:348,1,120,2|8,0:0|0:0,0:0:0:0:
351,274,79544,6,0,L|471:264,1,120,2|8,0:0|0:0,0:0:0:0:
504,229,80106,1,2,0:0:0:0:
421,111,80669,2,0,L|300:99,1,120,8|0,0:0|0:0,0:0:0:0:
265,67,81231,2,0,L|205:68,1,60,2|8,0:0|0:0,0:0:0:0:
148,144,81794,2,0,L|140:203,2,60,2|0|2,0:0|0:0|0:0,0:0:0:0:
236,180,82544,6,0,P|295:165|366:194,1,120,6|8,0:0|0:0,0:0:0:0:
369,276,83294,2,0,P|421:294|486:280,1,120,2|8,0:0|0:0,0:0:0:0:
431,200,84044,2,0,L|459:60,2,120,2|8|0,0:0|0:0|0:0,0:0:0:0:
354,258,85169,1,8,0:0:0:0:
264,226,85544,6,0,P|205:211|146:189,1,120,2|8,0:0|0:0,0:0:0:0:
104,174,86106,2,0,P|116:234|90:284,1,120,6|2,0:0|0:0,0:0:0:0:
56,320,86669,1,2,0:0:0:0:
11,336,86856,1,4,0:0:0:0:
256,192,87044,12,0,88919,0:0:0:0:
