osu file format v13

[General]
AudioFilename: Hikarunara.mp3
AudioLeadIn: 1500
PreviewTime: 53114
Countdown: 0
SampleSet: Soft
StackLeniency: 0.3
Mode: 0
LetterboxInBreaks: 0
WidescreenStoryboard: 0

[Editor]
DistanceSpacing: 1.5
BeatDivisor: 4
GridSize: 4
TimelineZoom: 1

[Metadata]
Title:Hikaru nara -TV size-
TitleUnicode:光るなら -TV size-
Artist:Goose house
ArtistUnicode:Goose house
Creator:No_Gu
Version:Normal
Source:四月は君の嘘
Tags:Shigatsu wa Kimi no Uso
BeatmapID:519312
BeatmapSetID:221358

[Difficulty]
HPDrainRate:3
CircleSize:3
OverallDifficulty:4
ApproachRate:5.5
SliderMultiplier:1.2
SliderTickRate:1

[Events]
//Background and Video events
0,0,"BG.jpg",0,0
//Break Periods
//Storyboard Layer 0 (Background)
//Storyboard Layer 1 (Fail)
//Storyboard Layer 2 (Pass)
//Storyboard Layer 3 (Foreground)
//Storyboard Sound Samples
//Background Colour Transformations
3,100,163,162,255

[TimingPoints]
614,375,4,2,1,50,1,0
3426,-100,4,2,1,70,0,0
14114,-100,4,2,1,85,0,0
53114,-100,4,2,1,95,0,1
65020,-100,4,2,1,95,0,0
65114,-100,4,2,1,95,0,1
74114,-100,4,2,1,95,0,0
77114,-100,4,2,1,95,0,1
87332,-100,4,2,1,95,0,0
87426,-100,4,2,1,95,0,1
87520,-100,4,2,1,5,0,0

[Colours]
Combo1 : 128,255,128
Combo2 : 255,255,128
Combo3 : 255,128,128
Combo4 : 128,255,255

[HitObjects]
120,64,614,6,0,P|136:120|112:184,1,120,2|0,0:0|0:0,0:0:0:0:
176,244,1176,2,0,P|240:236|304:244,1,120,2|0,0:0|0:0,0:0:0:0:
368,304,1739,1,0,0:0:0:0:
444,260,1926,2,0,L|452:132,1,120,2|0,0:0|0:0,0:0:0:0:
408,60,2489,1,0,0:0:0:0:
364,140,2676,1,2,0:0:0:0:
72,357,3614,5,4,0:0:0:0:
28,180,3989,1,2,0:0:0:0:
200,132,4364,1,2,0:0:0:0:
252,304,4739,2,0,L|320:308,1,60,8|0,0:0|3:0,0:0:0:0:
388,352,5114,6,0,P|404:304|388:232,1,120,4|8,3:0|0:0,0:0:0:0:
352,156,5676,2,0,P|336:108|352:36,1,120,2|0,0:0|3:0,0:0:0:0:
436,72,6239,1,8,0:0:0:0:
436,160,6426,2,0,P|380:240|300:228,1,180,2|8,0:0|0:0,0:0:0:0:
236,176,7176,2,0,L|156:184,1,60,2|0,3:0|0:0,0:0:0:0:
108,124,7551,2,0,L|28:132,1,60,2|8,3:0|0:0,0:0:0:0:
16,216,7926,6,0,P|8:288|104:336,1,180,2|8,0:0|0:0,0:0:0:0:
164,284,8676,2,0,P|228:276|308:284,1,120,2|0,0:0|0:0,0:0:0:0:
360,324,9239,1,8,0:0:0:0:
440,284,9426,2,0,L|448:148,1,120,2|0,0:0|0:0,0:0:0:0:
392,92,9989,2,0,P|352:84|312:92,1,60,8|0,0:0|3:0,0:0:0:0:
248,112,10364,2,0,P|184:120|128:112,1,120,0|8,3:0|0:0,0:0:0:0:
88,288,11114,6,0,L|96:224,1,60,0|0,1:0|1:0,0:0:0:0:
256,304,11676,2,0,L|256:240,1,60,0|0,1:0|1:0,0:0:0:0:
424,288,12239,2,0,L|416:224,1,60,0|4,1:0|1:0,0:0:0:0:
256,192,12614,12,4,14114,3:0:0:0:
144,56,14864,6,0,P|120:120|144:176,1,120,0|8,3:0|0:0,0:0:0:0:
192,336,15614,1,0,3:0:0:0:
360,280,15989,1,8,0:0:0:0:
304,112,16364,2,0,L|312:48,2,60,0|0|8,3:0|3:0|0:0,0:0:0:0:
184,248,17114,6,0,P|128:264|64:248,2,120,0|8|0,3:0|0:0|3:0,0:0:0:0:
268,280,18051,2,0,L|332:272,1,60,0|8,3:0|0:0,0:0:0:0:
412,304,18426,2,0,P|428:248|412:184,1,120,2|2,0:0|0:0,0:0:0:0:
348,128,18989,1,8,0:0:0:0:
268,168,19176,2,0,L|140:160,1,120,2|0,0:0|3:0,0:0:0:0:
64,196,19739,1,8,0:0:0:0:
176,336,20114,5,0,3:0:0:0:
352,296,20489,1,8,0:0:0:0:
248,152,20864,2,0,L|256:80,2,60,0|0|8,3:0|3:0|0:0,0:0:0:0:
116,276,21614,2,0,P|52:292|-4:268,1,120,0|8,3:0|0:0,0:0:0:0:
176,336,22364,2,0,P|240:352|296:328,1,120,0|8,3:0|0:0,0:0:0:0:
408,196,23114,6,0,L|416:316,2,120,0|8|0,3:0|0:0|3:0,0:0:0:0:
332,152,24051,2,0,L|336:78,1,60,0|8,3:0|0:0,0:0:0:0:
264,36,24426,2,0,P|200:28|144:52,1,120,2|2,0:0|0:0,0:0:0:0:
80,108,24989,1,8,0:0:0:0:
64,196,25176,2,0,L|72:324,1,120,2|2,0:0|0:0,0:0:0:0:
160,336,25739,2,0,L|152:216,1,120,8|2,0:0|3:0,0:0:0:0:
264,72,26489,5,8,0:0:0:0:
424,160,26864,2,0,L|488:152,2,60,0|0|8,3:0|3:0|0:0,0:0:0:0:
368,232,27426,2,0,L|376:360,1,120,2|0,0:0|0:0,0:0:0:0:
288,368,27989,2,0,L|280:248,1,120,8|0,0:0|3:0,0:0:0:0:
224,176,28551,1,0,3:0:0:0:
192,260,28739,1,8,0:0:0:0:
56,136,29114,6,0,L|48:64,1,60,2|0,3:0|0:0,0:0:0:0:
136,48,29489,2,0,L|144:120,1,60,8|0,0:0|0:0,0:0:0:0:
232,112,29864,2,0,L|224:40,2,60,0|0|8,3:0|3:0|0:0,0:0:0:0:
312,272,30614,2,0,P|376:280|432:240,1,120,0|8,3:0|0:0,0:0:0:0:
472,180,31176,2,0,L|464:52,1,120,0|0,0:0|3:0,0:0:0:0:
392,4,31739,1,8,0:0:0:0:
232,88,32114,6,0,L|96:80,1,120,0|8,3:0|0:0,0:0:0:0:
256,192,32864,2,0,L|392:184,1,120,0|8,3:0|0:0,0:0:0:0:
452,232,33426,1,2,0:0:0:0:
460,140,33614,2,0,P|444:92|460:20,1,120,0|8,3:0|0:0,0:0:0:0:
280,72,34364,2,0,L|208:64,2,60,0|0|8,3:0|3:0|0:0,0:0:0:0:
144,192,35114,6,0,L|136:128,2,60,0|2|8,3:0|0:0|0:0,0:0:0:0:
256,336,35864,1,2,0:0:0:0:
368,192,36239,2,0,L|376:128,1,60,8|2,0:0|0:0,0:0:0:0:
200,80,36801,2,0,B|255:45|314:78,1,120,2|2,0:0|0:0,0:0:0:0:
256,248,37551,2,0,L|256:184,1,60,0|8,3:0|0:0,0:0:0:0:
160,344,38114,5,4,3:0:0:0:
80,304,38301,2,0,P|56:248|88:136,1,180,0|0,3:0|3:0,0:0:0:0:
256,88,39239,1,8,0:0:0:0:
392,208,39614,2,0,L|456:200,2,60,0|0|0,3:0|3:0|0:0,0:0:0:0:
312,248,40176,2,0,L|184:232,1,120,2|0,0:0|3:0,0:0:0:0:
112,272,40739,1,8,0:0:0:0:
88,96,41114,5,0,3:0:0:0:
148,28,41301,2,0,P|176:108|120:184,1,180,0|0,3:0|3:0,0:0:0:0:
276,280,42239,1,8,0:0:0:0:
440,216,42614,2,0,L|504:224,2,60,0|0|0,3:0|3:0|0:0,0:0:0:0:
368,160,43176,2,0,L|240:176,1,120,8|0,0:0|3:0,0:0:0:0:
168,136,43739,1,8,0:0:0:0:
88,296,44114,6,0,P|144:280|208:288,1,120,4|8,3:0|0:0,0:0:0:0:
280,336,44676,1,8,0:0:0:0:
356,288,44864,2,0,L|364:168,1,120,0|8,3:0|0:0,0:0:0:0:
232,48,45614,2,0,L|224:168,1,120,0|8,3:0|0:0,0:0:0:0:
152,224,46176,1,8,0:0:0:0:
76,172,46364,2,0,L|4:180,2,60,0|0|8,3:0|3:0|0:0,0:0:0:0:
176,320,47114,6,0,P|232:312|304:320,1,120,0|8,3:0|0:0,0:0:0:0:
464,264,47864,2,0,L|472:336,2,60,0|0|8,3:0|3:0|0:0,0:0:0:0:
376,104,48614,2,0,L|360:248,1,120,0|8,3:0|0:0,0:0:0:0:
184,184,49364,2,0,L|112:192,2,60,0|0|8,3:0|3:0|0:0,0:0:0:0:
256,192,50114,12,4,53114,3:0:0:0:
144,56,54051,6,0,L|136:120,1,60,0|8,3:0|0:0,0:0:0:0:
184,192,54426,2,0,P|240:208|304:192,1,120,2|0,0:0|0:0,0:0:0:0:
352,120,54989,1,8,0:0:0:0:
392,200,55176,2,0,L|384:320,1,120,2|0,0:0|3:0,0:0:0:0:
456,376,55739,1,8,0:0:0:0:
288,304,56114,6,0,L|292:244,2,60,2|0|8,3:0|0:0|0:0,0:0:0:0:
216,360,56676,2,0,P|152:360|112:320,1,120,2|0,3:0|3:0,0:0:0:0:
88,236,57239,1,8,0:0:0:0:
176,256,57426,2,0,L|168:120,1,120,2|0,0:0|0:0,0:0:0:0:
224,64,57989,2,0,P|280:48|344:72,1,120,8|2,0:0|3:0,0:0:0:0:
400,132,58551,2,0,L|392:204,1,60,0|8,3:0|0:0,0:0:0:0:
464,360,59114,6,0,L|336:352,1,120,4|8,3:0|0:0,0:0:0:0:
272,296,59676,2,0,L|144:304,1,120,2|0,3:0|3:0,0:0:0:0:
72,256,60239,1,8,0:0:0:0:
120,180,60426,2,0,P|128:124|120:60,1,120,2|0,0:0|0:0,0:0:0:0:
196,16,60989,1,8,0:0:0:0:
272,64,61176,2,0,L|392:56,1,120,2|0,0:0|3:0,0:0:0:0:
468,104,61739,1,8,0:0:0:0:
392,264,62114,6,0,L|384:192,2,60,0|0|8,3:0|0:0|0:0,0:0:0:0:
328,328,62676,2,0,P|264:336|208:328,1,120,2|0,3:0|3:0,0:0:0:0:
128,288,63239,1,8,0:0:0:0:
40,312,63426,2,0,L|32:192,1,120,2|8,0:0|0:0,0:0:0:0:
28,104,63989,1,8,0:0:0:0:
200,144,64364,2,0,L|128:152,2,60,8|0|8,0:0|3:0|0:0,0:0:0:0:
368,208,65114,6,0,P|424:176|488:196,1,120,4|8,3:0|0:0,0:0:0:0:
440,268,65676,1,0,3:0:0:0:
280,184,66051,2,0,L|272:248,1,60,0|8,3:0|0:0,0:0:0:0:
192,288,66426,2,0,L|177:168,1,120,0|0,3:0|3:0,0:0:0:0:
96,124,66989,2,0,P|136:84|200:84,1,120,8|0,0:0|3:0,0:0:0:0:
276,40,67551,1,0,3:0:0:0:
288,128,67739,2,0,L|408:120,1,120,8|0,0:0|3:0,0:0:0:0:
464,288,68489,6,0,L|472:224,1,60,8|0,0:0|3:0,0:0:0:0:
304,288,69051,2,0,L|311:347,1,60,0|8,3:0|0:0,0:0:0:0:
184,224,69614,2,0,P|120:216|64:256,2,120,0|8|0,3:0|0:0|3:0,0:0:0:0:
260,172,70551,2,0,P|263:143|261:106,1,60,0|8,3:0|0:0,0:0:0:0:
416,20,71114,6,0,L|424:148,1,120,4|8,3:0|0:0,0:0:0:0:
484,208,71676,2,0,P|428:232|372:216,1,120,0|0,3:0|3:0,0:0:0:0:
308,152,72239,1,8,0:0:0:0:
284,240,72426,2,0,L|276:360,1,120,2|0,0:0|3:0,0:0:0:0:
192,320,72989,2,0,P|136:312|72:336,1,120,8|0,0:0|3:0,0:0:0:0:
16,268,73551,2,0,L|8:188,1,60,0|8,3:0|0:0,0:0:0:0:
136,80,74114,6,0,L|128:160,2,60,8|0|0,0:0|3:0|3:0,0:0:0:0:
220,112,74676,2,0,L|228:192,2,60,8|0|0,0:0|3:0|3:0,0:0:0:0:
292,60,75239,1,4,0:0:0:0:
256,192,75614,12,4,77114,3:0:0:0:
136,64,77864,6,0,P|144:128|136:192,1,120,0|8,3:0|0:0,0:0:0:0:
296,264,78614,2,0,P|288:200|296:136,1,120,0|8,3:0|0:0,0:0:0:0:
464,200,79364,2,0,L|472:136,2,60,0|0|8,3:0|3:0|0:0,0:0:0:0:
352,344,80114,6,0,P|296:360|232:344,1,120,2|8,3:0|0:0,0:0:0:0:
176,280,80676,2,0,L|184:160,1,120,2|0,3:0|3:0,0:0:0:0:
268,192,81239,2,0,L|348:184,1,60,8|2,0:0|0:0,0:0:0:0:
400,132,81614,2,0,P|408:84|400:12,1,120,0|8,3:0|0:0,0:0:0:0:
248,112,82364,1,0,3:0:0:0:
72,84,82739,1,8,0:0:0:0:
144,248,83114,6,0,P|200:264|264:248,1,120,4|8,3:0|0:0,0:0:0:0:
440,240,83864,2,0,P|425:183|380:136,1,120,0|8,3:0|0:0,3:0:0:0:
264,8,84614,2,0,P|222:48|204:111,1,120,0|8,3:0|0:0,3:0:0:0:
140,168,85176,2,0,L|12:160,1,120,0|0,3:0|3:0,0:0:0:0:
52,244,85739,2,0,L|44:308,1,60,8|0,0:0|0:0,0:0:0:0:
124,348,86114,6,0,P|180:332|244:348,1,120,2|8,3:0|0:0,0:0:0:0:
316,296,86676,2,0,P|372:312|436:296,1,120,4|0,3:0|3:0,0:0:0:0:
472,220,87239,2,0,L|464:156,1,60,8|4,0:0|3:0,0:0:0:0:
256,192,87520,12,0,89114,0:0:0:0:
