osu file format v13

[General]
AudioFilename: Hikarunara.mp3
AudioLeadIn: 1500
PreviewTime: 53114
Countdown: 0
SampleSet: Soft
StackLeniency: 0.3
Mode: 0
LetterboxInBreaks: 0
WidescreenStoryboard: 0

[Editor]
DistanceSpacing: 1.1
BeatDivisor: 4
GridSize: 8
TimelineZoom: 1

[Metadata]
Title:Hikaru nara -TV size-
TitleUnicode:光るなら -TV size-
Artist:Goose house
ArtistUnicode:Goose house
Creator:No_Gu
Version:Hard
Source:四月は君の嘘
Tags:Shigatsu wa Kimi no Uso
BeatmapID:519272
BeatmapSetID:221358

[Difficulty]
HPDrainRate:6
CircleSize:4
OverallDifficulty:6
ApproachRate:8
SliderMultiplier:1.44
SliderTickRate:1

[Events]
//Background and Video events
0,0,"BG.jpg",0,0
//Break Periods
//Storyboard Layer 0 (Background)
//Storyboard Layer 1 (Fail)
//Storyboard Layer 2 (Pass)
//Storyboard Layer 3 (Foreground)
//Storyboard Sound Samples
//Background Colour Transformations
3,100,163,162,255

[TimingPoints]
614,375,4,2,1,50,1,0
614,-133.333333333333,4,2,1,50,0,0
3426,-133.333333333333,4,2,1,70,0,0
5114,-100,4,2,1,70,0,0
12614,-133.333333333333,4,2,1,70,0,0
14114,-100,4,2,1,85,0,0
38114,-133.333333333333,4,2,1,85,0,0
47114,-100,4,2,1,85,0,0
53114,-100,4,2,1,95,0,1
65020,-100,4,2,1,95,0,0
65114,-100,4,2,1,95,0,1
74114,-100,4,2,1,95,0,0
77114,-100,4,2,1,95,0,1
87332,-100,4,2,1,95,0,0
87426,-100,4,2,1,95,0,1
87520,-100,4,2,1,5,0,0

[Colours]
Combo1 : 128,255,128
Combo2 : 255,255,128
Combo3 : 255,128,128
Combo4 : 128,255,255

[HitObjects]
96,64,614,6,0,L|38:67,2,54.0000020599366,2|0|0,0:0|0:0|0:0,0:0:0:0:
168,115,1176,2,0,P|179:168|168:224,1,108.000004119873,2|0,0:0|0:0,0:0:0:0:
224,295,1739,1,0,0:0:0:0:
308,256,1926,6,0,L|421:262,1,108.000004119873,2|0,0:0|0:0,0:0:0:0:
487,202,2489,1,0,0:0:0:0:
406,174,2676,1,2,0:0:0:0:
406,174,3426,6,0,L|410:140,2,27.0000010299683,0|0|4,0:0|0:0|0:0,0:0:0:0:
334,241,3801,2,0,P|296:245|256:241,1,54.0000020599366,0|2,3:0|0:0,0:0:0:0:
192,211,4176,2,0,P|154:207|114:211,1,54.0000020599366,0|2,3:0|0:0,0:0:0:0:
63,252,4551,1,0,0:0:0:0:
1,191,4739,2,0,L|-2:162,2,27.0000010299683,8|0|0,0:0|3:0|3:0,0:0:0:0:
37,335,5114,6,0,P|77:339|114:334,1,72,4|0,3:0|0:0,0:0:0:0:
186,274,5489,1,8,0:0:0:0:
266,331,5676,2,0,L|271:184,1,144,2|0,0:0|3:0,0:0:0:0:
202,129,6239,1,8,0:0:0:0:
182,216,6426,6,0,P|108:228|54:189,1,144,2|0,0:0|0:0,0:0:0:0:
33,104,6989,1,8,0:0:0:0:
121,54,7176,2,0,P|125:97|121:128,1,72,0|0,3:0|0:0,0:0:0:0:
221,167,7551,2,0,P|217:124|221:93,1,72,0|8,3:0|0:0,0:0:0:0:
295,40,7926,6,0,L|441:42,1,144,2|0,0:0|0:0,0:0:0:0:
501,123,8489,1,8,0:0:0:0:
443,207,8676,2,0,L|299:205,1,144,2|0,0:0|3:0,0:0:0:0:
219,257,9239,1,8,0:0:0:0:
129,225,9426,6,0,P|106:171|127:90,1,144,2|0,0:0|0:0,0:0:0:0:
212,48,9989,2,0,L|288:52,1,72,8|0,0:0|3:0,0:0:0:0:
356,108,10364,1,2,0:0:0:0:
441,74,10551,2,0,P|446:37|440:1,2,72,0|8|0,3:0|0:0|0:0,0:0:0:0:
428,169,11114,6,0,L|431:246,1,72,0|0,1:0|1:0,0:0:0:0:
355,301,11489,1,2,0:0:0:0:
269,251,11676,2,0,L|266:179,1,72,0|0,1:0|1:0,0:0:0:0:
240,155,12239,2,0,L|242:226,1,72,0|4,1:0|1:0,0:0:0:0:
192,306,12614,6,0,P|159:325|87:314,1,108.000004119873,4|2,3:0|0:0,0:0:0:0:
30,248,13176,1,8,0:0:0:0:
82,171,13364,2,8,L|75:107,1,54.0000020599366
180,51,13739,2,8,L|173:115,1,54.0000020599366
235,176,14114,6,0,P|296:203|368:177,1,144,4|8,3:0|0:0,0:0:0:0:
420,98,14676,1,0,0:0:0:0:
463,186,14864,2,0,L|458:259,2,72,0|0|8,3:0|3:0|0:0,0:0:0:0:
299,105,15614,6,0,L|304:254,1,144,0|8,3:0|0:0,0:0:0:0:
237,319,16176,1,0,0:0:0:0:
151,286,16364,2,0,L|74:297,2,72,0|0|8,3:0|3:0|0:0,0:0:0:0:
369,249,17114,6,0,L|215:227,1,144,0|8,3:0|0:0,0:0:0:0:
153,169,17676,1,0,0:0:0:0:
204,95,17864,2,0,L|197:17,2,72,0|0|8,3:0|3:0|0:0,0:0:0:0:
285,146,18426,1,0,0:0:0:0:
360,95,18614,6,0,P|421:72|499:100,1,144,0|8,3:0|0:0,0:0:0:0:
450,171,19176,2,0,L|456:246,1,72,2|0,0:0|3:0,0:0:0:0:
352,303,19551,2,0,L|346:228,1,72,0|8,3:0|0:0,0:0:0:0:
77,60,20114,6,0,P|64:94|62:138,1,72,0|0,3:0|0:0,0:0:0:0:
160,114,20489,2,0,P|165:149|186:189,1,72,8|0,0:0|0:0,0:0:0:0:
256,121,20864,2,0,P|278:149|316:172,2,72,0|0|8,3:0|3:0|0:0,0:0:0:0:
461,194,21614,6,0,P|470:272|425:323,1,144,0|8,3:0|0:0,0:0:0:0:
336,336,22176,1,0,0:0:0:0:
246,308,22364,2,0,L|172:315,2,72,0|0|8,3:0|3:0|0:0,0:0:0:0:
355,98,23114,6,0,L|371:244,1,144,0|8,3:0|0:0,0:0:0:0:
295,309,23676,1,0,0:0:0:0:
197,282,23864,2,0,L|116:288,1,72,0|0,3:0|3:0,0:0:0:0:
40,232,24239,2,0,P|31:197|37:155,1,72,8|2,0:0|0:0,0:0:0:0:
110,95,24614,6,0,L|270:93,1,144,0|8,3:0|0:0,0:0:0:0:
336,32,25176,2,0,L|343:103,1,72,2|0,0:0|3:0,0:0:0:0:
432,51,25551,2,0,L|425:122,1,72,0|8,3:0|0:0,0:0:0:0:
426,340,26114,6,0,P|363:311|285:331,1,144,0|8,3:0|0:0,0:0:0:0:
210,361,26676,1,0,0:0:0:0:
142,302,26864,2,0,L|137:224,2,72,0|0|8,3:0|3:0|0:0,0:0:0:0:
397,262,27614,6,0,L|407:106,1,144,0|8,3:0|0:0,0:0:0:0:
328,64,28176,2,0,P|292:56|247:60,1,72,2|0,0:0|3:0,0:0:0:0:
172,106,28551,2,0,P|135:112|94:107,1,72,0|8,3:0|0:0,0:0:0:0:
30,280,29114,6,0,L|178:272,1,144,0|8,3:0|0:0,0:0:0:0:
255,326,29676,1,0,0:0:0:0:
336,275,29864,2,0,P|343:240|334:196,2,72,0|0|8,3:0|3:0|0:0,0:0:0:0:
470,183,30614,6,0,L|466:39,1,144,0|8,3:0|0:0,0:0:0:0:
375,79,31176,1,0,0:0:0:0:
284,42,31364,2,0,L|206:45,2,72,0|0|8,3:0|3:0|0:0,0:0:0:0:
180,209,32114,6,0,L|323:203,1,144,0|8,3:0|0:0,0:0:0:0:
406,256,32676,1,0,0:0:0:0:
485,211,32864,2,0,P|491:180|486:134,1,72,0|0,3:0|3:0,0:0:0:0:
396,40,33239,2,0,P|388:93|396:154,1,108,8|2,0:0|0:0,0:0:0:0:
394,146,33614,6,0,L|246:144,1,144,0|8,3:0|0:0,0:0:0:0:
288,228,34176,2,0,L|213:226,1,72,2|0,0:0|3:0,0:0:0:0:
260,314,34551,2,0,L|185:312,1,72,0|8,3:0|0:0,0:0:0:0:
46,57,35114,5,0,3:0:0:0:
110,128,35301,2,0,L|105:203,1,72,2|8,0:0|0:0,0:0:0:0:
46,57,35864,1,0,3:0:0:0:
139,34,36051,2,0,P|182:30|219:32,1,72,0|8,3:0|0:0,0:0:0:0:
281,98,36426,6,0,L|273:257,1,144,2|8,0:0|0:0,0:0:0:0:
190,296,36989,1,8,0:0:0:0:
108,251,37176,2,0,L|28:255,1,72,0|8,3:0|0:0,0:0:0:0:
112,160,37551,2,0,L|192:164,1,72,0|8,3:0|0:0,0:0:0:0:
280,224,37926,1,0,0:0:0:0:
280,224,38020,1,0,0:0:0:0:
280,224,38114,6,0,L|289:167,2,54.0000020599366,4|0|0,3:0|3:0|0:0,0:0:0:0:
205,280,38676,1,0,0:0:0:0:
116,249,38864,2,0,P|61:240|5:253,1,108.000004119873,0|8,3:0|0:0,0:0:0:0:
102,79,39614,6,0,L|98:20,2,54.0000020599366,0|0|0,3:0|3:0|0:0,0:0:0:0:
179,134,40176,1,2,0:0:0:0:
259,87,40364,2,0,P|302:83|336:87,1,54.0000020599366,0|0,0:0|3:0,0:0:0:0:
389,140,40739,2,0,L|387:262,1,108.000004119873,8|0,0:0|3:0,0:0:0:0:
312,304,41301,5,0,3:0:0:0:
231,257,41489,1,0,0:0:0:0:
157,317,41676,2,0,L|39:314,1,108.000004119873,0|0,3:0|0:0,0:0:0:0:
17,235,42239,2,0,P|0:186|15:119,1,108.000004119873,8|0,0:0|3:0,0:0:0:0:
77,62,42801,5,0,3:0:0:0:
152,125,42989,1,0,0:0:0:0:
234,71,43176,2,0,L|350:75,1,108.000004119873,8|0,0:0|3:0,0:0:0:0:
441,80,43739,1,8,0:0:0:0:
392,256,44114,6,0,L|450:252,2,54.0000020599366,4|0|8,3:0|0:0|0:0,0:0:0:0:
210,308,44864,2,0,L|152:304,2,54.0000020599366,0|0|8,3:0|3:0|0:0,0:0:0:0:
244,125,45614,6,0,L|239:60,1,54.0000020599366,0|0,3:0|3:0,0:0:0:0:
163,104,45989,2,0,L|126:50,1,54.0000020599366,8|8,0:0|0:0,0:0:0:0:
84,126,46364,2,0,L|25:97,1,54.0000020599366,0|0,3:0|3:0,0:0:0:0:
25,191,46739,2,0,P|17:246|28:300,1,108.000004119873,8|0,0:0|3:0,0:0:0:0:
171,358,47489,5,8,0:0:0:0:
324,319,47864,2,0,L|402:323,2,72,0|0|8,3:0|3:0|0:0,0:0:0:0:
166,240,48614,6,0,L|88:244,2,72,0|0|8,3:0|0:0|0:0,0:0:0:0:
301,123,49364,2,0,L|379:127,2,72,0|0|8,3:0|3:0|0:0,0:0:0:0:
214,169,49926,1,2,0:0:0:0:
130,117,50114,6,0,P|125:73|131:36,1,72,8|0,0:0|3:0,0:0:0:0:
214,169,50676,5,0,3:0:0:0:
126,219,50864,1,8,0:0:0:0:
298,169,51239,1,0,3:0:0:0:
386,219,51427,1,12,0:0:0:0:
187,324,51801,6,0,L|111:314,2,72,0|8|2,3:0|0:0|0:0,0:0:0:0:
280,291,52364,2,0,P|283:253|279:215,1,72,8|0,0:0|3:0,0:0:0:0:
184,96,52739,2,0,P|181:134|185:172,1,72,8|0,0:0|3:0,0:0:0:0:
269,132,53114,6,0,L|349:134,1,72,4|2,3:0|0:0,0:0:0:0:
421,77,53489,1,8,0:0:0:0:
494,140,53676,2,0,P|508:209|483:287,1,144,2|0,3:0|3:0,0:0:0:0:
396,323,54239,1,8,0:0:0:0:
305,286,54426,6,0,L|161:294,1,144,2|0,0:0|0:0,0:0:0:0:
83,347,54989,1,8,0:0:0:0:
12,291,55176,2,0,P|4:255|3:212,1,72,2|0,0:0|3:0,0:0:0:0:
84,131,55551,2,0,P|92:167|93:210,1,72,0|8,3:0|0:0,0:0:0:0:
271,290,56114,6,0,L|195:285,2,72,0|0|8,3:0|0:0|0:0,0:0:0:0:
351,338,56676,2,0,P|366:276|354:197,1,144,2|0,3:0|3:0,0:0:0:0:
274,138,57239,1,8,0:0:0:0:
200,199,57426,6,0,L|49:192,1,144,2|2,0:0|0:0,0:0:0:0:
88,112,57989,2,0,L|83:39,1,72,8|0,0:0|0:0,0:0:0:0:
187,13,58364,2,0,L|182:86,1,72,0|2,3:0|0:0,0:0:0:0:
274,138,58739,2,0,L|279:65,1,72,8|2,0:0|0:0,0:0:0:0:
352,184,59114,6,0,P|318:226|231:223,1,144,4|8,3:0|0:0,0:0:0:0:
154,157,59676,2,0,L|146:309,1,144,2|0,3:0|3:0,0:0:0:0:
228,351,60239,1,8,0:0:0:0:
311,306,60426,6,0,P|364:291|439:344,1,144,2|0,0:0|0:0,0:0:0:0:
496,264,60989,2,0,P|501:231|498:192,1,72,8|0,0:0|0:0,0:0:0:0:
425,135,61364,2,0,P|420:102|423:63,1,72,0|0,3:0|3:0,0:0:0:0:
496,7,61739,1,8,0:0:0:0:
267,132,62114,5,0,3:0:0:0:
248,42,62301,1,0,0:0:0:0:
336,23,62489,1,8,0:0:0:0:
355,113,62676,2,0,L|346:261,1,144,2|0,3:0|0:0,0:0:0:0:
260,305,63239,1,8,0:0:0:0:
181,251,63426,6,0,P|146:247|106:253,1,72,2|0,0:0|3:0,0:0:0:0:
29,314,63801,1,8,0:0:0:0:
10,222,63989,2,0,L|19:139,1,72,8|2,0:0|0:0,0:0:0:0:
97,89,64364,1,8,0:0:0:0:
185,136,64551,1,0,3:0:0:0:
185,136,64645,1,0,3:0:0:0:
185,136,64739,2,0,L|269:132,1,72,8|2,0:0|0:0,0:0:0:0:
376,185,65114,6,0,L|380:113,2,72,4|2|8,3:0|0:0|0:0,0:0:0:0:
307,257,65676,2,0,P|245:278|166:257,1,144,2|2,3:0|0:0,0:0:0:0:
80,284,66239,1,8,0:0:0:0:
19,213,66426,6,0,L|33:58,1,144,2|0,0:0|0:0,0:0:0:0:
108,27,66989,1,8,0:0:0:0:
181,84,67176,1,2,0:0:0:0:
268,42,67364,2,0,L|348:43,2,72,0|0|8,3:0|3:0|0:0,0:0:0:0:
264,138,67926,1,0,0:0:0:0:
181,84,68114,6,0,L|109:83,1,72,0|0,3:0|0:0,0:0:0:0:
35,152,68489,1,8,0:0:0:0:
128,182,68676,2,0,P|141:259|119:324,1,144,2|0,3:0|3:0,0:0:0:0:
217,301,69239,1,8,0:0:0:0:
303,348,69426,6,0,L|450:342,1,144,2|0,0:0|0:0,0:0:0:0:
498,263,69989,2,0,P|500:222|495:188,1,72,8|0,0:0|0:0,0:0:0:0:
427,130,70364,2,0,P|425:89|430:55,2,72,0|0|8,3:0|3:0|0:0,0:0:0:0:
345,196,70926,1,2,0:0:0:0:
252,152,71114,6,0,L|177:154,1,72,4|0,3:0|0:0,0:0:0:0:
86,104,71489,1,8,0:0:0:0:
25,187,71676,2,0,P|12:260|42:323,1,144,2|0,3:0|3:0,0:0:0:0:
121,273,72239,1,8,0:0:0:0:
193,335,72426,6,0,L|347:330,1,144,2|0,0:0|0:0,0:0:0:0:
428,358,72989,1,8,0:0:0:0:
494,294,73176,2,0,P|498:258|494:221,1,72,2|0,0:0|3:0,0:0:0:0:
402,162,73551,2,0,P|398:198|402:235,1,72,0|8,3:0|0:0,0:0:0:0:
145,251,74114,6,0,L|65:255,2,72,8|0|0,0:0|3:0|3:0,0:0:0:0:
235,206,74676,2,0,L|315:210,2,72,8|0|0,0:0|3:0|3:0,0:0:0:0:
159,152,75239,2,0,P|135:101|156:18,1,144,4|0,0:0|3:0,0:0:0:0:
235,67,75801,5,2,0:0:0:0:
323,29,75989,2,0,L|405:31,1,72,8|0,0:0|3:0,0:0:0:0:
421,127,76364,2,0,L|339:125,1,72,2|0,0:0|3:0,0:0:0:0:
317,219,76739,2,0,L|399:221,1,72,8|0,0:0|0:0,0:0:0:0:
328,301,77114,6,0,P|270:298|230:226,1,144,4|8,3:0|0:0,0:0:0:0:
264,140,77676,1,0,3:0:0:0:
147,199,77864,2,0,P|109:202|66:200,1,72,0|0,0:0|3:0,0:0:0:0:
72,71,78239,2,0,P|110:68|153:70,1,72,8|0,0:0|0:0,0:0:0:0:
243,47,78614,6,0,L|399:40,2,144,0|8|0,3:0|0:0|3:0,0:0:0:0:
284,128,79551,2,0,L|277:201,1,72,0|8,3:0|0:0,0:0:0:0:
121,290,80114,6,0,L|114:217,2,72,2|0|8,3:0|0:0|0:0,0:0:0:0:
201,342,80676,2,0,P|266:322|342:339,1,144,2|0,3:0|3:0,0:0:0:0:
437,346,81239,1,8,0:0:0:0:
489,266,81426,1,2,0:0:0:0:
435,182,81614,6,0,L|439:104,1,72,0|0,0:0|3:0,0:0:0:0:
368,48,81989,2,0,P|304:23|231:46,1,144,8|0,0:0|3:0,0:0:0:0:
176,120,82551,1,0,3:0:0:0:
88,80,82739,2,0,P|81:47|86:9,1,72,8|0,0:0|0:0,0:0:0:0:
94,173,83114,6,0,P|108:251|92:315,1,144,4|8,3:0|0:0,0:0:0:0:
191,302,83676,1,0,0:0:0:0:
275,352,83864,2,0,L|352:348,1,72,0|0,3:0|3:0,0:0:0:0:
404,259,84239,2,0,L|260:251,1,144,8|0,0:0|3:0,0:0:0:0:
192,184,84801,6,0,P|190:147|194:110,1,72,2|8,0:0|0:0,0:0:0:0:
296,32,85176,2,0,P|300:106|292:180,1,144,2|0,3:0|3:0,0:0:0:0:
376,152,85739,2,0,L|449:156,1,72,8|0,0:0|0:0,0:0:0:0:
424,248,86114,6,0,L|497:244,2,72,0|0|8,3:0|0:0|0:0,0:0:0:0:
352,306,86676,2,0,P|289:279|210:300,1,144,4|2,3:0|3:0,0:0:0:0:
144,360,87239,1,8,0:0:0:0:
176,200,87426,1,4,3:0:0:0:
256,192,87520,12,0,89114,0:0:0:0:
