osu file format v14

[General]
AudioFilename: Hikarunara.mp3
AudioLeadIn: 0
PreviewTime: 53114
Countdown: 0
SampleSet: Soft
StackLeniency: 0.7
Mode: 3
LetterboxInBreaks: 0
SpecialStyle: 0
WidescreenStoryboard: 1

[Editor]
DistanceSpacing: 1.1
BeatDivisor: 4
GridSize: 8
TimelineZoom: 1

[Metadata]
Title:Hikaru nara -TV size-
TitleUnicode:光るなら -TV size-
Artist:Goose house
ArtistUnicode:Goose house
Creator:Maou - sama
Version:NM
Source:四月は君の嘘
Tags:Shigatsu wa Kimi no Uso
BeatmapID:662290
BeatmapSetID:294589

[Difficulty]
HPDrainRate:7
CircleSize:4
OverallDifficulty:7
ApproachRate:5
SliderMultiplier:1.4
SliderTickRate:1

[Events]
//Background and Video events
0,0,"zenchan.jpg",0,0
//Break Periods
//Storyboard Layer 0 (Background)
//Storyboard Layer 1 (Fail)
//Storyboard Layer 2 (Pass)
//Storyboard Layer 3 (Foreground)
//Storyboard Sound Samples

[TimingPoints]
614,375,4,2,0,90,1,0

[HitObjects]
448,192,614,5,0,0:0:0:0:
192,192,801,1,0,0:0:0:0:
64,192,989,1,0,0:0:0:0:
320,192,1176,1,0,0:0:0:0:
448,192,1551,1,0,0:0:0:0:
320,192,1739,1,0,0:0:0:0:
64,192,1926,1,0,0:0:0:0:
448,192,2301,1,0,0:0:0:0:
192,192,2489,1,0,0:0:0:0:
64,192,2676,1,0,0:0:0:0:
448,192,3426,1,0,0:0:0:0:
64,192,3614,1,0,0:0:0:0:
448,192,3614,1,0,0:0:0:0:
448,192,3801,1,0,0:0:0:0:
448,192,3989,1,0,0:0:0:0:
64,192,3989,1,0,0:0:0:0:
320,192,4176,1,0,0:0:0:0:
192,192,4364,1,0,0:0:0:0:
448,192,4551,1,0,0:0:0:0:
320,192,4551,1,0,0:0:0:0:
192,192,4739,1,0,0:0:0:0:
64,192,4739,1,0,0:0:0:0:
448,192,5114,1,0,0:0:0:0:
192,192,5301,1,0,0:0:0:0:
320,192,5489,1,0,0:0:0:0:
64,192,5489,1,0,0:0:0:0:
192,192,5676,1,0,0:0:0:0:
448,192,5864,1,0,0:0:0:0:
448,192,6051,1,0,0:0:0:0:
192,192,6239,1,0,0:0:0:0:
64,192,6239,1,0,0:0:0:0:
320,192,6426,1,0,0:0:0:0:
448,192,6614,1,0,0:0:0:0:
64,192,6614,1,0,0:0:0:0:
320,192,6801,1,0,0:0:0:0:
64,192,6989,1,0,0:0:0:0:
192,192,6989,1,0,0:0:0:0:
448,192,7176,1,0,0:0:0:0:
64,192,7364,1,0,0:0:0:0:
64,192,7551,1,0,0:0:0:0:
320,192,7739,1,0,0:0:0:0:
448,192,7739,1,0,0:0:0:0:
192,192,7926,1,0,0:0:0:0:
64,192,8114,1,0,0:0:0:0:
448,192,8114,128,0,8489:0:0:0:0:
192,192,8301,1,0,0:0:0:0:
64,192,8489,1,0,0:0:0:0:
320,192,8489,1,0,0:0:0:0:
192,192,8676,1,0,0:0:0:0:
320,192,8864,1,0,0:0:0:0:
64,192,9051,1,0,0:0:0:0:
320,192,9239,1,0,0:0:0:0:
448,192,9239,1,0,0:0:0:0:
64,192,9426,1,0,0:0:0:0:
448,192,9614,1,0,0:0:0:0:
192,192,9801,1,0,0:0:0:0:
320,192,9989,1,0,0:0:0:0:
64,192,10176,1,0,0:0:0:0:
320,192,10364,1,0,0:0:0:0:
192,192,10551,1,0,0:0:0:0:
64,192,10739,1,0,0:0:0:0:
448,192,10739,1,0,0:0:0:0:
64,192,11114,1,0,0:0:0:0:
320,192,11114,1,0,0:0:0:0:
320,192,11301,1,0,0:0:0:0:
64,192,11301,1,0,0:0:0:0:
448,192,11676,1,0,0:0:0:0:
64,192,11676,1,0,0:0:0:0:
320,192,11864,1,0,0:0:0:0:
192,192,11864,1,0,0:0:0:0:
64,192,12239,1,0,0:0:0:0:
192,192,12239,1,0,0:0:0:0:
320,192,12426,1,0,0:0:0:0:
448,192,12426,1,0,0:0:0:0:
192,192,12614,1,0,0:0:0:0:
448,192,12989,1,0,0:0:0:0:
320,192,13176,1,0,0:0:0:0:
64,192,13551,1,0,0:0:0:0:
320,192,13739,1,0,0:0:0:0:
192,192,13926,1,0,0:0:0:0:
320,192,14114,1,0,0:0:0:0:
448,192,14114,1,0,0:0:0:0:
192,192,14489,1,0,0:0:0:0:
320,192,14864,1,0,0:0:0:0:
64,192,15051,1,0,0:0:0:0:
320,192,15239,1,0,0:0:0:0:
64,192,15426,1,0,0:0:0:0:
448,192,15614,1,0,0:0:0:0:
320,192,15614,128,0,15989:0:0:0:0:
64,192,15989,1,0,0:0:0:0:
448,192,16364,1,0,0:0:0:0:
448,192,16551,1,0,0:0:0:0:
192,192,16739,1,0,0:0:0:0:
64,192,16739,1,0,0:0:0:0:
64,192,17114,1,0,0:0:0:0:
320,192,17114,128,0,17489:0:0:0:0:
64,192,17489,1,0,0:0:0:0:
448,192,17489,1,0,0:0:0:0:
64,192,17864,1,0,0:0:0:0:
64,192,18051,1,0,0:0:0:0:
320,192,18239,1,0,0:0:0:0:
448,192,18239,1,0,0:0:0:0:
64,192,18426,1,0,0:0:0:0:
320,192,18614,1,0,0:0:0:0:
64,192,18801,1,0,0:0:0:0:
320,192,18989,1,0,0:0:0:0:
448,192,18989,1,0,0:0:0:0:
192,192,19176,1,0,0:0:0:0:
448,192,19364,1,0,0:0:0:0:
448,192,19551,1,0,0:0:0:0:
64,192,19739,1,0,0:0:0:0:
192,192,19739,1,0,0:0:0:0:
320,192,19926,1,0,0:0:0:0:
448,192,20114,1,0,0:0:0:0:
64,192,20114,128,0,20489:0:0:0:0:
192,192,20489,1,0,0:0:0:0:
448,192,20489,1,0,0:0:0:0:
448,192,20864,1,0,0:0:0:0:
448,192,21051,1,0,0:0:0:0:
192,192,21239,1,0,0:0:0:0:
64,192,21239,1,0,0:0:0:0:
192,192,21614,128,0,21989:0:0:0:0:
448,192,21614,1,0,0:0:0:0:
64,192,21989,1,0,0:0:0:0:
448,192,21989,1,0,0:0:0:0:
320,192,22364,1,0,0:0:0:0:
192,192,22551,1,0,0:0:0:0:
320,192,22739,1,0,0:0:0:0:
64,192,22739,1,0,0:0:0:0:
64,192,23114,1,0,0:0:0:0:
448,192,23114,1,0,0:0:0:0:
448,192,23489,128,0,24239:0:0:0:0:
64,192,23489,1,0,0:0:0:0:
320,192,23864,1,0,0:0:0:0:
320,192,24051,1,0,0:0:0:0:
64,192,24239,1,0,0:0:0:0:
192,192,24426,128,0,24614:0:0:0:0:
448,192,24801,128,0,24989:0:0:0:0:
320,192,25176,128,0,25364:0:0:0:0:
64,192,25551,128,0,26114:0:0:0:0:
192,192,26114,1,0,0:0:0:0:
448,192,26114,128,0,26489:0:0:0:0:
320,192,26489,1,0,0:0:0:0:
64,192,26489,1,0,0:0:0:0:
192,192,26864,1,0,0:0:0:0:
320,192,27051,1,0,0:0:0:0:
192,192,27239,1,0,0:0:0:0:
448,192,27239,1,0,0:0:0:0:
448,192,27614,128,0,27989:0:0:0:0:
64,192,27614,1,0,0:0:0:0:
320,192,27989,1,0,0:0:0:0:
64,192,27989,1,0,0:0:0:0:
192,192,28176,1,0,0:0:0:0:
448,192,28364,1,0,0:0:0:0:
192,192,28551,1,0,0:0:0:0:
320,192,28739,1,0,0:0:0:0:
64,192,28739,1,0,0:0:0:0:
448,192,29114,128,0,29489:0:0:0:0:
64,192,29114,1,0,0:0:0:0:
320,192,29489,1,0,0:0:0:0:
64,192,29489,1,0,0:0:0:0:
64,192,29864,1,0,0:0:0:0:
64,192,30051,1,0,0:0:0:0:
320,192,30239,1,0,0:0:0:0:
448,192,30239,1,0,0:0:0:0:
192,192,30614,128,0,30989:0:0:0:0:
64,192,30614,1,0,0:0:0:0:
320,192,30989,1,0,0:0:0:0:
448,192,30989,1,0,0:0:0:0:
448,192,31364,1,0,0:0:0:0:
448,192,31551,1,0,0:0:0:0:
192,192,31739,1,0,0:0:0:0:
64,192,31739,1,0,0:0:0:0:
320,192,31926,1,0,0:0:0:0:
448,192,32114,1,0,0:0:0:0:
192,192,32114,1,0,0:0:0:0:
448,192,32489,1,0,0:0:0:0:
192,192,32676,1,0,0:0:0:0:
320,192,32864,1,0,0:0:0:0:
64,192,32864,1,0,0:0:0:0:
448,192,33051,1,0,0:0:0:0:
448,192,33239,1,0,0:0:0:0:
192,192,33426,1,0,0:0:0:0:
64,192,33614,1,0,0:0:0:0:
320,192,33614,1,0,0:0:0:0:
320,192,33989,1,0,0:0:0:0:
448,192,33989,1,0,0:0:0:0:
64,192,34364,1,0,0:0:0:0:
320,192,34551,1,0,0:0:0:0:
192,192,34739,1,0,0:0:0:0:
448,192,34739,1,0,0:0:0:0:
448,192,35114,1,0,0:0:0:0:
320,192,35114,128,0,35301:0:0:0:0:
192,192,35301,1,0,0:0:0:0:
64,192,35489,128,0,35676:0:0:0:0:
448,192,35864,128,0,36051:0:0:0:0:
192,192,36239,128,0,36426:0:0:0:0:
64,192,36426,128,0,36614:0:0:0:0:
448,192,36801,128,0,36989:0:0:0:0:
320,192,37176,128,0,37364:0:0:0:0:
64,192,37551,128,0,38114:0:0:0:0:
448,192,37739,1,0,0:0:0:0:
320,192,37926,1,0,0:0:0:0:
192,192,38114,1,0,0:0:0:0:
448,192,38114,1,0,0:0:0:0:
320,192,38301,1,0,0:0:0:0:
64,192,38489,1,0,0:0:0:0:
448,192,38676,1,0,0:0:0:0:
192,192,38864,1,0,0:0:0:0:
448,192,39051,1,0,0:0:0:0:
64,192,39239,1,0,0:0:0:0:
192,192,39239,1,0,0:0:0:0:
320,192,39614,1,0,0:0:0:0:
320,192,39801,1,0,0:0:0:0:
64,192,39989,1,0,0:0:0:0:
192,192,40176,1,0,0:0:0:0:
320,192,40551,1,0,0:0:0:0:
192,192,40739,1,0,0:0:0:0:
448,192,40739,1,0,0:0:0:0:
192,192,41114,1,0,0:0:0:0:
448,192,41301,1,0,0:0:0:0:
64,192,41489,1,0,0:0:0:0:
320,192,41676,1,0,0:0:0:0:
448,192,41864,1,0,0:0:0:0:
64,192,42239,1,0,0:0:0:0:
320,192,42239,1,0,0:0:0:0:
448,192,42614,1,0,0:0:0:0:
448,192,42801,1,0,0:0:0:0:
64,192,42989,1,0,0:0:0:0:
320,192,43176,1,0,0:0:0:0:
448,192,43551,1,0,0:0:0:0:
192,192,43739,1,0,0:0:0:0:
64,192,43739,1,0,0:0:0:0:
448,192,43926,128,0,44114:0:0:0:0:
64,192,44114,1,0,0:0:0:0:
320,192,44114,1,0,0:0:0:0:
192,192,44301,1,0,0:0:0:0:
320,192,44489,1,0,0:0:0:0:
448,192,44676,1,0,0:0:0:0:
64,192,44864,1,0,0:0:0:0:
192,192,44864,1,0,0:0:0:0:
320,192,45051,1,0,0:0:0:0:
448,192,45239,1,0,0:0:0:0:
192,192,45239,1,0,0:0:0:0:
64,192,45614,1,0,0:0:0:0:
64,192,45801,1,0,0:0:0:0:
320,192,45989,1,0,0:0:0:0:
448,192,45989,1,0,0:0:0:0:
64,192,46176,1,0,0:0:0:0:
320,192,46364,1,0,0:0:0:0:
192,192,46551,1,0,0:0:0:0:
64,192,46739,1,0,0:0:0:0:
320,192,46739,1,0,0:0:0:0:
64,192,47114,1,0,0:0:0:0:
320,192,47114,1,0,0:0:0:0:
448,192,47489,128,0,47864:0:0:0:0:
64,192,47489,1,0,0:0:0:0:
64,192,47864,1,0,0:0:0:0:
192,192,48051,1,0,0:0:0:0:
320,192,48239,1,0,0:0:0:0:
64,192,48239,1,0,0:0:0:0:
448,192,48614,1,0,0:0:0:0:
192,192,48801,1,0,0:0:0:0:
320,192,48989,1,0,0:0:0:0:
64,192,48989,1,0,0:0:0:0:
192,192,49364,1,0,0:0:0:0:
320,192,49551,1,0,0:0:0:0:
448,192,49739,1,0,0:0:0:0:
192,192,49739,1,0,0:0:0:0:
64,192,50114,1,0,0:0:0:0:
448,192,50114,1,0,0:0:0:0:
448,192,50301,1,0,0:0:0:0:
64,192,50301,1,0,0:0:0:0:
320,192,50676,1,0,0:0:0:0:
192,192,50676,1,0,0:0:0:0:
448,192,50864,1,0,0:0:0:0:
64,192,50864,1,0,0:0:0:0:
448,192,51239,128,0,51426:0:0:0:0:
64,192,51426,128,0,53114:0:0:0:0:
320,192,51426,1,0,0:0:0:0:
320,192,51801,1,0,0:0:0:0:
192,192,51989,1,0,0:0:0:0:
448,192,52176,1,0,0:0:0:0:
320,192,52364,1,0,0:0:0:0:
192,192,52551,1,0,0:0:0:0:
448,192,52739,1,0,0:0:0:0:
320,192,52926,1,0,0:0:0:0:
192,192,53114,1,0,0:0:0:0:
448,192,53114,1,0,0:0:0:0:
320,192,53301,1,0,0:0:0:0:
192,192,53489,1,0,0:0:0:0:
448,192,53489,1,0,0:0:0:0:
64,192,53676,1,0,0:0:0:0:
320,192,53864,1,0,0:0:0:0:
192,192,54051,1,0,0:0:0:0:
448,192,54239,1,0,0:0:0:0:
320,192,54239,1,0,0:0:0:0:
64,192,54426,1,0,0:0:0:0:
320,192,54614,1,0,0:0:0:0:
192,192,54801,1,0,0:0:0:0:
64,192,54989,1,0,0:0:0:0:
448,192,54989,1,0,0:0:0:0:
320,192,55364,1,0,0:0:0:0:
192,192,55551,1,0,0:0:0:0:
64,192,55551,1,0,0:0:0:0:
320,192,55739,1,0,0:0:0:0:
448,192,55739,1,0,0:0:0:0:
320,192,56114,1,0,0:0:0:0:
64,192,56114,1,0,0:0:0:0:
192,192,56301,1,0,0:0:0:0:
320,192,56489,1,0,0:0:0:0:
448,192,56489,1,0,0:0:0:0:
64,192,56676,1,0,0:0:0:0:
320,192,56864,1,0,0:0:0:0:
192,192,57051,1,0,0:0:0:0:
320,192,57239,1,0,0:0:0:0:
448,192,57239,1,0,0:0:0:0:
64,192,57614,1,0,0:0:0:0:
320,192,57614,1,0,0:0:0:0:
448,192,57801,1,0,0:0:0:0:
192,192,57989,1,0,0:0:0:0:
64,192,57989,1,0,0:0:0:0:
320,192,58176,1,0,0:0:0:0:
64,192,58364,1,0,0:0:0:0:
320,192,58551,1,0,0:0:0:0:
448,192,58739,1,0,0:0:0:0:
192,192,58739,1,0,0:0:0:0:
64,192,58926,1,0,0:0:0:0:
320,192,59114,1,0,0:0:0:0:
448,192,59301,1,0,0:0:0:0:
192,192,59489,1,0,0:0:0:0:
320,192,59676,1,0,0:0:0:0:
64,192,59864,1,0,0:0:0:0:
192,192,59864,1,0,0:0:0:0:
448,192,60051,1,0,0:0:0:0:
192,192,60239,1,0,0:0:0:0:
320,192,60239,1,0,0:0:0:0:
64,192,60426,1,0,0:0:0:0:
192,192,60614,1,0,0:0:0:0:
448,192,60614,1,0,0:0:0:0:
448,192,60989,1,0,0:0:0:0:
192,192,60989,1,0,0:0:0:0:
64,192,61364,1,0,0:0:0:0:
320,192,61551,1,0,0:0:0:0:
448,192,61739,1,0,0:0:0:0:
192,192,61739,1,0,0:0:0:0:
320,192,62114,1,0,0:0:0:0:
192,192,62301,1,0,0:0:0:0:
320,192,62489,1,0,0:0:0:0:
448,192,62489,1,0,0:0:0:0:
64,192,62676,1,0,0:0:0:0:
320,192,62864,1,0,0:0:0:0:
64,192,63051,1,0,0:0:0:0:
320,192,63239,1,0,0:0:0:0:
448,192,63239,1,0,0:0:0:0:
192,192,63426,1,0,0:0:0:0:
320,192,63614,1,0,0:0:0:0:
448,192,63801,1,0,0:0:0:0:
64,192,63989,1,0,0:0:0:0:
320,192,64176,1,0,0:0:0:0:
192,192,64364,1,0,0:0:0:0:
448,192,64551,1,0,0:0:0:0:
192,192,64739,1,0,0:0:0:0:
320,192,64926,1,0,0:0:0:0:
64,192,65114,1,0,0:0:0:0:
448,192,65114,1,0,0:0:0:0:
320,192,65301,1,0,0:0:0:0:
192,192,65489,1,0,0:0:0:0:
448,192,65676,1,0,0:0:0:0:
64,192,65864,1,0,0:0:0:0:
64,192,66051,1,0,0:0:0:0:
320,192,66239,1,0,0:0:0:0:
448,192,66239,1,0,0:0:0:0:
192,192,66426,1,0,0:0:0:0:
320,192,66614,1,0,0:0:0:0:
192,192,66801,1,0,0:0:0:0:
64,192,66989,1,0,0:0:0:0:
448,192,66989,1,0,0:0:0:0:
320,192,67176,1,0,0:0:0:0:
320,192,67364,1,0,0:0:0:0:
64,192,67551,1,0,0:0:0:0:
192,192,67739,1,0,0:0:0:0:
448,192,67739,1,0,0:0:0:0:
320,192,67926,1,0,0:0:0:0:
64,192,68114,128,0,68489:0:0:0:0:
448,192,68114,1,0,0:0:0:0:
192,192,68489,1,0,0:0:0:0:
448,192,68489,1,0,0:0:0:0:
320,192,68676,1,0,0:0:0:0:
192,192,68864,1,0,0:0:0:0:
448,192,68864,1,0,0:0:0:0:
320,192,69239,1,0,0:0:0:0:
448,192,69239,1,0,0:0:0:0:
192,192,69426,1,0,0:0:0:0:
64,192,69614,1,0,0:0:0:0:
320,192,69614,1,0,0:0:0:0:
448,192,69801,1,0,0:0:0:0:
192,192,69989,1,0,0:0:0:0:
64,192,69989,1,0,0:0:0:0:
448,192,70176,1,0,0:0:0:0:
192,192,70364,1,0,0:0:0:0:
320,192,70364,1,0,0:0:0:0:
64,192,70551,1,0,0:0:0:0:
320,192,70739,1,0,0:0:0:0:
448,192,70739,1,0,0:0:0:0:
192,192,70926,1,0,0:0:0:0:
64,192,71114,1,0,0:0:0:0:
448,192,71114,1,0,0:0:0:0:
320,192,71301,1,0,0:0:0:0:
64,192,71489,1,0,0:0:0:0:
448,192,71676,1,0,0:0:0:0:
320,192,71864,1,0,0:0:0:0:
64,192,71864,1,0,0:0:0:0:
192,192,72051,1,0,0:0:0:0:
320,192,72239,1,0,0:0:0:0:
448,192,72239,1,0,0:0:0:0:
64,192,72426,1,0,0:0:0:0:
320,192,72614,1,0,0:0:0:0:
192,192,72801,1,0,0:0:0:0:
320,192,72989,1,0,0:0:0:0:
448,192,72989,1,0,0:0:0:0:
64,192,73176,128,0,73551:0:0:0:0:
320,192,73551,1,0,0:0:0:0:
192,192,73739,1,0,0:0:0:0:
448,192,73739,1,0,0:0:0:0:
448,192,74114,1,0,0:0:0:0:
64,192,74114,1,0,0:0:0:0:
320,192,74301,1,0,0:0:0:0:
192,192,74489,1,0,0:0:0:0:
448,192,74676,1,0,0:0:0:0:
320,192,74864,1,0,0:0:0:0:
64,192,75051,1,0,0:0:0:0:
192,192,75239,1,0,0:0:0:0:
448,192,75239,1,0,0:0:0:0:
448,192,75426,1,0,0:0:0:0:
192,192,75426,1,0,0:0:0:0:
320,192,75801,128,0,75989:0:0:0:0:
448,192,75801,1,0,0:0:0:0:
64,192,75989,1,0,0:0:0:0:
192,192,75989,1,0,0:0:0:0:
448,192,76364,1,0,0:0:0:0:
320,192,76551,1,0,0:0:0:0:
192,192,76739,1,0,0:0:0:0:
64,192,76926,1,0,0:0:0:0:
448,192,77114,1,0,0:0:0:0:
320,192,77301,1,0,0:0:0:0:
192,192,77489,1,0,0:0:0:0:
64,192,77489,1,0,0:0:0:0:
448,192,77864,1,0,0:0:0:0:
320,192,78051,1,0,0:0:0:0:
448,192,78239,1,0,0:0:0:0:
192,192,78239,1,0,0:0:0:0:
64,192,78614,1,0,0:0:0:0:
64,192,78801,1,0,0:0:0:0:
320,192,78989,1,0,0:0:0:0:
448,192,78989,1,0,0:0:0:0:
448,192,79364,1,0,0:0:0:0:
192,192,79551,1,0,0:0:0:0:
320,192,79739,1,0,0:0:0:0:
64,192,79739,1,0,0:0:0:0:
448,192,80114,1,0,0:0:0:0:
320,192,80301,1,0,0:0:0:0:
64,192,80489,1,0,0:0:0:0:
192,192,80489,1,0,0:0:0:0:
320,192,80676,1,0,0:0:0:0:
448,192,80676,1,0,0:0:0:0:
64,192,80864,1,0,0:0:0:0:
320,192,81051,1,0,0:0:0:0:
192,192,81239,1,0,0:0:0:0:
448,192,81239,1,0,0:0:0:0:
64,192,81426,1,0,0:0:0:0:
448,192,81614,1,0,0:0:0:0:
192,192,81801,1,0,0:0:0:0:
320,192,81989,1,0,0:0:0:0:
64,192,81989,1,0,0:0:0:0:
192,192,82364,1,0,0:0:0:0:
448,192,82551,1,0,0:0:0:0:
320,192,82551,1,0,0:0:0:0:
192,192,82739,1,0,0:0:0:0:
64,192,82739,1,0,0:0:0:0:
448,192,83114,128,0,83489:0:0:0:0:
64,192,83114,1,0,0:0:0:0:
320,192,83489,1,0,0:0:0:0:
64,192,83489,1,0,0:0:0:0:
192,192,83676,1,0,0:0:0:0:
320,192,83864,1,0,0:0:0:0:
448,192,84239,1,0,0:0:0:0:
192,192,84426,1,0,0:0:0:0:
320,192,84614,1,0,0:0:0:0:
64,192,84801,1,0,0:0:0:0:
192,192,84989,1,0,0:0:0:0:
448,192,84989,1,0,0:0:0:0:
448,192,85364,1,0,0:0:0:0:
192,192,85551,1,0,0:0:0:0:
320,192,85739,1,0,0:0:0:0:
64,192,85739,1,0,0:0:0:0:
448,192,86114,1,0,0:0:0:0:
320,192,86301,1,0,0:0:0:0:
64,192,86489,1,0,0:0:0:0:
192,192,86489,1,0,0:0:0:0:
448,192,86676,1,0,0:0:0:0:
320,192,86676,1,0,0:0:0:0:
192,192,87051,1,0,0:0:0:0:
448,192,87239,1,0,0:0:0:0:
64,192,87239,1,0,0:0:0:0:
448,192,87426,128,0,89301:0:0:0:0:
64,192,87426,128,0,89301:0:0:0:0:
