osu file format v14

[General]
AudioFilename: Goose house - Hikaru nara -TV size-.mp3
AudioLeadIn: 2000
PreviewTime: 52956
Countdown: 0
SampleSet: Soft
StackLeniency: 0.3
Mode: 0
LetterboxInBreaks: 0
WidescreenStoryboard: 1

[Editor]
Bookmarks: 550,89050
DistanceSpacing: 1.3
BeatDivisor: 4
GridSize: 4
TimelineZoom: 1.2

[Metadata]
Title:Hikaru nara -TV size-
TitleUnicode:光るなら -TV size-
Artist:Goose house
ArtistUnicode:Goose house
Creator:Gero
Version:Your Lie in April
Source:四月は君の嘘
Tags:グース ハウス Shigatsu wa Kimi no Uso Your Lie in April Kimiuso I met the girl under full-bloomed cherry blossoms. and my fate has begun to change. Piano BeatofIke Dark Accelerator Melophobia Xinely Sekai-nyan -Sekai- Vicho
BeatmapID:583905
BeatmapSetID:251565

[Difficulty]
HPDrainRate:8
CircleSize:4
OverallDifficulty:8
ApproachRate:9
SliderMultiplier:1.7
SliderTickRate:2

[Events]
//Background and Video events
0,0,"BG.png",0,0
Video,-120,"Censored.avi"
//Break Periods
//Storyboard Layer 0 (Background)
//Storyboard Layer 1 (Fail)
//Storyboard Layer 2 (Pass)
//Storyboard Layer 3 (Foreground)
Sprite,Foreground,Centre,"SB/Names/Gero.png",320,240 S,0,175,,0.6799996 M,0,175,550,125,418,142,418 F,0,175,550,0,1 R,0,550,,-0.6826666 M,0,550,87362,142,418 F,0,550,87362,1 M,0,87362,89050,142,418,127,418 F,0,87362,89050,1,0
//Storyboard Sound Samples

[TimingPoints]
550,375,4,2,1,50,1,0
3362,-100,4,2,1,30,0,0
4675,-66.6666666666667,4,2,1,30,0,0
5050,-100,4,2,1,60,0,1
11050,-100,4,2,1,40,0,1
11237,-100,4,2,1,60,0,1
11800,-100,4,2,1,40,0,1
11987,-100,4,2,1,60,0,1
12362,-100,4,2,1,40,0,1
12925,-100,4,2,1,20,0,1
13112,-100,4,2,1,30,0,1
13300,-100,4,2,1,20,0,1
13487,-100,4,2,1,30,0,1
13675,-100,4,2,1,20,0,1
13862,-100,4,2,1,30,0,1
14050,-100,4,2,1,50,0,0
36925,-100,4,2,1,40,0,0
37018,-100,4,2,1,50,0,0
37300,-100,4,2,1,40,0,0
37393,-100,4,2,1,50,0,0
37675,-100,4,2,1,40,0,0
37768,-100,4,2,1,50,0,0
50050,-100,4,2,1,40,0,0
50237,-100,4,2,1,50,0,0
50800,-100,4,2,1,40,0,0
50987,-100,4,2,1,50,0,0
51362,-100,4,2,1,40,0,0
51550,-100,4,2,1,50,0,0
51737,-100,4,2,1,40,0,0
51925,-100,4,2,1,50,0,0
52112,-100,4,2,1,40,0,0
52300,-100,4,2,1,50,0,0
52487,-100,4,2,1,40,0,0
52675,-100,4,2,1,50,0,0
52862,-100,4,2,1,40,0,0
53050,-83.3333333333333,4,2,1,60,0,1
64956,-83.3333333333333,4,2,1,60,0,0
65050,-83.3333333333333,4,2,1,60,0,1
76956,-83.3333333333333,4,2,1,60,0,0
77050,-83.3333333333333,4,2,1,60,0,1
87362,-83.3333333333333,4,2,1,50,0,0
87550,-83.3333333333333,4,2,1,40,0,0
87925,-83.3333333333333,4,2,1,30,0,0
88300,-83.3333333333333,4,2,1,20,0,0
88675,-83.3333333333333,4,2,1,10,0,0
89050,-83.3333333333333,4,2,1,5,0,0

[Colours]
Combo1 : 186,198,147
Combo2 : 213,170,123
Combo3 : 128,185,255
Combo4 : 236,214,136
SliderBorder : 255,255,255

[HitObjects]
216,148,550,6,0,P|256:136|296:148,1,85
256,252,925,1,0,0:0:0:0:
174,39,1112,2,0,P|256:21|338:39,1,170
416,120,1675,1,0,0:0:0:0:
472,216,1862,2,0,B|420:268|420:268|412:288|412:288|356:344,1,170
256,380,2425,1,0,0:0:0:0:
152,340,2612,1,0,0:0:0:0:
216,32,3362,5,0,0:0:0:0:
216,32,3456,1,0,0:0:0:0:
216,32,3550,2,0,B|256:18|256:18|296:32,1,85
256,136,3925,1,0,0:0:0:0:
296,240,4112,1,0,0:0:0:0:
296,240,4206,1,0,0:0:0:0:
296,240,4300,2,0,B|256:254|256:254|216:240,1,85
140,168,4675,6,0,P|135:137|140:106,1,63.7500024318696,0|0,0:0|0:0,0:0:0:0:
216,240,4862,2,0,P|221:271|216:302,1,63.7500024318696,0|0,0:0|0:0,0:0:0:0:
140,378,5050,6,0,L|55:368,2,85,0|0|0,0:0|0:0|0:0,0:0:0:0:
216,303,5612,2,0,B|288:312|288:312|308:324|308:324|384:332,1,170,0|0,0:0|0:0,0:0:0:0:
468,264,6175,1,0,0:0:0:0:
360,60,6362,6,0,P|335:140|360:220,1,170
436,140,6925,1,0,0:0:0:0:
236,104,7112,2,0,P|228:145|236:186,1,85
284,376,7487,2,0,P|292:335|284:294,1,85
196,372,7862,6,0,L|368:384,1,170
452,312,8425,1,0,0:0:0:0:
176,344,8612,2,0,L|91:339,1,85
351,279,8987,2,0,L|436:284,1,85
276,200,9362,6,0,B|248:236|240:276|240:276|248:316|276:352,1,170
360,156,9925,2,0,B|276:184|276:136|192:156,1,170
88,192,10487,1,0,0:0:0:0:
40,292,10675,2,0,P|48:332|75:365,1,85
256,300,11050,5,0,0:0:0:0:
380,264,11237,2,0,B|412:264|412:264|420:268|420:268|420:260|420:260|428:264|428:264|456:264,1,85
272,260,11612,5,0,0:0:0:0:
392,228,11799,2,0,B|424:228|424:228|432:232|432:232|432:224|432:224|440:228|440:228|468:228,1,85
284,228,12175,5,0,0:0:0:0:
476,192,12362,1,0,0:0:0:0:
36,192,12925,5,0,0:0:0:0:
176,96,13112,1,0,0:0:0:0:
336,192,13300,1,0,0:0:0:0:
176,192,13487,1,0,0:0:0:0:
336,96,13675,1,0,0:0:0:0:
476,192,13862,1,0,0:0:0:0:
476,192,13956,1,0,0:0:0:0:
476,192,14050,6,0,P|508:268|476:344,1,170
384,280,14612,1,0,0:0:0:0:
296,216,14800,2,0,B|256:202|256:202|216:216,1,85
128,280,15175,1,0,0:0:0:0:
256,344,15362,1,0,0:0:0:0:
384,280,15550,6,0,B|352:212|352:212|336:196|336:196|304:128,1,170
220,60,16112,1,0,0:0:0:0:
108,48,16300,2,0,P|64:48|24:68,1,85
136,228,16675,2,0,P|180:228|220:208,1,85
72,156,17050,6,0,B|112:332,1,170,0|0,0:0|0:0,0:0:0:0:
208,372,17612,1,0,0:0:0:0:
0,212,17800,2,0,L|19:296,1,85
