osu file format v14

[General]
AudioFilename: Goose house - Hikaru nara -TV size-.mp3
AudioLeadIn: 2000
PreviewTime: 52956
Countdown: 0
SampleSet: Soft
StackLeniency: 0.3
Mode: 0
LetterboxInBreaks: 0
WidescreenStoryboard: 1

[Editor]
Bookmarks: 550,89050
DistanceSpacing: 1
BeatDivisor: 4
GridSize: 4
TimelineZoom: 1.2

[Metadata]
Title:Hikaru nara -TV size-
TitleUnicode:光るなら -TV size-
Artist:Goose house
ArtistUnicode:Goose house
Creator:Gero
Version:Relaxing
Source:四月は君の嘘
Tags:グース ハウス Shigatsu wa Kimi no Uso Your Lie in April Kimiuso I met the girl under full-bloomed cherry blossoms. and my fate has begun to change. Piano BeatofIke Dark Accelerator Melophobia Xinely Sekai-nyan -Sekai- Vicho
BeatmapID:577997
BeatmapSetID:251565

[Difficulty]
HPDrainRate:2
CircleSize:2.5
OverallDifficulty:2
ApproachRate:3
SliderMultiplier:1
SliderTickRate:2

[Events]
//Background and Video events
0,0,"BG.png",0,0
Video,-120,"Censored.avi"
//Break Periods
//Storyboard Layer 0 (Background)
//Storyboard Layer 1 (Fail)
//Storyboard Layer 2 (Pass)
//Storyboard Layer 3 (Foreground)
Sprite,Foreground,Centre,"SB/Names/Gero.png",320,240 S,0,175,,0.6799996 M,0,175,550,125,418,142,418 F,0,175,550,0,1 R,0,550,,-0.6826666 M,0,550,87362,142,418 F,0,550,87362,1 M,0,87362,89050,142,418,127,418 F,0,87362,89050,1,0
//Storyboard Sound Samples

[TimingPoints]
550,375,4,2,1,50,1,0
3362,-100,4,2,1,30,0,0
5050,-100,4,2,1,60,0,1
11050,-100,4,2,1,40,0,1
11237,-100,4,2,1,60,0,1
11800,-100,4,2,1,40,0,1
11987,-100,4,2,1,60,0,1
12362,-100,4,2,1,40,0,1
12925,-100,4,2,1,20,0,1
13112,-100,4,2,1,30,0,1
13300,-100,4,2,1,20,0,1
13487,-100,4,2,1,30,0,1
13675,-100,4,2,1,20,0,1
13862,-100,4,2,1,30,0,1
14050,-100,4,2,1,50,0,0
36925,-100,4,2,1,40,0,0
37018,-100,4,2,1,50,0,0
37300,-100,4,2,1,40,0,0
37393,-100,4,2,1,50,0,0
37675,-100,4,2,1,40,0,0
37768,-100,4,2,1,50,0,0
50050,-100,4,2,1,40,0,0
50237,-100,4,2,1,50,0,0
50800,-100,4,2,1,40,0,0
50987,-100,4,2,1,50,0,0
51362,-100,4,2,1,40,0,0
51550,-100,4,2,1,50,0,0
51737,-100,4,2,1,40,0,0
51925,-100,4,2,1,50,0,0
52112,-100,4,2,1,40,0,0
52300,-100,4,2,1,50,0,0
52487,-100,4,2,1,40,0,0
52675,-100,4,2,1,50,0,0
52862,-100,4,2,1,40,0,0
53050,-100,4,2,1,60,0,1
64956,-100,4,2,1,60,0,0
65050,-100,4,2,1,60,0,1
76956,-100,4,2,1,60,0,0
77050,-100,4,2,1,60,0,1
87362,-100,4,2,1,50,0,0
87550,-100,4,2,1,40,0,0
87925,-100,4,2,1,30,0,0
88300,-100,4,2,1,20,0,0
88675,-100,4,2,1,10,0,0
89050,-100,4,2,1,5,0,0

[Colours]
Combo1 : 186,198,147
Combo2 : 213,170,123
Combo3 : 128,185,255
Combo4 : 236,214,136
SliderBorder : 255,255,255

[HitObjects]
60,264,550,6,0,B|64:376|208:408|256:320|256:320|304:408|448:376|452:264,1,550,0|0,0:0|0:0,0:0:0:0:
328,48,3550,2,0,B|256:28|256:28|184:48,2,150,0|0|0,0:0|0:0|0:0,0:0:0:0:
424,16,5050,6,0,L|344:148,1,150,0|0,0:0|0:0,0:0:0:0:
416,214,5987,1,0,0:0:0:0:
345,284,6362,2,0,P|256:323|167:284,1,200,0|0,0:0|0:0,0:0:0:0:
96,214,7487,1,0,0:0:0:0:
167,144,7862,6,0,P|256:104|345:143,1,200,0|0,0:0|0:0,0:0:0:0:
416,214,8987,1,0,0:0:0:0:
324,256,9362,2,0,B|256:224|256:224|188:256,1,150,0|0,0:0|0:0,0:0:0:0:
96,310,10300,2,0,P|83:262|96:214,1,100
100,108,11050,6,0,B|256:29|256:29|412:108,2,350,0|0|0,0:0|0:0|0:0,0:0:0:0:
100,208,14050,5,0,0:0:0:0:
156,292,14425,2,0,P|252:292|304:212,1,200,0|0,0:0|0:0,0:0:0:0:
256,124,15550,1,0,0:0:0:0:
207,211,15925,2,0,P|260:292|356:292,1,200,0|0,0:0|0:0,0:0:0:0:
428,224,17050,6,0,P|455:292|428:360,2,150,0|0|0,0:0|0:0|0:0,0:0:0:0:
372,140,18550,2,0,P|344:71|371:3,2,150,0|0|0,0:0|0:0|0:0,0:0:0:0:
444,72,20050,6,0,L|144:72,1,300,0|0,0:0|0:0,0:0:0:0:
56,24,21550,2,0,P|140:80|140:176,1,200
71,242,22675,1,0,0:0:0:0:
140,312,23050,5,0,0:0:0:0:
140,312,23425,2,0,B|204:320|256:277|256:277|308:320|372:312,1,250
441,242,24737,1,0,0:0:0:0:
370,171,25112,2,0,P|347:101|370:31,1,150,0|0,0:0|0:0,0:0:0:0:
468,16,26050,6,0,L|256:16,1,200,0|0,0:0|0:0,0:0:0:0:
180,64,27175,1,0,0:0:0:0:
96,120,27550,2,0,B|100:160|80:192|80:192|100:224|96:264,2,150
180,64,29050,2,0,B|220:108|312:64|316:0|256:-27|196:0|200:64|292:108|332:64,1,300
416,120,30550,2,0,B|412:160|432:192|432:192|412:224|416:264,2,150
332,64,32050,6,0,B|280:64|256:9|256:9|232:64|180:64,1,200
104,132,33175,1,0,0:0:0:0:
180,196,33550,2,0,B|232:196|256:251|256:251|280:196|332:196,1,200
408,132,34675,1,0,0:0:0:0:
485,197,35050,6,0,L|343:339,1,200
256,288,36175,1,0,0:0:0:0:
169,339,36550,2,0,P|101:366|33:339,2,150
256,288,38050,6,0,P|324:261|392:288,2,150
324,360,39550,2,0,L|355:61,1,300
256,96,41050,2,0,P|188:123|120:96,2,150
188,24,42550,2,0,L|156:322,1,300
256,288,44050,5,0,0:0:0:0:
355,253,44425,2,0,B|405:253|405:253|448:280,1,100
496,192,45175,1,0,0:0:0:0:
448,104,45550,2,0,B|405:131|405:131|355:131,1,100
256,96,46300,1,0,0:0:0:0:
157,131,46675,6,0,P|12:191|156:253,1,400
256,288,48550,1,0,0:0:0:0:
355,253,48925,2,0,L|457:80,1,200
360,56,50050,6,0,L|337:100,1,50
263,32,50612,2,0,L|240:76,1,50
166,8,51175,2,0,L|143:52,1,50
256,192,51550,12,0,53050,0:0:0:0:
188,192,54550,6,0,P|256:219|324:192,2,150
256,120,56050,1,0,0:0:0:0:
324,48,56425,2,0,B|424:48|424:48|496:120,1,200
428,192,57550,1,0,0:0:0:0:
494,265,57925,2,0,B|424:336|424:336|324:336,1,200
256,264,59050,6,0,L|124:352,2,150
325,192,60550,1,0,0:0:0:0:
256,120,60925,2,0,P|206:108|160:120,1,100
89,49,61675,1,0,0:0:0:0:
18,119,62050,6,0,B|32:167|32:167|18:215,1,100
88,285,62800,2,0,B|74:333|74:333|88:381,1,100
176,332,63550,2,0,P|256:281|336:332,1,200
406,261,64675,1,0,0:0:0:0:
336,192,65050,6,0,B|308:168|300:128|300:128|308:88|336:64,2,150
406,261,66550,2,0,L|256:248,2,150
480,328,68050,2,0,P|507:259|480:191,1,150
406,123,68987,1,0,0:0:0:0:
336,192,69362,2,0,L|112:80,1,250
36,16,70675,1,0,0:0:0:0:
112,80,71050,6,0,P|136:156|101:215,1,150
208,120,71987,2,0,L|328:112,1,100
384,156,72737,1,0,0:0:0:0:
300,212,73112,2,0,P|292:296|344:316,1,150
180,216,74050,6,0,P|128:104|308:144,2,400
256,280,77425,2,0,L|436:176,2,200,0|0|0,0:0|0:0|0:0,0:0:0:0:
184,348,79300,1,0,0:0:0:0:
112,308,79675,1,0,0:0:0:0:
60,224,80050,6,0,P|188:232|212:216,1,150,0|0,0:0|0:0,0:0:0:0:
328,140,81175,2,0,P|244:60|204:68,1,150,0|0,0:0|0:0,0:0:0:0:
84,120,82300,2,0,L|80:224,1,100
152,288,83050,6,0,P|240:224|316:268,1,200,0|0,0:0|0:0,0:0:0:0:
416,92,84550,2,0,P|296:144|252:100,1,200,0|0,0:0|0:0,0:0:0:0:
188,180,85675,1,0,0:0:0:0:
136,264,86050,6,0,L|296:260,1,150,0|0,0:0|0:0,0:0:0:0:
316,164,86987,2,0,L|200:140,1,100
256,192,87550,12,0,89050,0:0:0:0:
