osu file format v14

[General]
AudioFilename: Goose house - Hikaru nara -TV size-.mp3
AudioLeadIn: 2000
PreviewTime: 52956
Countdown: 0
SampleSet: Soft
StackLeniency: 0.3
Mode: 0
LetterboxInBreaks: 0
WidescreenStoryboard: 1

[Editor]
Bookmarks: 550,89050
DistanceSpacing: 1.1
BeatDivisor: 4
GridSize: 4
TimelineZoom: 1.2

[Metadata]
Title:Hikaru nara -TV size-
TitleUnicode:光るなら -TV size-
Artist:Goose house
ArtistUnicode:Goose house
Creator:Gero
Version:Hard
Source:四月は君の嘘
Tags:グース ハウス Shigatsu wa Kimi no Uso Your Lie in April Kimiuso I met the girl under full-bloomed cherry blossoms. and my fate has begun to change. Piano BeatofIke Dark Accelerator Melophobia Xinely Sekai-nyan -Sekai- Vicho
BeatmapID:577767
BeatmapSetID:251565

[Difficulty]
HPDrainRate:7
CircleSize:4
OverallDifficulty:7
ApproachRate:8
SliderMultiplier:1.6
SliderTickRate:2

[Events]
//Background and Video events
0,0,"BG.png",0,0
Video,-120,"Censored.avi"
//Break Periods
//Storyboard Layer 0 (Background)
//Storyboard Layer 1 (Fail)
//Storyboard Layer 2 (Pass)
//Storyboard Layer 3 (Foreground)
Sprite,Foreground,Centre,"SB/Names/Gero.png",320,240 S,0,175,,0.6799996 M,0,175,550,125,418,142,418 F,0,175,550,0,1 R,0,550,,-0.6826666 M,0,550,87362,142,418 F,0,550,87362,1 M,0,87362,89050,142,418,127,418 F,0,87362,89050,1,0
//Storyboard Sound Samples

[TimingPoints]
550,375,4,2,1,50,1,0
3362,-100,4,2,1,30,0,0
5050,-100,4,2,1,60,0,1
11050,-100,4,2,1,40,0,1
11237,-100,4,2,1,60,0,1
11800,-100,4,2,1,40,0,1
11987,-100,4,2,1,60,0,1
12362,-100,4,2,1,40,0,1
12925,-100,4,2,1,20,0,1
13112,-100,4,2,1,30,0,1
13300,-100,4,2,1,20,0,1
13487,-100,4,2,1,30,0,1
13675,-100,4,2,1,20,0,1
13862,-100,4,2,1,30,0,1
14050,-100,4,2,1,50,0,0
36925,-100,4,2,1,40,0,0
37018,-100,4,2,1,50,0,0
37300,-100,4,2,1,40,0,0
37393,-100,4,2,1,50,0,0
37675,-100,4,2,1,40,0,0
37768,-100,4,2,1,50,0,0
50050,-100,4,2,1,40,0,0
50237,-100,4,2,1,50,0,0
50800,-100,4,2,1,40,0,0
50987,-100,4,2,1,50,0,0
51362,-100,4,2,1,40,0,0
51550,-100,4,2,1,50,0,0
51737,-100,4,2,1,40,0,0
51925,-100,4,2,1,50,0,0
52112,-100,4,2,1,40,0,0
52300,-100,4,2,1,50,0,0
52487,-100,4,2,1,40,0,0
52675,-100,4,2,1,50,0,0
52862,-100,4,2,1,40,0,0
53050,-83.3333333333333,4,2,1,60,0,1
64956,-83.3333333333333,4,2,1,60,0,0
65050,-83.3333333333333,4,2,1,60,0,1
76956,-83.3333333333333,4,2,1,60,0,0
77050,-83.3333333333333,4,2,1,60,0,1
87362,-83.3333333333333,4,2,1,50,0,0
87550,-83.3333333333333,4,2,1,40,0,0
87925,-83.3333333333333,4,2,1,30,0,0
88300,-83.3333333333333,4,2,1,20,0,0
88675,-83.3333333333333,4,2,1,10,0,0
89050,-83.3333333333333,4,2,1,5,0,0

[Colours]
Combo1 : 186,198,147
Combo2 : 213,170,123
Combo3 : 128,185,255
Combo4 : 236,214,136
SliderBorder : 255,255,255

[HitObjects]
256,244,550,6,0,B|296:244|296:244|336:268,1,80,2|0,0:0|0:0,0:0:0:0:
398,332,925,1,0,0:0:0:0:
465,264,1112,2,0,B|473:216|497:192|497:192|473:168|465:120,1,160,2|0,0:0|0:0,0:0:0:0:
392,56,1675,1,0,0:0:0:0:
316,116,1862,2,0,B|288:148|256:168|256:168|224:148|196:116,1,160,2|0,0:0|0:0,0:0:0:0:
120,56,2425,1,0,0:0:0:0:
47,120,2612,1,2,0:0:0:0:
47,120,3362,5,0,1:0:0:0:
47,120,3456,1,0,1:0:0:0:
47,120,3550,2,0,B|47:159|47:159|24:196,1,80,0|0,1:0|0:0,0:0:0:0:
76,276,3925,1,0,1:0:0:0:
132,352,4112,5,0,0:0:0:0:
132,352,4206,1,0,1:0:0:0:
132,352,4300,2,0,B|160:352|160:352|168:348|168:348|168:356|168:356|176:352|176:352|204:352,1,80,0|0,0:0|1:0,0:0:0:0:
256,272,4675,1,0,1:0:0:0:
256,272,4768,1,0,1:0:0:0:
256,272,4862,1,0,1:0:0:0:
309,352,5050,6,0,B|336:352|336:352|344:356|344:356|344:348|344:348|352:352|352:352|380:352,1,80,4|0,0:0|0:0,0:0:0:0:
436,276,5425,1,2,1:3:0:0:
384,196,5612,2,0,P|354:124|384:52,1,160,2|4,0:0|0:3,0:0:0:0:
448,124,6175,1,2,1:3:0:0:
384,196,6362,6,0,B|352:160|304:160|304:160|224:160,1,160,2|0,0:0|0:0,0:0:0:0:
166,91,6925,1,2,1:3:0:0:
98,158,7112,2,0,P|90:196|97:235,1,80,4|0,0:3|0:0,0:0:0:0:
256,348,7487,2,0,P|263:309|256:270,1,80,4|2,0:3|1:3,0:0:0:0:
176,372,7862,6,0,B|248:372|248:372|264:380|264:380|344:380,1,160,2|0,0:0|0:0,0:0:0:0:
400,312,8425,1,2,1:3:0:0:
332,244,8612,2,0,P|324:205|332:166,1,80,2|4,0:0|0:3,0:0:0:0:
403,26,8987,2,0,P|411:65|404:104,1,80,4|0,0:3|1:3,0:0:0:0:
316,64,9362,6,0,L|152:64,1,160,2|0,0:0|0:0,0:0:0:0:
64,92,9925,2,0,P|140:92|192:152,1,160,2|2,1:3|0:0,0:0:0:0:
100,180,10487,1,4,0:3:0:0:
64,92,10675,2,0,L|80:8,1,80,2|0,1:3|0:0,0:0:0:0:
256,132,11050,5,4,1:2:0:0:
296,220,11237,2,0,P|256:288|180:300,1,160,6|6,1:3|1:3,0:0:0:0:
216,220,11800,2,0,P|256:288|332:300,1,160,4|6,1:2|1:3,0:0:0:0:
256,372,12362,1,4,1:2:0:0:
172,108,12925,5,4,0:0:0:0:
304,16,13112,1,2,3:0:0:0:
256,168,13300,1,4,0:0:0:0:
208,16,13487,1,2,3:0:0:0:
340,108,13674,1,4,0:0:0:0:
172,108,13862,1,2,3:0:0:0:
172,108,13956,1,2,3:0:0:0:
172,108,14050,6,0,B|104:108|104:108|84:120|84:120|8:120,1,160,4|2,0:0|1:3,0:0:0:0:
56,32,14612,1,0,0:0:0:0:
140,200,14800,2,0,L|120:280,1,80,4|4,0:3|0:3,0:0:0:0:
16,308,15175,2,0,L|36:228,1,80,2|0,1:3|0:0,0:0:0:0:
176,360,15550,6,0,B|256:340|256:380|336:360,1,160,4|2,0:3|1:3,0:0:0:0:
388,280,16112,1,0,0:0:0:0:
292,276,16300,1,4,0:3:0:0:
333,360,16487,1,4,0:3:0:0:
432,364,16675,2,0,B|464:340|464:340|480:304,1,80,2|0,1:3|0:0,0:0:0:0:
446,131,17050,6,0,L|388:281,1,160,4|2,0:3|1:3,0:0:0:0:
300,320,17612,1,0,0:0:0:0:
212,364,17800,2,0,P|172:364|132:344,1,80,4|4,0:3|0:3,0:0:0:0:
136,192,18175,2,0,P|176:192|216:212,1,80,2|0,1:3|0:0,0:0:0:0:
96,264,18550,6,0,B|104:196|104:196|116:176|116:176|124:108,1,160,4|2,0:3|1:3,0:0:0:0:
64,32,19112,2,0,B|100:16|100:16|140:16,1,80,0|4,0:0|0:3,0:0:0:0:
292,72,19487,2,0,B|256:89|256:89|220:72,1,80,4|2,0:3|1:3,0:0:0:0:
371,16,19862,1,0,0:0:0:0:
371,16,19956,1,0,0:0:0:0:
371,16,20050,6,0,B|411:16|411:16|447:32,1,80,4|0,0:3|0:0,0:0:0:0:
388,108,20425,2,0,B|396:176|396:176|408:196|408:196|416:264,1,160,2|4,1:3|0:3,0:0:0:0:
352,336,20987,1,4,0:3:0:0:
491,206,21175,2,0,B|488:168|488:168|484:160|484:160|480:128,1,80,2|0,1:3|0:0,0:0:0:0:
456,36,21550,6,0,B|424:4|376:4|376:4|304:4,1,160,4|2,0:3|1:3,0:0:0:0:
240,72,22112,1,0,0:0:0:0:
188,153,22300,2,0,P|180:192|188:231,1,80,4|4,0:3|0:3,0:0:0:0:
324,230,22675,2,0,P|331:191|324:153,1,80,2|0,1:3|0:0,0:0:0:0:
184,320,23050,6,0,B|228:316|256:347|256:347|284:316|328:320,1,160,4|2,0:3|1:3,0:0:0:0:
416,280,23612,1,0,0:0:0:0:
499,231,23800,2,0,B|507:192|507:192|499:153,1,80,4|4,0:3|0:3,0:0:0:0:
416,104,24175,1,2,1:3:0:0:
328,64,24362,6,0,B|284:68|256:37|256:37|228:68|184:64,1,160,2|2,0:0|0:0,0:0:0:0:
96,104,24925,1,2,1:3:0:0:
13,153,25112,2,0,B|5:192|5:192|13:231,1,80,2|4,0:0|0:3,0:0:0:0:
95,280,25487,1,4,0:3:0:0:
177,231,25675,2,0,B|185:192|185:192|177:153,1,80,2|0,1:3|0:0,0:0:0:0:
95,280,26050,6,0,L|239:364,1,160,4|2,0:3|1:3,0:0:0:0:
328,368,26612,1,0,0:0:0:0:
412,324,26800,2,0,P|432:288|432:248,1,80,4|4,0:3|0:3,0:0:0:0:
319,189,27175,2,0,P|320:229|340:264,1,80,2|0,1:3|0:0,0:0:0:0:
372,109,27550,6,0,B|324:77|268:105|268:105|204:105,1,160,4|2,0:3|1:3,0:0:0:0:
149,36,28112,1,0,0:0:0:0:
80,104,28300,2,0,P|71:142|79:182,1,80,4|4,0:3|0:3,0:0:0:0:
147,328,28675,2,0,P|155:288|147:250,1,80,2|0,1:3|0:0,0:0:0:0:
64,360,29050,6,0,L|232:360,1,160,4|2,0:3|1:3,0:0:0:0:
291,292,29612,1,0,0:0:0:0:
222,223,29800,1,4,0:3:0:0:
222,223,29987,2,0,B|214:184|214:184|222:145,1,80,4|2,0:3|1:3,0:0:0:0:
144,88,30362,6,0,B|172:52|220:52|220:52|292:52,1,160
380,8,30925,1,2,1:3:0:0:
460,64,31112,2,0,L|408:220,1,160,0|4,0:0|0:3,0:0:0:0:
476,284,31675,1,2,1:3:0:0:
408,352,31862,1,0,0:0:0:0:
408,352,31956,1,0,0:0:0:0:
408,352,32050,6,0,B|336:352|336:352|320:360|320:360|248:360,1,160,4|2,0:3|1:3,0:0:0:0:
180,292,32612,1,0,0:0:0:0:
248,220,32800,2,0,L|335:220,1,80,4|4,0:3|0:3,0:0:0:0:
180,292,33175,2,0,L|93:292,1,80,2|0,1:3|0:0,0:0:0:0:
248,220,33550,6,0,P|278:292|248:364,1,160,4|2,0:3|1:3,0:0:0:0:
180,292,34112,1,0,0:0:0:0:
364,252,34300,2,0,P|372:290|364:330,1,80,4|4,0:3|0:3,0:0:0:0:
248,220,34675,2,0,P|239:181|247:141,1,80,2|0,1:3|0:0,0:0:0:0:
324,84,35050,5,4,0:3:0:0:
400,24,35237,2,0,B|440:24|440:24|476:48,1,80,2|2,0:0|1:3,0:0:0:0:
412,120,35612,1,0,0:0:0:0:
412,120,35800,2,0,P|382:192|412:264,1,160,4|2,0:3|1:3,0:0:0:0:
476,336,36362,6,0,P|506:264|476:192,1,160,2|2,0:0|1:3,0:0:0:0:
412,264,36925,1,4,1:2:0:0:
348,332,37112,2,0,B|308:332|308:332|272:352,1,80,4|4,0:3|1:2,0:0:0:0:
256,256,37487,2,0,L|185:293,1,80,4|4,0:3|1:2,0:0:0:0:
112,232,37862,1,0,0:0:0:0:
112,232,37956,1,0,0:0:0:0:
112,232,38050,5,4,0:0:0:0:
40,168,38237,2,0,P|10:96|40:24,1,160,4|4,0:3|0:3,0:0:0:0:
104,96,38800,2,0,B|124:76|152:76|152:76|180:76,1,80,4|0,0:3|0:0,0:0:0:0:
330,116,39175,2,0,B|310:136|282:136|282:136|256:136,1,80,0|0,1:0|0:0,0:0:0:0:
398,47,39550,5,4,0:3:0:0:
465,114,39737,2,0,B|457:153|457:153|465:192,1,80,4|0,0:3|0:0,0:0:0:0:
368,352,40112,2,0,B|392:276|392:276|368:200,1,160,2|4,0:0|0:3,0:0:0:0:
304,276,40675,1,0,1:0:0:0:
484,316,40862,1,0,0:0:0:0:
484,316,40956,1,0,0:0:0:0:
484,316,41050,6,0,B|492:277|492:277|484:238,1,80,4|4,0:3|0:3,0:0:0:0:
304,198,41425,2,0,B|296:237|296:237|304:276,1,80,0|4,0:0|0:3,0:0:0:0:
400,188,41800,2,0,B|408:149|408:149|400:110,1,80,4|0,0:3|0:0,0:0:0:0:
220,70,42175,2,0,B|212:109|212:109|220:148,1,80,0|0,1:0|0:0,0:0:0:0:
300,24,42550,6,0,L|140:24,1,160,4|0,0:3|0:0,0:0:0:0:
64,84,43112,2,0,P|34:156|64:228,1,160,0|4,1:0|0:3,0:0:0:0:
198,156,43675,2,0,B|166:156|166:156|158:160|158:160|158:152|158:152|150:156|150:156|128:156,1,80,0|0,1:0|0:0,0:0:0:0:
216,248,44050,6,0,B|248:248|248:248|256:244|256:244|256:252|256:252|264:248|264:248|286:248,1,80,4|4,1:0|0:3,0:0:0:0:
360,312,44425,1,2,1:3:0:0:
432,248,44612,1,0,0:0:0:0:
432,248,44800,2,0,B|408:216|408:216|408:168,1,80,4|4,0:3|0:3,0:0:0:0:
336,112,45175,1,2,1:3:0:0:
256,56,45362,6,0,B|288:16|340:16|340:16|408:16,1,160,0|4,0:0|0:3,0:0:0:0:
484,72,45925,2,0,B|452:112|400:112|400:112|332:112,1,160,2|4,1:3|0:3,0:0:0:0:
256,56,46487,1,4,0:3:0:0:
176,112,46675,2,0,B|176:152|176:152|156:188,1,80,2|0,1:3|0:0,0:0:0:0:
180,280,47050,6,0,B|224:280|256:300|256:300|288:280|332:280,1,160,4|2,0:3|1:3,0:0:0:0:
256,208,47612,1,0,0:0:0:0:
180,280,47800,2,0,P|172:318|179:357,1,80,4|4,0:3|0:3,0:0:0:0:
332,358,48175,2,0,P|340:318|332:280,1,80,2|0,1:3|0:0,0:0:0:0:
436,120,48550,6,0,P|407:192|436:264,1,160,4|2,0:3|1:3,0:0:0:0:
500,192,49112,1,0,0:0:0:0:
436,120,49300,2,0,B|352:120,1,80,4|4,0:3|0:3,0:0:0:0:
216,192,49675,2,0,B|296:192,1,80,2|0,1:3|0:0,0:0:0:0:
140,120,50050,5,6,1:2:0:0:
140,120,50237,2,0,P|110:192|140:264,1,160,4|4,1:3|1:3,0:0:0:0:
372,264,50800,2,0,P|402:192|372:120,1,160,4|4,1:2|1:3,0:0:0:0:
216,192,51362,6,0,B|248:224|256:260|256:260|264:224|296:192,1,160,4|2,1:2|0:0,0:0:0:0:
256,104,51925,1,4,0:3:0:0:
140,264,52112,1,2,0:0:0:0:
372,264,52300,1,4,0:3:0:0:
216,192,52487,1,2,0:0:0:0:
256,280,52675,1,4,0:3:0:0:
296,192,52862,1,2,0:0:0:0:
300,28,53050,6,0,P|256:12|212:28,1,95.9999970703126,4|0,0:0|0:0,0:0:0:0:
132,96,53425,1,2,1:3:0:0:
68,180,53612,2,0,B|68:228|28:264|28:264|68:300|68:348,1,191.999994140625,4|4,0:3|0:3,0:0:0:0:
140,264,54175,1,2,1:3:0:0:
68,180,54362,6,0,L|4:92,2,95.9999970703126,0|4|0,0:0|0:3|0:0,0:0:0:0:
140,264,54925,1,2,1:3:0:0:
212,340,55112,2,0,L|408:376,1,191.999994140625,0|4,0:0|0:3,0:0:0:0:
480,308,55675,1,2,1:3:0:0:
404,236,55862,1,0,0:0:0:0:
404,236,56050,6,0,P|388:192|404:148,1,95.9999970703126,4|0,0:3|0:0,0:0:0:0:
480,76,56425,1,2,1:3:0:0:
400,9,56612,2,0,L|212:44,1,191.999994140625,4|4,0:3|0:3,0:0:0:0:
132,116,57175,1,2,1:3:0:0:
208,192,57362,6,0,P|169:276|208:360,1,191.999994140625
268,276,57925,2,0,P|307:192|268:108,1,191.999994140625,2|4,1:3|0:3,0:0:0:0:
208,192,58487,1,0,0:0:0:0:
268,276,58675,2,0,L|368:276,1,95.9999970703126,2|0,1:3|0:0,0:0:0:0:
209,360,59050,6,0,L|109:360,2,95.9999970703126,4|0|2,0:0|0:0|1:3,0:0:0:0:
268,276,59612,2,0,B|348:276|348:276|376:292|376:292|456:292,1,191.999994140625,4|4,0:3|0:3,0:0:0:0:
496,192,60175,1,2,1:3:0:0:
496,192,60362,6,0,P|507:146|496:100,2,95.9999970703126,0|0|0,0:0|0:0|0:0,0:0:0:0:
400,144,60925,1,2,1:3:0:0:
304,100,61112,2,0,B|256:68|212:68|212:68|116:68,1,191.999994140625,0|4,0:0|0:3,0:0:0:0:
40,140,61675,1,2,1:3:0:0:
40,244,61862,1,0,0:0:0:0:
118,316,62050,6,0,B|164:316|164:316|212:332,1,95.9999970703126,4|0,0:3|0:0,0:0:0:0:
308,376,62425,1,2,1:3:0:0:
400,330,62612,2,0,B|440:238|368:238|400:144,1,191.999994140625,4|4,0:3|0:3,0:0:0:0:
488,84,63175,1,2,1:3:0:0:
488,188,63362,1,0,0:0:0:0:
392,52,63550,6,0,B|344:52|344:52|308:16,1,95.9999970703126,4|0,0:3|0:0,0:0:0:0:
120,52,63925,2,0,B|168:52|168:52|204:16,1,95.9999970703126,2|4,1:3|0:3,0:0:0:0:
304,128,64300,2,0,P|268:160|256:204,1,95.9999970703126,0|4,0:0|0:3,0:0:0:0:
208,128,64675,2,0,P|244:160|256:204,1,95.9999970703126,2|0,1:3|0:0,0:0:0:0:
340,268,65050,6,0,P|256:308|172:268,1,191.999994140625,4|2,0:0|1:3,0:0:0:0:
92,336,65612,2,0,B|68:252|68:252|72:236|72:236|52:148,1,191.999994140625,4|4,0:3|0:3,0:0:0:0:
104,56,66175,1,2,1:3:0:0:
104,56,66362,6,0,P|144:32|192:32,1,95.9999970703126,0|4,0:0|0:3,0:0:0:0:
328,184,66737,2,0,P|288:208|240:208,1,95.9999970703126,0|2,0:0|1:3,0:0:0:0:
256,104,67112,2,0,L|388:248,1,191.999994140625,4|4,0:3|0:3,0:0:0:0:
468,312,67675,1,2,1:3:0:0:
368,348,67862,1,0,0:0:0:0:
484,212,68050,6,0,B|492:164|492:164|484:116,1,95.9999970703126,4|0,0:3|0:0,0:0:0:0:
424,32,68425,1,2,1:3:0:0:
332,84,68612,2,0,B|284:92|256:137|256:137|228:92|180:84,1,191.999994140625,4|4,0:3|0:3,0:0:0:0:
88,32,69175,1,2,1:3:0:0:
27,117,69362,6,0,B|20:164|20:164|28:212,1,95.9999970703126,0|4,0:0|0:3,0:0:0:0:
124,260,69737,2,0,B|131:213|131:213|123:165,1,95.9999970703126,0|2,0:0|1:3,0:0:0:0:
28,212,70112,1,4,0:3:0:0:
124,260,70300,1,4,0:3:0:0:
220,304,70487,1,4,0:3:0:0:
220,304,70581,1,0,0:0:0:0:
220,304,70675,2,0,B|268:304|268:304|308:332,1,95.9999970703126,2|0,1:3|0:0,0:0:0:0:
400,276,71050,6,0,P|440:192|400:108,1,191.999994140625,4|2,0:0|1:3,0:0:0:0:
336,24,71612,2,0,P|296:108|336:192,1,191.999994140625,4|4,0:3|0:3,0:0:0:0:
400,108,72175,1,2,1:3:0:0:
336,24,72362,6,0,B|248:24|248:24|232:32|232:32|144:32,1,191.999994140625
64,100,72925,1,2,1:3:0:0:
16,192,73112,2,0,P|1:237|15:282,1,95.9999970703126,0|4,0:0|0:3,0:0:0:0:
184,376,73487,2,0,P|198:330|184:285,2,95.9999970703126,4|2|0,0:3|1:3|0:0,0:0:0:0:
104,236,74050,6,0,L|296:212,1,191.999994140625,4|4,3:0|3:0,0:0:0:0:
336,116,74612,2,0,L|144:140,1,191.999994140625,4|4,3:0|3:0,0:0:0:0:
104,236,75175,1,4,3:2:0:0:
144,332,75362,5,0,1:0:0:0:
144,332,75456,1,0,1:0:0:0:
144,332,75550,2,0,P|192:332|232:308,1,95.9999970703126,2|4,1:2|0:3,0:0:0:0:
312,376,75925,2,0,P|335:334|333:287,1,95.9999970703126,2|4,1:3|0:3,0:0:0:0:
436,268,76300,2,0,P|418:223|382:194,1,95.9999970703126,2|0,1:2|0:0,0:0:0:0:
460,120,76675,1,2,1:3:0:0:
380,52,76862,1,4,0:3:0:0:
380,52,76956,1,4,0:3:0:0:
380,52,77050,6,0,L|184:32,1,191.999994140625,4|2,0:0|1:3,0:0:0:0:
84,44,77612,1,0,0:0:0:0:
24,128,77800,2,0,P|8:172|24:216,1,95.9999970703126,4|4,0:3|0:3,0:0:0:0:
112,272,78175,2,0,P|128:228|112:184,1,95.9999970703126,2|0,1:3|0:0,0:0:0:0:
32,336,78550,6,0,P|112:381|192:336,1,191.999994140625,4|2,0:3|1:3,0:0:0:0:
256,252,79112,1,0,0:0:0:0:
319,335,79300,2,0,P|399:380|480:336,1,191.999994140625,4|2,0:3|1:3,0:0:0:0:
400,272,79862,1,0,0:0:0:0:
344,160,80050,6,0,B|336:132|326:116|326:116|336:100|344:72,1,95.9999970703126,4|0,0:3|0:0,0:0:0:0:
432,12,80425,1,2,1:3:0:0:
440,116,80612,2,0,L|248:116,1,191.999994140625,4|4,0:3|0:3,0:0:0:0:
168,224,81175,6,0,B|176:252|186:268|186:268|176:284|168:312,1,95.9999970703126,2|0,1:3|0:0,0:0:0:0:
80,372,81550,1,0,0:0:0:0:
72,268,81737,2,0,L|264:268,1,191.999994140625,4|4,0:3|0:3,0:0:0:0:
360,312,82300,5,4,0:3:0:0:
452,260,82487,1,4,0:3:0:0:
452,260,82675,2,0,B|460:232|470:216|470:216|460:200|452:172,1,95.9999970703126,2|0,1:3|0:0,0:0:0:0:
496,68,83050,6,0,B|449:99|405:82|405:82|391:127|337:145,1,191.999994140625,4|2,0:0|1:3,0:0:0:0:
256,80,83612,1,0,0:0:0:0:
174,145,83800,2,0,B|120:127|106:82|106:82|62:99|16:68,1,191.999994140625,4|2,0:3|1:3,0:0:0:0:
60,172,84362,1,0,0:0:0:0:
60,172,84550,6,0,B|52:200|42:216|42:216|52:232|60:260,1,95.9999970703126,4|0,0:3|0:0,0:0:0:0:
156,308,84925,2,0,B|164:280|174:264|174:264|164:248|156:220,1,95.9999970703126,2|4,1:3|0:3,0:0:0:0:
76,340,85300,2,0,L|266:372,1,191.999994140625,0|2,0:0|1:3,0:0:0:0:
348,308,85862,1,0,0:0:0:0:
424,236,86050,6,0,P|438:191|424:146,2,95.9999970703126,4|0|2,0:3|0:0|1:3,0:0:0:0:
328,192,86612,2,0,B|280:208|256:252|256:252|232:208|184:192,1,191.999994140625,4|0,0:0|0:0,0:0:0:0:
256,116,87175,1,2,1:3:0:0:
256,344,87362,1,4,0:0:0:0:
256,192,87550,12,0,89050,0:0:0:0:
